(Classical/Concerto/Piano/Vocal/Chamber) Friedrich Gulda: Genie und Rebell / Genius and Rebel [Mozart; Beethoven; Chopin; Strauss; and more] - 2010, FLAC (image+.cue) lossless


Статистика раздачи [Обновить пиров]
Размер:  1.59 GB   |    Зарегистрирован:  1 год 1 месяц   |    Скачан:  0 раз

Полного источника не было: Никогда

Личеров:  5  [  0 KB/s  ]   Подробная статистика пиров
 
   
 
 
 

[Цитировать]

Торрент обновлён 06-Янв-14Friedrich Gulda: Genie und Rebell / Genius and Rebel [Mozart; Beethoven; Chopin; Strauss; and more]
Жанр: Classical/Concerto/Piano/Vocal/Chamber
Страна-производитель диска: EU
Год издания диска: 2010
Издатель (лейбл): DOCUMENTS
Номер по каталогу: 233021
Дата записи: 1950-1959
Аудиокодек: FLAC
Тип рипа: image+.cue
Битрейт аудио: lossless
Продолжительность: 10 CDs
Источник: релизер Keikobad
Наличие сканов в содержимом раздачи: да

ТреклистDisk 1 von 10

Mozart
Konzert für Klavier und Orchester Nr. 24 c-moll KV 491
[1] 1. Allegro (13:33)
[2] 2. Larghetto (7:31)
[3] 3. Allegretto (8:28)
Friderich Gulda, Klavier / piano – RIAS-Symphonie-Orchester – Igor Markevitch (1953)
Weber
[4] Konzertstück für Klavier und Orchester f-moll op. 79 (16:13)
Friderich Gulda, Klavier / piano – Wiener Philharmoniker – Volkmar Andrae (1956)

Disk 2 von 10

Beethoven
Konzert für Klavier und Orchester Nr. 1 C-Dur op. 15
[1] 1. Allegro con brio (18:53)
[2] 2. Largo (12:31)
[3] 3. Rondo: Allegro scherzando (9:05)
Sonate für Klavier Nr. 26 Es-Dur op. 81a "Les Adieux"
[4] 1. Adagio - Allegro (6:32)
[5] 2. Andante espressivo (3:37)
[6] 3. Vivacissimamente (4:10)

Disk 3 von 10

Sonate für Klavier Nr. 29 B-Dur op. 106 "Große Sonate für das Hammerklavier"
[1] 1. Allegro (9:36)
[2] 2. Scherzo: Assai vivace (2:21)
[3] 3. Adagio sostenuto - Appassionato e con molto sentimento (15:44)
[4] 4. Largo - Allegro risoluto (10:41)
Sonate für Klavier Nr. 28 A-Dur op. 101
[5] 1. Etwas lebhaft und mit der innigsten Empfindung (4:00)
[6] 2. Lebhaft, marschmäßig (6:04)
[7] 3. Langsam und sehnsuchtsvoll (2:37)
[8] 4. Geschwind, doch nicht zu sehr und mit Entschlossenheit (7:27)
Friderich Gulda, Klavier / piano – Wiener Philharmoniker – Karl Böhm (1950, 1951)

Disk 4 von 10

Chopin
Konzert für Klavier und Orchester Nr. 1 e-moll op. 11
[1] 1. Allegro maestoso (18:53)
[2] 2. Romanze: Larghetto (9:15)
[3] 3. Rondo: Vivace (9:05)
[4] Ballade Nr. 1 g-moll op. 23 (7:56)
[5] Ballade Nr. 2 F-Dur op. 38 (6:23)
[6] Ballade Nr. 3 As-Dur op. 47 (6 :05)
[7] Ballade Nr. 4 f-moll op. 52 (8:43)

Disk 5 von 10

Préludes op. 28 Nr. 1-24
[1] Nr. 1 C-Dur: Agitato (:45)
[2] Nr. 2 a-moll: Lento (2:13)
[3] Nr. 3 G-Dur: Vivace (1:03)
[4] Nr. 4 e-moll: Largo (1:54)
[5] Nr. 5 D-Dur: Allegro molto (:35)
[6] Nr. 6 h-moll: Lento assai (1:45)
[7] Nr. 7 A-Dur: Andantino (:46)
[8] Nr. 8 fis-moll: Molto agitato (1:50)
[9] Nr. 9 E-Dur: Largo (1:26)
[10] Nr. 10 cis-moll: Allegro molto (:31)
[11] Nr. 11 H-Dur: Vivace (:36)
[12] Nr. 12 gis-moll: Presto (1:10)
[13] Nr. 13 Fis-Dur: Lento (4:00)
[14] Nr. 14 es-moll: Allegro (:31)
[15] Nr. 15 Des-Dur: Sostenuto (5:11)
[16] Nr. 16 b-moll: Presto con fuoco (1:04)
[17] Nr. 17 As-Dur: Allegretto (2:46)
[18] Nr. 18 f-moll: Allegro molto (:55)
[19] Nr. 19 Es-Dur: Vivace (1:13)
[20] Nr. 20 c-moll: Largo (1:45)
[21] Nr. 21 B-Dur: Cantabile (1:32)
[22] Nr. 22 g-moll: Molto agitato (:44)
[23] Nr. 23 F-Dur: Moderato (:54)
[24] Nr. 24 d-moll: Allegro appassionato (2:25)
[25] Barcarolle Fis-Dur op. 60 (9:04)
Friderich Gulda, Klavier / piano – London Philharmonic Orchestra – Sir Adrian Boult (1954, 1959)

Disk 6 von 10

Debussy
Préludes (12 Stücke für Klavier, Heft 1)
[1] Nr. 1 Danseuses de Delphes: Lent et grave (2:31)
[2] Nr. 2 Voiles: Modéré (3:16)
[3] Nr. 3 Le vent dans la plaine: Animé (2:00)
[4] Nr. 4 Les sons et les parfums tournent dans l'air du soir: Modéré (3:00)
[5] Nr. 5 Les collines d'Anacapri: Très modéré (2:52)
[6] Nr. 6 Des pas sur la neige: Triste et lent (3:46)
[7] Nr. 7 Ce qu'a vu le vent d'Ouest: Animé et tumultueux (3:01)
[8] Nr. 8 La fille aux cheveux de lin: Très calme et doucement expressif (2:06)
[9] Nr. 9 La sérénade interrompue: Modérément animé (2:30)
[10] Nr. 10 La cathédrale engloutie: Profondément calme (6:38)
[11] Nr. 11 La danse de Puck: Capricieux et léger (2:49)
[12] Nr. 12 Minstrels: Modéré (2:01)
Suite bergamasque
[13] 1. Prélude: Moderato (3:24)
[14] 2. Menuet: Andantino (4:07)
[15] 3. Clair de lune: Andante très expressif (4:45)
[16] 4. Passepied: Allegretto ma non troppo (3:23)
Pour le piano Nr. 1-3
[17] Nr. 1 Prélude: Assez animé et très rythmé (3:58)
[18] Nr. 2 Sarabande: Avec une élégance grave et lente (3:51)
[19] Nr. 3 Toccata: Vif (3:31)

Disk 7 von 10

Préludes (12 Stücke für Klavier, Heft 2)
[1] Nr. 1 Brouillards: Modéré (2:43)
[2] Nr. 2 Feuilles mortes: Lent et mélancolique (3:21)
[3] Nr. 3 La Puerta del Vino: Mouvement de Habanera (2:32)
[4] Nr. 4 Les fées sonst d'éxquises danseuses: Rapide et léger (2:27)
[5] Nr. 5 Bruyères: Calme (2:28)
[6] Nr. 6 Général Lavine - eccentric: Dans le style et le mouvement d'un Cakewalk (2:29)
[7] Nr. 7 La terrasse des audiences du clair de lune: Lent (4:35)
[8] Nr. 8 Ondine: Scherzando (3:05)
[9] Nr. 9 Hommage à S. Pickwick, Esq., P.P.M.P.C.: Grave (2:04)
[10] Nr. 10 Canope: Très cale et doucement triste (3:24)
[11] Nr. 11 Les tierces alternées: Modérément animé (2:31)
[12] Nr. 12 Feux d'artifice: Modérément animé (4:22)
[13] L'isle joyeuse (5:35)
Images pour piano 1 Nr. 1-3 (Auszug)
[14] Reflets dans l'eau (5:00)
Estampes (3 Stücke für Klavier) (Auszug)
[15] Soirée dans Grenade (4:23)
Images pour piano 2 Nr. 1-3 (Auszug)
[16] Poissons d'or (3:22)
Friderich Gulda, Klavier / piano (1953, 1955, 1957)

Disk 8 von 10

Ravel
Valses nobles et sentimentales (für Klavier)
[1] Nr. 1: Modéré (1:12)
[2] Nr. 2: Assez lent (2:02)
[3] Nr. 3: Modéré (1:14)
[4] Nr. 4: Assez animé (1:00)
[5] Nr. 5: Presque lent (1:14)
[6] Nr. 6: Assez vif (:36)
[7] Nr. 7: Moins vif (2:38)
[8] Nr. 8 Épilogue: Lent (3:22)
Gaspard de la nuit (3 Poèmes für Klavier nach Aloysius Bertrand)
[9] Nr. 1 Ondine: Lent (5:39)
[10] Nr. 2 Le gibet: Très lent (5:00)
[11] Nr. 3 Scarbo: Modéré - Vif (9:13)
Sonatine für Klavier fis-moll
[12] 1. Modéré (3:44)
[13] 2. Mouvement de Menuet (3:10)
[14] 3. Animé (3:32)
Friderich Gulda, Klavier / piano (1953, 1957)

Disk 9 von 10

Strauss
Lieder op. 69 Nr. 1-5 (Auszug)
[1] Nr. 3: Einerlei (2:29)
Lieder op. 68 Nr. 1-6 (nach Clemens von Brentano) (Auszug)
[2] Nr. 3: Säusle, liebe Myrthe (3:52)
Lieder op. 69 Nr. 1-5 (Auszug)
[3] Nr. 1: Der Stern (1:38)
[4] Nr. 5: Schlechtes Wetter (2:04)
Lieder op. 68 Nr. 1-6 (nach Clemens von Brentano) (Auszug)
[5] Nr. 2: Ich wollt ein Sträußlein binden (2:40)
[6] Nr. 4: Als mir dein Lied erklang (3:04)
Lieder op. 48 Nr. 1-5 (Auszug)
[7] Nr. 1: Freundliche Vision (2:38)
Lieder op. 29 Nr. 1-3 (nach Otto Julius Bierbaum) (Auszug)
[8] Nr. 2: Schlagende Herzen (2:04)
Lieder op. 15 Nr. 1-5 (Auszug)
[9] Nr. 5: Heimkehr (1:54)
Lieder op. 39 Nr. 1-5 (Auszug)
[10] Nr. 4: Befreit (3:56)
Lieder op. 10 Nr. 1-8 (nach Hermann von Gilm: Letzte Blätter) (Auszug)
[11] Nr. 3: Die Nacht (2:18)
Lieder op. 19 Nr. 1-6 (nach A. F. von Schack: Lotosblätter) (Auszug)
[12] Wie sollten wir geheim sie halten (1:40)
Lieder op. 37 Nr. 1-6 (Auszug)
[13] Nr. 3: Meinem Kinde (2:21)
[14] Burleske für Klavier und Orchester d-moll op. 11 (18:00)
Hilde Güden, Sopran / soprano – Friedrich Gulda, Klavier / piano – London Symphony Orchestra – Antony Collins (1954, 1956)

Disk 10 von 10

Friedrich Gulda
[1] Quintet (3:05)
[2] Introvert (3:58)
[3] Teheran (4:48)
[4] Cool hill (5:36)
Friedrich Gulda, E. Heyman, J. Greene
[5] Out of nowhere (8:25)
Friedrich Gulda, G. Shearing
[6] Lullaby of birdland (6:03)
Friedrich Gulda, J. Kern
[7] All the things you are (7:36)
Friedrich Gulda, B. Miller, Leiber, Stoller
[8] Bernie's tune (10:05)
Friedrich Gulda, Klavier / piano – Idrees Sulieman, Trompete / trumplet – James Cleveland, Posaune / trombone – Phil Woods, Alt-Saxofon / alto saxaphone – Seldon Powell, Tenor-Saxofon / tenor saxaphone – Aaron Bell, Kontrabass / contrabass – Nick Stabulas, Schlagzeug / percussion (1956, live)

Исполнители

Friderich Gulda, Klavier
Hilde Güden, Sopran
Idrees Sulieman, Trompete
James Cleveland, Posaune
Phil Woods, Saxofon
Seldon Powell, Saxofon
Aaron Bell, Kontrabass
Nick Stabulas, Percussion
London Philharmonic Orchestra - Sir Adrian Boult
London Symphony Orchestra - Anthony Collins
RIAS-Symphonie-Orchester - Igor Markevitch
Wiener Philharmoniker - Volkmar Andrae, Karl Böhm

Лог создания рипаFriedrich Gulda - Genie und Rebell CD1 Mozart, Weber

Exact Audio Copy V1.0 beta 3 from 29. August 2011
EAC extraction logfile from 31. December 2013, 14:14
Friedrich Gulda / Genia und Rebell CD1
Used drive : ASUS DRW-24B1ST Adapter: 2 ID: 0
Read mode : SecureUtilize accurate stream : YesDefeat audio cache : YesMake use of C2 pointers : No
Read offset correction : 6Overread into Lead-In and Lead-Out : NoFill up missing offset samples with silence : YesDelete leading and trailing silent blocks : NoNull samples used in CRC calculations : YesUsed interface : Installed external ASPI interface
Used output format : User Defined EncoderSelected bitrate : 128 kBit/sQuality : HighAdd ID3 tag : YesCommand line compressor : D:\Program Files\Exact Audio Copy\Flac\flac.exeAdditional command line options : -V -8 -T "Date=%year%" -T "Genre=%genre%" %source%
TOC of the extracted CD
Track | Start | Length | Start sector | End sector --------------------------------------------------------- 1 | 0:00.00 | 13:33.14 | 0 | 60988 2 | 13:33.14 | 7:31.24 | 60989 | 94837 3 | 21:04.38 | 8:28.34 | 94838 | 132971 4 | 29:32.72 | 16:13.01 | 132972 | 205947
Range status and errors
Selected range
Filename C:\Instrumental\Friedrich Gulda Genie und Rebell 10 CD\Friedrich Gulda - Genia und Rebell CD1.wav
Peak level 100.0 % Extraction speed 4.3 X Range quality 99.9 % Test CRC F531D582 Copy CRC F531D582 Copy OK
No errors occurred
AccurateRip summary
Track 1 accurately ripped (confidence 4) [17CC819E] (AR v2)Track 2 accurately ripped (confidence 4) [48443D8E] (AR v2)Track 3 accurately ripped (confidence 4) [1F2AF6AC] (AR v2)Track 4 accurately ripped (confidence 4) [2AA83904] (AR v2)
All tracks accurately ripped
End of status report
==== Log checksum 141DCAFEDD66E179A46C175E55BF18459E03CE83EF6AAB586A48964ADECE4FCA ====

Friedrich Gulda - Genie und Rebell CD2 Beethoven

Exact Audio Copy V1.0 beta 3 from 29. August 2011
EAC extraction logfile from 31. December 2013, 15:51
F. Gulda / Friedrich Gulda - Genie und Rebell CD2 Beethoven
Used drive : ASUS DRW-24B1ST Adapter: 2 ID: 0
Read mode : SecureUtilize accurate stream : YesDefeat audio cache : YesMake use of C2 pointers : No
Read offset correction : 6Overread into Lead-In and Lead-Out : NoFill up missing offset samples with silence : YesDelete leading and trailing silent blocks : NoNull samples used in CRC calculations : YesUsed interface : Installed external ASPI interface
Used output format : User Defined EncoderSelected bitrate : 128 kBit/sQuality : HighAdd ID3 tag : YesCommand line compressor : D:\Program Files\Exact Audio Copy\Flac\flac.exeAdditional command line options : -V -8 -T "Date=%year%" -T "Genre=%genre%" %source%
TOC of the extracted CD
Track | Start | Length | Start sector | End sector --------------------------------------------------------- 1 | 0:00.00 | 18:53.01 | 0 | 84975 2 | 18:53.01 | 12:31.01 | 84976 | 141301 3 | 31:24.02 | 9:05.01 | 141302 | 182177 4 | 40:29.03 | 6:32.44 | 182178 | 211621 5 | 47:01.47 | 3:37.38 | 211622 | 227934 6 | 50:39.10 | 4:10.09 | 227935 | 246693
Range status and errors
Selected range
Filename C:\Instrumental\Friedrich Gulda Genie und Rebell 10 CD\F. Gulda - Friedrich Gulda - Genie und Rebell CD2 Beethoven.wav
Peak level 100.0 % Extraction speed 3.2 X Range quality 100.0 % Test CRC 5ABA924D Copy CRC 5ABA924D Copy OK
No errors occurred
AccurateRip summary
Track 1 accurately ripped (confidence 4) [028B9B4E] (AR v2)Track 2 accurately ripped (confidence 4) [D8EB3516] (AR v2)Track 3 accurately ripped (confidence 4) [6292D3CD] (AR v2)Track 4 accurately ripped (confidence 4) [F8DFB19C] (AR v2)Track 5 accurately ripped (confidence 4) [3281C2A7] (AR v2)Track 6 accurately ripped (confidence 4) [61907D17] (AR v2)
All tracks accurately ripped
End of status report
==== Log checksum B00617D187BB5A08BE0FFA3692141BEC08300FEFD870590E00A4655B4B177B7B ====

Friedrich Gulda - Genie und Rebell CD3 Beethoven

Exact Audio Copy V1.0 beta 3 from 29. August 2011
EAC extraction logfile from 31. December 2013, 23:02
F. Gulda / F. Gulda - Friedrich Gulda - Genie und Rebell CD3 Beethoven
Used drive : ASUS DRW-24B1ST Adapter: 2 ID: 0
Read mode : SecureUtilize accurate stream : YesDefeat audio cache : YesMake use of C2 pointers : No
Read offset correction : 6Overread into Lead-In and Lead-Out : NoFill up missing offset samples with silence : YesDelete leading and trailing silent blocks : NoNull samples used in CRC calculations : YesUsed interface : Installed external ASPI interface
Used output format : User Defined EncoderSelected bitrate : 128 kBit/sQuality : HighAdd ID3 tag : YesCommand line compressor : D:\Program Files\Exact Audio Copy\Flac\flac.exeAdditional command line options : -V -8 -T "Date=%year%" -T "Genre=%genre%" %source%
TOC of the extracted CD
Track | Start | Length | Start sector | End sector --------------------------------------------------------- 1 | 0:00.00 | 9:36.04 | 0 | 43203 2 | 9:36.04 | 2:21.66 | 43204 | 53844 3 | 11:57.70 | 15:44.41 | 53845 | 124685 4 | 27:42.36 | 10:41.64 | 124686 | 172824 5 | 38:24.25 | 4:00.31 | 172825 | 190855 6 | 42:24.56 | 6:04.29 | 190856 | 218184 7 | 48:29.10 | 2:37.11 | 218185 | 229970 8 | 51:06.21 | 7:27.11 | 229971 | 263506
Range status and errors
Selected range
Filename C:\Instrumental\Friedrich Gulda Genie und Rebell 10 CD\F. Gulda - F. Gulda - Friedrich Gulda - Genie und Rebell CD3 Beethoven.wav
Peak level 100.0 % Extraction speed 3.3 X Range quality 100.0 % Test CRC 09DBB5EC Copy CRC 09DBB5EC Copy OK
No errors occurred
AccurateRip summary
Track 1 accurately ripped (confidence 4) [BEE77E14] (AR v2)Track 2 accurately ripped (confidence 4) [9E789CAD] (AR v2)Track 3 accurately ripped (confidence 4) [D4D05D04] (AR v2)Track 4 accurately ripped (confidence 4) [DE1B02F6] (AR v2)Track 5 accurately ripped (confidence 4) [E29039A7] (AR v2)Track 6 accurately ripped (confidence 4) [A85561D7] (AR v2)Track 7 accurately ripped (confidence 4) [D9D44B9F] (AR v2)Track 8 accurately ripped (confidence 4) [EB0F3786] (AR v2)
All tracks accurately ripped
End of status report
==== Log checksum F82ED6AE8C62CFA68438AAC58F8BC9B931DFBF9CEDDA277B24156AC62C957ACA ====

Friedrich Gulda - Genie und Rebell CD4 Chopin

Exact Audio Copy V1.0 beta 3 from 29. August 2011
EAC extraction logfile from 1. January 2014, 4:09
F. Gulda / F. Gulda - F. Gulda - Friedrich Gulda - Genie und Rebell CD4 Chopin
Used drive : ASUS DRW-24B1ST Adapter: 2 ID: 0
Read mode : SecureUtilize accurate stream : YesDefeat audio cache : YesMake use of C2 pointers : No
Read offset correction : 6Overread into Lead-In and Lead-Out : NoFill up missing offset samples with silence : YesDelete leading and trailing silent blocks : NoNull samples used in CRC calculations : YesUsed interface : Installed external ASPI interface
Used output format : User Defined EncoderSelected bitrate : 128 kBit/sQuality : HighAdd ID3 tag : YesCommand line compressor : D:\Program Files\Exact Audio Copy\Flac\flac.exeAdditional command line options : -V -8 -T "Date=%year%" -T "Genre=%genre%" %source%
TOC of the extracted CD
Track | Start | Length | Start sector | End sector --------------------------------------------------------- 1 | 0:00.00 | 18:53.01 | 0 | 84975 2 | 18:53.01 | 9:15.01 | 84976 | 126601 3 | 28:08.02 | 9:05.01 | 126602 | 167477 4 | 37:13.03 | 7:56.01 | 167478 | 203178 5 | 45:09.04 | 6:23.01 | 203179 | 231904 6 | 51:32.05 | 6:05.01 | 231905 | 259280 7 | 57:37.06 | 8:43.01 | 259281 | 298506
Range status and errors
Selected range
Filename C:\Instrumental\Friedrich Gulda Genie und Rebell 10 CD\F. Gulda - F. Gulda - F. Gulda - Friedrich Gulda - Genie und Rebell CD4 Chopin.wav
Peak level 99.9 % Extraction speed 3.1 X Range quality 100.0 % Test CRC 0C69E296 Copy CRC 0C69E296 Copy OK
No errors occurred
AccurateRip summary
Track 1 accurately ripped (confidence 4) [2F03E900] (AR v2)Track 2 accurately ripped (confidence 4) [44581D6A] (AR v2)Track 3 accurately ripped (confidence 4) [F7A85DE7] (AR v2)Track 4 accurately ripped (confidence 4) [FF1BD1E4] (AR v2)Track 5 accurately ripped (confidence 4) [516B5F0A] (AR v2)Track 6 accurately ripped (confidence 4) [7244B7C0] (AR v2)Track 7 accurately ripped (confidence 3) [9F1260CC] (AR v2)
All tracks accurately ripped
End of status report
==== Log checksum 1FE8509B840B83D60774A9F6A7F496EAB2076E2BC88D9986FD75D0D1AE923F18 ====

Friedrich Gulda - Genie und Rebell CD5 Chopin

Exact Audio Copy V1.0 beta 3 from 29. August 2011
EAC extraction logfile from 1. January 2014, 17:27
F. Gulda / Friedrich Gulda - Genie und Rebell CD5 Chopin
Used drive : ASUS DRW-24B1ST Adapter: 2 ID: 0
Read mode : SecureUtilize accurate stream : YesDefeat audio cache : YesMake use of C2 pointers : No
Read offset correction : 6Overread into Lead-In and Lead-Out : NoFill up missing offset samples with silence : YesDelete leading and trailing silent blocks : NoNull samples used in CRC calculations : YesUsed interface : Installed external ASPI interface
Used output format : User Defined EncoderSelected bitrate : 128 kBit/sQuality : HighAdd ID3 tag : YesCommand line compressor : D:\Program Files\Exact Audio Copy\Flac\flac.exeAdditional command line options : -V -8 -T "Date=%year%" -T "Genre=%genre%" %source%
TOC of the extracted CD
Track | Start | Length | Start sector | End sector --------------------------------------------------------- 1 | 0:00.00 | 0:45.54 | 0 | 3428 2 | 0:45.54 | 2:13.65 | 3429 | 13468 3 | 2:59.44 | 1:03.02 | 13469 | 18195 4 | 4:02.46 | 1:54.25 | 18196 | 26770 5 | 5:56.71 | 0:35.58 | 26771 | 29453 6 | 6:32.54 | 1:45.44 | 29454 | 37372 7 | 8:18.23 | 0:46.05 | 37373 | 40827 8 | 9:04.28 | 1:50.09 | 40828 | 49086 9 | 10:54.37 | 1:26.43 | 49087 | 55579 10 | 12:21.05 | 0:31.55 | 55580 | 57959 11 | 12:52.60 | 0:36.60 | 57960 | 60719 12 | 13:29.45 | 1:10.11 | 60720 | 65980 13 | 14:39.56 | 4:00.56 | 65981 | 84036 14 | 18:40.37 | 0:31.46 | 84037 | 86407 15 | 19:12.08 | 5:11.58 | 86408 | 109790 16 | 24:23.66 | 1:04.48 | 109791 | 114638 17 | 25:28.39 | 2:46.13 | 114639 | 127101 18 | 28:14.52 | 0:55.48 | 127102 | 131274 19 | 29:10.25 | 1:13.72 | 131275 | 136821 20 | 30:24.22 | 1:45.08 | 136822 | 144704 21 | 32:09.30 | 1:32.38 | 144705 | 151642 22 | 33:41.68 | 0:44.72 | 151643 | 155014 23 | 34:26.65 | 0:54.06 | 155015 | 159070 24 | 35:20.71 | 2:25.50 | 159071 | 169995 25 | 37:46.46 | 9:04.47 | 169996 | 210842
Range status and errors
Selected range
Filename C:\Instrumental\Friedrich Gulda Genie und Rebell 10 CD\F. Gulda - Friedrich Gulda - Genie und Rebell CD5 Chopin.wav
Peak level 99.9 % Extraction speed 4.4 X Range quality 100.0 % Test CRC FFB1BFAD Copy CRC FFB1BFAD Copy OK
No errors occurred
AccurateRip summary
Track 1 accurately ripped (confidence 4) [449B847D] (AR v2)Track 2 accurately ripped (confidence 4) [97217D95] (AR v2)Track 3 accurately ripped (confidence 4) [8D990F1B] (AR v2)Track 4 accurately ripped (confidence 4) [7087D8D6] (AR v2)Track 5 accurately ripped (confidence 4) [7BD056D0] (AR v2)Track 6 accurately ripped (confidence 4) [58CEF932] (AR v2)Track 7 accurately ripped (confidence 4) [E72EACC1] (AR v2)Track 8 accurately ripped (confidence 4) [D0B054B0] (AR v2)Track 9 accurately ripped (confidence 4) [890D0615] (AR v2)Track 10 accurately ripped (confidence 4) [87E5D7EF] (AR v2)Track 11 accurately ripped (confidence 4) [7D25D7C9] (AR v2)Track 12 accurately ripped (confidence 4) [D79B533F] (AR v2)Track 13 accurately ripped (confidence 4) [59DBEE66] (AR v2)Track 14 accurately ripped (confidence 4) [3576AAD2] (AR v2)Track 15 accurately ripped (confidence 4) [E2162CE6] (AR v2)Track 16 accurately ripped (confidence 4) [FA8730FC] (AR v2)Track 17 accurately ripped (confidence 4) [43D7916F] (AR v2)Track 18 accurately ripped (confidence 4) [7838EA6C] (AR v2)Track 19 accurately ripped (confidence 4) [635587F4] (AR v2)Track 20 accurately ripped (confidence 4) [7F588ACA] (AR v2)Track 21 accurately ripped (confidence 4) [4C1259B8] (AR v2)Track 22 accurately ripped (confidence 4) [D5FB0C34] (AR v2)Track 23 accurately ripped (confidence 4) [4D50110A] (AR v2)Track 24 accurately ripped (confidence 4) [61B2F818] (AR v2)Track 25 accurately ripped (confidence 4) [F89114AB] (AR v2)
All tracks accurately ripped
End of status report
==== Log checksum A85B16209B1704777E26331F4A9373CBE641AF280D18C96B1BEC6B669B60C3E5 ====

Friedrich Gulda - Genie und Rebell CD6 Debussy

Exact Audio Copy V1.0 beta 3 from 29. August 2011
EAC extraction logfile from 1. January 2014, 21:31
- / F. Gulda - Friedrich Gulda - Genie und Rebell CD6 Debussy
Used drive : ASUS DRW-24B1ST Adapter: 2 ID: 0
Read mode : SecureUtilize accurate stream : YesDefeat audio cache : YesMake use of C2 pointers : No
Read offset correction : 6Overread into Lead-In and Lead-Out : NoFill up missing offset samples with silence : YesDelete leading and trailing silent blocks : NoNull samples used in CRC calculations : YesUsed interface : Installed external ASPI interface
Used output format : User Defined EncoderSelected bitrate : 128 kBit/sQuality : HighAdd ID3 tag : YesCommand line compressor : D:\Program Files\Exact Audio Copy\Flac\flac.exeAdditional command line options : -V -8 -T "Date=%year%" -T "Genre=%genre%" %source%
TOC of the extracted CD
Track | Start | Length | Start sector | End sector --------------------------------------------------------- 1 | 0:00.00 | 2:31.01 | 0 | 11325 2 | 2:31.01 | 3:16.01 | 11326 | 26026 3 | 5:47.02 | 2:00.01 | 26027 | 35027 4 | 7:47.03 | 3:00.01 | 35028 | 48528 5 | 10:47.04 | 2:52.01 | 48529 | 61429 6 | 13:39.05 | 3:46.01 | 61430 | 78380 7 | 17:25.06 | 3:01.01 | 78381 | 91956 8 | 20:26.07 | 2:06.01 | 91957 | 101407 9 | 22:32.08 | 2:30.01 | 101408 | 112658 10 | 25:02.09 | 6:38.01 | 112659 | 142509 11 | 31:40.10 | 2:49.01 | 142510 | 155185 12 | 34:29.11 | 2:01.01 | 155186 | 164261 13 | 36:30.12 | 3:24.01 | 164262 | 179562 14 | 39:54.13 | 4:07.01 | 179563 | 198088 15 | 44:01.14 | 4:45.01 | 198089 | 219464 16 | 48:46.15 | 3:23.01 | 219465 | 234690 17 | 52:09.16 | 3:58.01 | 234691 | 252541 18 | 56:07.17 | 3:51.01 | 252542 | 269867 19 | 59:58.18 | 3:31.01 | 269868 | 285693
Range status and errors
Selected range
Filename C:\Instrumental\Friedrich Gulda Genie und Rebell 10 CD\F. Gulda - Friedrich Gulda - Genie und Rebell CD6 Debussy.wav
Peak level 100.0 % Extraction speed 6.3 X Range quality 100.0 % Test CRC 2E1BF5D3 Copy CRC 2E1BF5D3 Copy OK
No errors occurred
AccurateRip summary
Track 1 accurately ripped (confidence 3) [E67915EB] (AR v2)Track 2 accurately ripped (confidence 3) [94A7901E] (AR v2)Track 3 accurately ripped (confidence 3) [4726DDF3] (AR v2)Track 4 accurately ripped (confidence 3) [7F22DD95] (AR v2)Track 5 accurately ripped (confidence 3) [823B8E7C] (AR v2)Track 6 accurately ripped (confidence 3) [B5388F2E] (AR v2)Track 7 accurately ripped (confidence 3) [8D9F98DE] (AR v2)Track 8 accurately ripped (confidence 3) [E428795D] (AR v2)Track 9 accurately ripped (confidence 3) [296FA8A3] (AR v2)Track 10 accurately ripped (confidence 3) [EAD2BA4E] (AR v2)Track 11 accurately ripped (confidence 3) [4BD66600] (AR v2)Track 12 accurately ripped (confidence 3) [7483112D] (AR v2)Track 13 accurately ripped (confidence 3) [07F957ED] (AR v2)Track 14 accurately ripped (confidence 3) [D8CB9E3C] (AR v2)Track 15 accurately ripped (confidence 3) [9F3E95C2] (AR v2)Track 16 accurately ripped (confidence 3) [AB979D03] (AR v2)Track 17 accurately ripped (confidence 3) [5B3F3B6D] (AR v2)Track 18 accurately ripped (confidence 3) [8307DF2A] (AR v2)Track 19 accurately ripped (confidence 3) [5B887DFE] (AR v2)
All tracks accurately ripped
End of status report
==== Log checksum B783DD3EA69F5F29241F72FAE3CC3DDCDBA80D28066D9B4D517F062B31B469D1 ====

Friedrich Gulda - Genie und Rebell CD7 Debussy

Exact Audio Copy V1.0 beta 3 from 29. August 2011
EAC extraction logfile from 2. January 2014, 1:11
- / Friedrich Gulda - Genie und Rebell CD7 Debussy
Used drive : ASUS DRW-24B1ST Adapter: 2 ID: 0
Read mode : SecureUtilize accurate stream : YesDefeat audio cache : YesMake use of C2 pointers : No
Read offset correction : 6Overread into Lead-In and Lead-Out : NoFill up missing offset samples with silence : YesDelete leading and trailing silent blocks : NoNull samples used in CRC calculations : YesUsed interface : Installed external ASPI interface
Used output format : User Defined EncoderSelected bitrate : 128 kBit/sQuality : HighAdd ID3 tag : YesCommand line compressor : D:\Program Files\Exact Audio Copy\Flac\flac.exeAdditional command line options : -V -8 -T "Date=%year%" -T "Genre=%genre%" %source%
TOC of the extracted CD
Track | Start | Length | Start sector | End sector --------------------------------------------------------- 1 | 0:00.00 | 2:43.01 | 0 | 12225 2 | 2:43.01 | 3:21.01 | 12226 | 27301 3 | 6:04.02 | 2:32.01 | 27302 | 38702 4 | 8:36.03 | 2:27.01 | 38703 | 49728 5 | 11:03.04 | 2:28.01 | 49729 | 60829 6 | 13:31.05 | 2:29.01 | 60830 | 72005 7 | 16:00.06 | 4:35.01 | 72006 | 92631 8 | 20:35.07 | 3:05.01 | 92632 | 106507 9 | 23:40.08 | 2:04.01 | 106508 | 115808 10 | 25:44.09 | 3:24.01 | 115809 | 131109 11 | 29:08.10 | 2:31.01 | 131110 | 142435 12 | 31:39.11 | 4:22.01 | 142436 | 162086 13 | 36:01.12 | 5:35.01 | 162087 | 187212 14 | 41:36.13 | 5:00.01 | 187213 | 209713 15 | 46:36.14 | 4:23.01 | 209714 | 229439 16 | 50:59.15 | 3:22.20 | 229440 | 244609
Range status and errors
Selected range
Filename C:\Instrumental\Friedrich Gulda Genie und Rebell 10 CD\Friedrich Gulda - Genie und Rebell CD7 Debussy.wav
Peak level 100.0 % Extraction speed 3.2 X Range quality 100.0 % Test CRC CDD49DE4 Copy CRC CDD49DE4 Copy OK
No errors occurred
AccurateRip summary
Track 1 accurately ripped (confidence 3) [60DFA742] (AR v2)Track 2 accurately ripped (confidence 3) [E3425CF2] (AR v2)Track 3 accurately ripped (confidence 3) [C30EAE72] (AR v2)Track 4 accurately ripped (confidence 3) [5B2EF5A4] (AR v2)Track 5 accurately ripped (confidence 3) [DEB124BE] (AR v2)Track 6 accurately ripped (confidence 3) [CE9DC1CC] (AR v2)Track 7 accurately ripped (confidence 3) [A8405107] (AR v2)Track 8 accurately ripped (confidence 3) [124CE556] (AR v2)Track 9 accurately ripped (confidence 3) [7D48CD98] (AR v2)Track 10 accurately ripped (confidence 3) [4B28D1DB] (AR v2)Track 11 accurately ripped (confidence 3) [DAC31621] (AR v2)Track 12 accurately ripped (confidence 3) [230377E1] (AR v2)Track 13 accurately ripped (confidence 3) [9C5EA639] (AR v2)Track 14 accurately ripped (confidence 3) [F25CDF35] (AR v2)Track 15 accurately ripped (confidence 3) [D9B13958] (AR v2)Track 16 accurately ripped (confidence 3) [D0A8D86A] (AR v2)
All tracks accurately ripped
End of status report
==== Log checksum 937BC15A87B0609696FD57C0EA5757E792F8DF9DF15A8E27A1B0E44917147FE2 ====

Friedrich Gulda - Genie und Rebell CD8 Ravel

Exact Audio Copy V1.0 beta 3 from 29. August 2011
EAC extraction logfile from 2. January 2014, 15:40
- / Friedrich Gulda - Genie und Rebell CD8 Ravel
Used drive : ASUS DRW-24B1ST Adapter: 2 ID: 0
Read mode : SecureUtilize accurate stream : YesDefeat audio cache : YesMake use of C2 pointers : No
Read offset correction : 6Overread into Lead-In and Lead-Out : NoFill up missing offset samples with silence : YesDelete leading and trailing silent blocks : NoNull samples used in CRC calculations : YesUsed interface : Installed external ASPI interface
Used output format : User Defined EncoderSelected bitrate : 128 kBit/sQuality : HighAdd ID3 tag : YesCommand line compressor : D:\Program Files\Exact Audio Copy\Flac\flac.exeAdditional command line options : -V -8 -T "Date=%year%" -T "Genre=%genre%" %source%
TOC of the extracted CD
Track | Start | Length | Start sector | End sector --------------------------------------------------------- 1 | 0:00.00 | 1:12.01 | 0 | 5400 2 | 1:12.01 | 2:02.03 | 5401 | 14553 3 | 3:14.04 | 1:14.11 | 14554 | 20114 4 | 4:28.15 | 1:00.64 | 20115 | 24678 5 | 5:29.04 | 1:14.13 | 24679 | 30241 6 | 6:43.17 | 0:36.54 | 30242 | 32995 7 | 7:19.71 | 2:38.01 | 32996 | 44846 8 | 9:57.72 | 3:22.11 | 44847 | 60007 9 | 13:20.08 | 5:39.01 | 60008 | 85433 10 | 18:59.09 | 5:00.01 | 85434 | 107934 11 | 23:59.10 | 9:13.01 | 107935 | 149410 12 | 33:12.11 | 3:44.01 | 149411 | 166211 13 | 36:56.12 | 3:10.01 | 166212 | 180462 14 | 40:06.13 | 3:32.01 | 180463 | 196363
Range status and errors
Selected range
Filename C:\Instrumental\Friedrich Gulda Genie und Rebell 10 CD\Friedrich Gulda - Genie und Rebell CD8 Ravel.wav
Peak level 100.0 % Extraction speed 5.7 X Range quality 100.0 % Test CRC 6EA7193D Copy CRC 6EA7193D Copy OK
No errors occurred
AccurateRip summary
Track 1 accurately ripped (confidence 4) [ABEE771C] (AR v2)Track 2 accurately ripped (confidence 4) [E836D4BB] (AR v2)Track 3 accurately ripped (confidence 4) [7C598A47] (AR v2)Track 4 accurately ripped (confidence 4) [328DB66F] (AR v2)Track 5 accurately ripped (confidence 4) [10C71AA8] (AR v2)Track 6 accurately ripped (confidence 4) [195DBFFC] (AR v2)Track 7 accurately ripped (confidence 4) [7D204BCB] (AR v2)Track 8 accurately ripped (confidence 4) [F87C3F6A] (AR v2)Track 9 accurately ripped (confidence 4) [1937FE3A] (AR v2)Track 10 accurately ripped (confidence 4) [F1A724E3] (AR v2)Track 11 accurately ripped (confidence 4) [9DA2BA68] (AR v2)Track 12 accurately ripped (confidence 4) [345BC68E] (AR v2)Track 13 accurately ripped (confidence 4) [7FA181D7] (AR v2)Track 14 accurately ripped (confidence 4) [0CB3A952] (AR v2)
All tracks accurately ripped
End of status report
==== Log checksum 06CD84D578FA66B2DF675C63D4D23956EFC45E36BD769175D335DD9C6DB3830D ====

Friedrich Gulda - Genie und Rebell CD9 Strauss

Exact Audio Copy V1.0 beta 3 from 29. August 2011
EAC extraction logfile from 2. January 2014, 16:44
- / Friedrich Gulda - Genie und Rebell CD9 Strauss
Used drive : ASUS DRW-24B1ST Adapter: 2 ID: 0
Read mode : SecureUtilize accurate stream : YesDefeat audio cache : YesMake use of C2 pointers : No
Read offset correction : 6Overread into Lead-In and Lead-Out : NoFill up missing offset samples with silence : YesDelete leading and trailing silent blocks : NoNull samples used in CRC calculations : YesUsed interface : Installed external ASPI interface
Used output format : User Defined EncoderSelected bitrate : 128 kBit/sQuality : HighAdd ID3 tag : YesCommand line compressor : D:\Program Files\Exact Audio Copy\Flac\flac.exeAdditional command line options : -V -8 -T "Date=%year%" -T "Genre=%genre%" %source%
TOC of the extracted CD
Track | Start | Length | Start sector | End sector --------------------------------------------------------- 1 | 0:00.00 | 2:29.44 | 0 | 11218 2 | 2:29.44 | 3:52.24 | 11219 | 28642 3 | 6:21.68 | 1:38.69 | 28643 | 36061 4 | 8:00.62 | 2:04.15 | 36062 | 45376 5 | 10:05.02 | 2:40.31 | 45377 | 57407 6 | 12:45.33 | 3:04.12 | 57408 | 71219 7 | 15:49.45 | 2:38.72 | 71220 | 83141 8 | 18:28.42 | 2:04.68 | 83142 | 92509 9 | 20:33.35 | 1:54.72 | 92510 | 101131 10 | 22:28.32 | 3:56.56 | 101132 | 118887 11 | 26:25.13 | 2:18.38 | 118888 | 129275 12 | 28:43.51 | 1:40.00 | 129276 | 136775 13 | 30:23.51 | 2:21.34 | 136776 | 147384 14 | 32:45.10 | 18:00.01 | 147385 | 228385
Range status and errors
Selected range
Filename C:\Instrumental\Friedrich Gulda Genie und Rebell 10 CD\Friedrich Gulda - Genie und Rebell CD9 Strauss.wav
Peak level 99.9 % Extraction speed 3.2 X Range quality 100.0 % Test CRC 053922C8 Copy CRC 053922C8 Copy OK
No errors occurred
AccurateRip summary
Track 1 accurately ripped (confidence 2) [BD8DA028] (AR v2)Track 2 accurately ripped (confidence 2) [A13046AD] (AR v2)Track 3 accurately ripped (confidence 2) [249362DD] (AR v2)Track 4 accurately ripped (confidence 2) [4B64F391] (AR v2)Track 5 accurately ripped (confidence 2) [9A165F6D] (AR v2)Track 6 accurately ripped (confidence 2) [B16A27D6] (AR v2)Track 7 accurately ripped (confidence 2) [43906F71] (AR v2)Track 8 accurately ripped (confidence 2) [689B5564] (AR v2)Track 9 accurately ripped (confidence 2) [19EBCAFF] (AR v2)Track 10 accurately ripped (confidence 2) [81192ABE] (AR v2)Track 11 accurately ripped (confidence 2) [5A4E77B4] (AR v2)Track 12 accurately ripped (confidence 2) [067B6E62] (AR v2)Track 13 accurately ripped (confidence 2) [DB9561D2] (AR v2)Track 14 accurately ripped (confidence 2) [98670568] (AR v2)
All tracks accurately ripped
End of status report
==== Log checksum 14D9922865B4E924B645E2F83DDD882D560B6CB71133CE565E17BFB3CA2F1E04 ====

Friedrich Gulda - Genie und Rebell CD10- Friedrich Gulda at Birdland

Exact Audio Copy V1.0 beta 3 from 29. August 2011
EAC extraction logfile from 3. January 2014, 0:01
- / Friedrich Gulda - Genie und Rebell CD10: Friedrich Gulda at Birdland
Used drive : ASUS DRW-24B1ST Adapter: 2 ID: 0
Read mode : SecureUtilize accurate stream : YesDefeat audio cache : YesMake use of C2 pointers : No
Read offset correction : 6Overread into Lead-In and Lead-Out : NoFill up missing offset samples with silence : YesDelete leading and trailing silent blocks : NoNull samples used in CRC calculations : YesUsed interface : Installed external ASPI interface
Used output format : User Defined EncoderSelected bitrate : 128 kBit/sQuality : HighAdd ID3 tag : YesCommand line compressor : D:\Program Files\Exact Audio Copy\Flac\flac.exeAdditional command line options : -V -8 -T "Date=%year%" -T "Genre=%genre%" %source%
TOC of the extracted CD
Track | Start | Length | Start sector | End sector --------------------------------------------------------- 1 | 0:00.00 | 3:05.20 | 0 | 13894 2 | 3:05.20 | 3:58.02 | 13895 | 31746 3 | 7:03.22 | 4:48.33 | 31747 | 53379 4 | 11:51.55 | 5:36.15 | 53380 | 78594 5 | 17:27.70 | 8:25.55 | 78595 | 116524 6 | 25:53.50 | 6:03.43 | 116525 | 143792 7 | 31:57.18 | 7:36.13 | 143793 | 178005 8 | 39:33.31 | 10:05.65 | 178006 | 223445
Range status and errors
Selected range
Filename C:\Instrumental\Friedrich Gulda Genie und Rebell 10 CD\Friedrich Gulda - Genie und Rebell CD10- Friedrich Gulda at Birdland.wav
Peak level 100.0 % Extraction speed 3.2 X Range quality 100.0 % Test CRC A424BCF5 Copy CRC A424BCF5 Copy OK
No errors occurred
AccurateRip summary
Track 1 accurately ripped (confidence 3) [27B8F249] (AR v2)Track 2 accurately ripped (confidence 3) [15864EA9] (AR v2)Track 3 accurately ripped (confidence 3) [4D5697CD] (AR v2)Track 4 accurately ripped (confidence 3) [0806223E] (AR v2)Track 5 accurately ripped (confidence 3) [9923C755] (AR v2)Track 6 accurately ripped (confidence 3) [6F77866C] (AR v2)Track 7 accurately ripped (confidence 3) [7ECCA2CD] (AR v2)Track 8 accurately ripped (confidence 3) [0DD9B5B4] (AR v2)
All tracks accurately ripped
End of status report
==== Log checksum 9285BA577D3DFCD80F0F90FD21F7201293C099A139ACB101AD3A76C144556434 ====

Содержание индексной карты (.CUE)Friedrich Gulda - Genie und Rebell CD1 Mozart, Weber

REM GENRE PianoREM DISCID 320AB904REM COMMENT "ExactAudioCopy v1.0b3"PERFORMER "Friedrich Gulda"TITLE "Genia und Rebell CD1"FILE "Friedrich Gulda - Genie und Rebell CD1 Mozart, Weber.flac" WAVE TRACK 01 AUDIO TITLE "Mozart Klavierkonzert Nr.24 KV 491 c-moll - I. Allegro" PERFORMER "Friedrich Gulda" INDEX 01 00:00:00 TRACK 02 AUDIO TITLE "Mozart Klavierkonzert Nr.24 KV 491 c-moll - II. Larghetto" PERFORMER "Friedrich Gulda" INDEX 01 13:33:14 TRACK 03 AUDIO TITLE "Mozart Klavierkonzert Nr.24 KV 491 - III. Allegretto" PERFORMER "Friedrich Gulda" INDEX 01 21:04:38 TRACK 04 AUDIO TITLE "Weber Konzertstuck f-moll op. 79: Larghetto - Allegro passionato - Tempo di marcia - Presto assai" PERFORMER "Friedrich Gulda" INDEX 00 29:31:72 INDEX 01 29:32:72

Friedrich Gulda - Genie und Rebell CD2 Beethoven

REM GENRE PianoREM DISCID 440CD906REM COMMENT "ExactAudioCopy v1.0b3"PERFORMER "F. Gulda"TITLE "Friedrich Gulda - Genie und Rebell CD2 Beethoven"FILE "Friedrich Gulda - Genie und Rebell CD2 Beethoven.flac" WAVE TRACK 01 AUDIO TITLE "Beethoven Piano concerto No.1 in C major op.15 - I. Allegro con brio" PERFORMER "F. Gulda" INDEX 01 00:00:00 TRACK 02 AUDIO TITLE "Paino concerto No.1 in C major op.15 - II. Largo" PERFORMER "F. Gulda" INDEX 01 18:53:01 TRACK 03 AUDIO TITLE "Paino concerto No.1 in C major op.15 - III. Rondo. Allegro scherzando" PERFORMER "F. Gulda" INDEX 01 31:24:02 TRACK 04 AUDIO TITLE "Sonata No.26 in E-flat major op.81a - I. Adagio. Allegro" PERFORMER "F. Gulda" INDEX 00 40:28:03 INDEX 01 40:29:03 TRACK 05 AUDIO TITLE "Sonata No.26 in E-flat major op.81a - II. Andante espressivo" PERFORMER "F. Gulda" INDEX 01 47:01:47 TRACK 06 AUDIO TITLE "Sonata No.26 in E-flat major op.81a - Vivacissimamente" PERFORMER "F. Gulda" INDEX 01 50:39:10

Friedrich Gulda - Genie und Rebell CD3 Beethoven

REM GENRE PianoREM DISCID 720DB908REM COMMENT "ExactAudioCopy v1.0b3"PERFORMER "F. Gulda"TITLE "Friedrich Gulda - Genie und Rebell CD3 Beethoven"FILE "Friedrich Gulda - Genie und Rebell CD3 Beethoven.flac" WAVE TRACK 01 AUDIO TITLE "Beethoven - Sonata no.29 in B-flat major op.106 'Hammerklavier' - I. Allegro" PERFORMER "F. Gulda" INDEX 01 00:00:00 TRACK 02 AUDIO TITLE "Sonata no.29 in B-flat major op.106 'Hammerklavier' - II. Scherzo. Assai vivace" PERFORMER "F. Gulda" INDEX 01 09:36:04 TRACK 03 AUDIO TITLE "Sonata no.29 in B-flat major op.106 'Hammerklavier' - III. Adagio sostenuto. ..." PERFORMER "F. Gulda" INDEX 01 11:57:70 TRACK 04 AUDIO TITLE "Sonata no.29 in B-flat major op.106 'Hammerklavier' - IV. Largo. Allegro riso..." PERFORMER "F. Gulda" INDEX 01 27:42:36 TRACK 05 AUDIO TITLE "Sonata No.28 in A major op.101 - I. Etwas lebhaft und mit innigster Empfindung" PERFORMER "F. Gulda" INDEX 00 38:20:25 INDEX 01 38:24:25 TRACK 06 AUDIO TITLE "Sonata No.28 in A major op.101 - Lebhaft. marschmassig" PERFORMER "F. Gulda" INDEX 01 42:24:56 TRACK 07 AUDIO TITLE "Sonata No.28 in A major op.101 - III. Langsam und sehnsuchtvoll" PERFORMER "F. Gulda" INDEX 01 48:29:10 TRACK 08 AUDIO TITLE "Sonata No.28 in A major op.101 - IV. Geschwind, doch nicht zu sehr und mit En..." PERFORMER "F. Gulda" INDEX 01 51:06:21

Friedrich Gulda - Genie und Rebell CD4 Chopin

REM GENRE PianoREM DISCID 580F8C07REM COMMENT "ExactAudioCopy v1.0b3"PERFORMER "F. Gulda"TITLE "Friedrich Gulda - Genie und Rebell CD4 Chopin"FILE "Friedrich Gulda - Genie und Rebell CD4 Chopin.flac" WAVE TRACK 01 AUDIO TITLE "Chopin - Piano concerto No.1 in E minor op.11 - I. Allegro maestoso" PERFORMER "F. Gulda" INDEX 01 00:00:00 TRACK 02 AUDIO TITLE "Piano concerto No.1 in E minor op.11 - II. Romanze: Larghetto" PERFORMER "F. Gulda" INDEX 01 18:53:01 TRACK 03 AUDIO TITLE "Piano concerto No.1 in E minor op.11 - III. Rondo: Vivace" PERFORMER "F. Gulda" INDEX 01 28:08:02 TRACK 04 AUDIO TITLE "Ballade No.1 op.23 in G minor" PERFORMER "F. Gulda" INDEX 00 37:12:03 INDEX 01 37:13:03 TRACK 05 AUDIO TITLE "Ballade No.2 op.38 in F major" PERFORMER "F. Gulda" INDEX 01 45:09:04 TRACK 06 AUDIO TITLE "Ballade No.3 op.47 in A-flat major" PERFORMER "F. Gulda" INDEX 01 51:32:05 TRACK 07 AUDIO TITLE "Ballade No.4 op.52 in F minor" PERFORMER "F. Gulda" INDEX 01 57:37:06

Friedrich Gulda - Genie und Rebell CD5 Chopin

REM GENRE PianoREM DISCID 400AFB19REM COMMENT "ExactAudioCopy v1.0b3"PERFORMER "F. Gulda"TITLE "Friedrich Gulda - Genie und Rebell CD5 Chopin"FILE "Friedrich Gulda - Genie und Rebell CD5 Chopin.flac" WAVE TRACK 01 AUDIO TITLE "24 Preludes op.28: c-major:agitato" PERFORMER "F. Gulda" INDEX 01 00:00:00 TRACK 02 AUDIO TITLE "a-minor:lento" PERFORMER "F. Gulda" INDEX 01 00:45:54 TRACK 03 AUDIO TITLE "g-major:vivace" PERFORMER "F. Gulda" INDEX 01 02:59:44 TRACK 04 AUDIO TITLE "e-minor:largo" PERFORMER "F. Gulda" INDEX 01 04:02:46 TRACK 05 AUDIO TITLE "d-major:allegro molto" PERFORMER "F. Gulda" INDEX 01 05:56:71 TRACK 06 AUDIO TITLE "b-minor:lento assai" PERFORMER "F. Gulda" INDEX 01 06:32:54 TRACK 07 AUDIO TITLE "a-major:andantino" PERFORMER "F. Gulda" INDEX 01 08:18:23 TRACK 08 AUDIO TITLE "f-sharp-minor:molto agitato" PERFORMER "F. Gulda" INDEX 01 09:04:28 TRACK 09 AUDIO TITLE "e-major:largo" PERFORMER "F. Gulda" INDEX 01 10:54:37 TRACK 10 AUDIO TITLE "c-sharp-minor:allegro molto" PERFORMER "F. Gulda" INDEX 01 12:21:05 TRACK 11 AUDIO TITLE "b-major:vivace" PERFORMER "F. Gulda" INDEX 01 12:52:60 TRACK 12 AUDIO TITLE "g-sharp-minor:presto" PERFORMER "F. Gulda" INDEX 01 13:29:45 TRACK 13 AUDIO TITLE "f-sharp-major:lento" PERFORMER "F. Gulda" INDEX 01 14:39:56 TRACK 14 AUDIO TITLE "e-flat-minor:allegro" PERFORMER "F. Gulda" INDEX 01 18:40:37 TRACK 15 AUDIO TITLE "d-flat-minor:sostenuto" PERFORMER "F. Gulda" INDEX 01 19:12:08 TRACK 16 AUDIO TITLE "b-flat-minor:presto con fuoco" PERFORMER "F. Gulda" INDEX 01 24:23:66 TRACK 17 AUDIO TITLE "a-flat-major:allegretto" PERFORMER "F. Gulda" INDEX 01 25:28:39 TRACK 18 AUDIO TITLE "f-minor:allegro molto" PERFORMER "F. Gulda" INDEX 01 28:14:52 TRACK 19 AUDIO TITLE "e-flat-major:vivace" PERFORMER "F. Gulda" INDEX 01 29:10:25 TRACK 20 AUDIO TITLE "c-minor:largo" PERFORMER "F. Gulda" INDEX 01 30:24:22 TRACK 21 AUDIO TITLE "b-flat-major:cantabile" PERFORMER "F. Gulda" INDEX 01 32:09:30 TRACK 22 AUDIO TITLE "g-minor:molto agitato" PERFORMER "F. Gulda" INDEX 01 33:41:68 TRACK 23 AUDIO TITLE "f-major:moderato" PERFORMER "F. Gulda" INDEX 01 34:26:65 TRACK 24 AUDIO TITLE "d-minor:allegro appassionato" PERFORMER "F. Gulda" INDEX 01 35:20:71 TRACK 25 AUDIO TITLE "Barcarole F sharp major op.60" PERFORMER "F. Gulda" INDEX 01 37:46:46

Friedrich Gulda - Genie und Rebell CD6 Debussy

REM GENRE PianoREM DISCID FE0EE113REM COMMENT "ExactAudioCopy v1.0b3"PERFORMER ""TITLE "F. Gulda - Friedrich Gulda - Genie und Rebell CD6 Debussy"FILE "Friedrich Gulda - Genie und Rebell CD6 Debussy.flac" WAVE TRACK 01 AUDIO TITLE "preludes//danseuses de delphes: lent et grave" PERFORMER "" INDEX 01 00:00:00 TRACK 02 AUDIO TITLE "preludes/voiles: modere" PERFORMER "" INDEX 01 02:31:01 TRACK 03 AUDIO TITLE "preludes/le vent danse la plaine: anime" PERFORMER "" INDEX 01 05:47:02 TRACK 04 AUDIO TITLE "preludes/les sons et les parfums tournent dans l.air du soir: modere" PERFORMER "" INDEX 01 07:47:03 TRACK 05 AUDIO TITLE "preludes/les collines dAnacapri: tres modere" PERFORMER "" INDEX 01 10:47:04 TRACK 06 AUDIO TITLE "preludes/des pas su la neige: triste et lent" PERFORMER "" INDEX 01 13:39:05 TRACK 07 AUDIO TITLE "preludes/ce qu.a vu le vent d.Quest: anime et tumumtueux" PERFORMER "" INDEX 01 17:25:06 TRACK 08 AUDIO TITLE "preludes/la fille aux cheveux de lin: tres calme et doucement expressif" PERFORMER "" INDEX 01 20:26:07 TRACK 09 AUDIO TITLE "preludes/la serenadeinterrompue: moderement anime" PERFORMER "" INDEX 01 22:32:08 TRACK 10 AUDIO TITLE "preludes/la cathedrale engloutie: profondement calme" PERFORMER "" INDEX 01 25:02:09 TRACK 11 AUDIO TITLE "preludes/la danse de puck: capricieux et leger" PERFORMER "" INDEX 01 31:40:10 TRACK 12 AUDIO TITLE "preludes/minstrels: modere" PERFORMER "" INDEX 01 34:29:11 TRACK 13 AUDIO TITLE "suite pergamesque/prelude: moderato" PERFORMER "" INDEX 00 36:29:12 INDEX 01 36:30:12 TRACK 14 AUDIO TITLE "suite pergamesque/menuet: andantino" PERFORMER "" INDEX 01 39:54:13 TRACK 15 AUDIO TITLE "suite pergamesque/ andante Tres expressif" PERFORMER "" INDEX 01 44:01:14 TRACK 16 AUDIO TITLE "suite pergamesque/allegretto ma non troppo" PERFORMER "" INDEX 01 48:46:15 TRACK 17 AUDIO TITLE "pour le piano/prelude: assez anime et tres rythme" PERFORMER "" INDEX 00 52:08:16 INDEX 01 52:09:16 TRACK 18 AUDIO TITLE "pour le piano/sarabande: avec une elegance grave et lente" PERFORMER "" INDEX 01 56:07:17 TRACK 19 AUDIO TITLE "pour le piano/toccata: vif" PERFORMER "" INDEX 01 59:58:18

Friedrich Gulda - Genie und Rebell CD7 Debussy

REM GENRE PianoREM DISCID DE0CBD10REM COMMENT "ExactAudioCopy v1.0b3"PERFORMER ""TITLE "Friedrich Gulda - Genie und Rebell CD7 Debussy"FILE "Friedrich Gulda - Genie und Rebell CD7 Debussy.flac" WAVE TRACK 01 AUDIO TITLE "Debussy - Preludes: Nr. 1 Brouillards: Modere" PERFORMER "" INDEX 01 00:00:00 TRACK 02 AUDIO TITLE "Nr. 2 Feuilles mortes: Lent et melancolique" PERFORMER "" INDEX 01 02:43:01 TRACK 03 AUDIO TITLE "Nr. 3 La Puerta del Vino: Mouvement de Habanera" PERFORMER "" INDEX 01 06:04:02 TRACK 04 AUDIO TITLE "Nr. 4 Les fees sonst d'exquises danseuses: Rapide et leger" PERFORMER "" INDEX 01 08:36:03 TRACK 05 AUDIO TITLE "Nr. 5 Bruyeres: Calme" PERFORMER "" INDEX 01 11:03:04 TRACK 06 AUDIO TITLE "Nr. 6 General Lavine - eccentric: Dans le style et le mouvement d'un Cakewalk" PERFORMER "" INDEX 01 13:31:05 TRACK 07 AUDIO TITLE "Nr. 7 La terrasse des audiences du clair de lune: Lent" PERFORMER "" INDEX 01 16:00:06 TRACK 08 AUDIO TITLE "Nr. 8 Ondine: Scherzando" PERFORMER "" INDEX 01 20:35:07 TRACK 09 AUDIO TITLE "Nr. 9 Hommage a S. Pickwick, Esq., P.P.M.P.C.: Grave" PERFORMER "" INDEX 01 23:40:08 TRACK 10 AUDIO TITLE "Nr. 10 Canope: Tres cale et doucement triste" PERFORMER "" INDEX 01 25:44:09 TRACK 11 AUDIO TITLE "Nr. 11 Les tierces alternees: Moderement anime" PERFORMER "" INDEX 01 29:08:10 TRACK 12 AUDIO TITLE "Nr. 12 Feux d'artifice: Moderement anime" PERFORMER "" INDEX 01 31:39:11 TRACK 13 AUDIO TITLE "L'isle joyeuse" PERFORMER "" INDEX 00 36:00:12 INDEX 01 36:01:12 TRACK 14 AUDIO TITLE "Images I: Reflets dans l'eau" PERFORMER "" INDEX 01 41:36:13 TRACK 15 AUDIO TITLE "Estampes: Soiree dans Grenade" PERFORMER "" INDEX 01 46:36:14 TRACK 16 AUDIO TITLE "Images II: Poissons d'or" PERFORMER "" INDEX 01 50:59:15

Friedrich Gulda - Genie und Rebell CD8 Ravel

REM GENRE PianoREM DISCID A30A3A0EREM COMMENT "ExactAudioCopy v1.0b3"PERFORMER ""TITLE "Friedrich Gulda - Genie und Rebell CD8 Ravel"FILE "Friedrich Gulda - Genie und Rebell CD8 Ravel.flac" WAVE TRACK 01 AUDIO TITLE "Valses Nobles et sentimentales: I. Modere" PERFORMER "" INDEX 01 00:00:00 TRACK 02 AUDIO TITLE "II. Assez Lent" PERFORMER "" INDEX 01 01:12:01 TRACK 03 AUDIO TITLE "III. Modere" PERFORMER "" INDEX 01 03:14:04 TRACK 04 AUDIO TITLE "IV. Assez anime" PERFORMER "" INDEX 01 04:28:15 TRACK 05 AUDIO TITLE "V. Presque lent" PERFORMER "" INDEX 01 05:29:04 TRACK 06 AUDIO TITLE "VI. Assz vif" PERFORMER "" INDEX 01 06:43:17 TRACK 07 AUDIO TITLE "VII. Moins viv" PERFORMER "" INDEX 01 07:19:71 TRACK 08 AUDIO TITLE "VIII. Epilogue: Lent" PERFORMER "" INDEX 01 09:57:72 TRACK 09 AUDIO TITLE "Gaspard de la nuit: I. Ondine: Lent" PERFORMER "" INDEX 00 13:19:08 INDEX 01 13:20:08 TRACK 10 AUDIO TITLE "II. Le gibet: Tres lent" PERFORMER "" INDEX 01 18:59:09 TRACK 11 AUDIO TITLE "III. Scarbo: Modere. Vif" PERFORMER "" INDEX 01 23:59:10 TRACK 12 AUDIO TITLE "Sonatine: I. Modere" PERFORMER "" INDEX 00 33:11:11 INDEX 01 33:12:11 TRACK 13 AUDIO TITLE "II. Mouvement de Menuet" PERFORMER "" INDEX 01 36:56:12 TRACK 14 AUDIO TITLE "III. Anime" PERFORMER "" INDEX 01 40:06:13

Friedrich Gulda - Genie und Rebell CD9 Strauss

REM GENRE PianoREM DISCID B70BE50EREM COMMENT "ExactAudioCopy v1.0b3"PERFORMER ""TITLE "Friedrich Gulda - Genie und Rebell CD9 Strauss"FILE "Friedrich Gulda - Genie und Rebell CD9 Strauss.flac" WAVE TRACK 01 AUDIO TITLE "Einerlei op.69 No.3" PERFORMER "" INDEX 01 00:00:00 TRACK 02 AUDIO TITLE "Sausle, liebe Myrthe op.68 No.3" PERFORMER "" INDEX 01 02:29:44 TRACK 03 AUDIO TITLE "Der Stern op.69 No.1" PERFORMER "" INDEX 01 06:21:68 TRACK 04 AUDIO TITLE "Schlechtes Wetter op.69 No.5" PERFORMER "" INDEX 01 08:00:62 TRACK 05 AUDIO TITLE "Ich wollt ein Strausslein binden op.68 No.2" PERFORMER "" INDEX 01 10:05:02 TRACK 06 AUDIO TITLE "Als mir dein Lied erklang op.68 No.4" PERFORMER "" INDEX 01 12:45:33 TRACK 07 AUDIO TITLE "Freundliche Vision op.48 No.1" PERFORMER "" INDEX 01 15:49:45 TRACK 08 AUDIO TITLE "Schlagende Herzen op.29 No.2" PERFORMER "" INDEX 01 18:28:42 TRACK 09 AUDIO TITLE "Heimkehr op.15 No.5" PERFORMER "" INDEX 01 20:33:35 TRACK 10 AUDIO TITLE "Befreit op.39 No.4" PERFORMER "" INDEX 01 22:28:32 TRACK 11 AUDIO TITLE "Die Nacht op.10 No.3" PERFORMER "" INDEX 01 26:25:13 TRACK 12 AUDIO TITLE "Wie sollten wir geheim sie halten op.19 No.4" PERFORMER "" INDEX 01 28:43:51 TRACK 13 AUDIO TITLE "Meinem Kinde op.37 No.3" PERFORMER "" INDEX 01 30:23:51 TRACK 14 AUDIO TITLE "Burleske" PERFORMER "F. Gulda & LSO, A. Collins" INDEX 00 32:44:10 INDEX 01 32:45:10

Friedrich Gulda - Genie und Rebell CD10- Friedrich Gulda at Birdland

REM GENRE InstrumentalREM DISCID 6B0BA308REM COMMENT "ExactAudioCopy v1.0b3"PERFORMER ""TITLE "Friedrich Gulda - Genie und Rebell CD10: Friedrich Gulda at Birdland"FILE "Friedrich Gulda - Genie und Rebell CD10- Friedrich Gulda at Birdland.flac" WAVE TRACK 01 AUDIO TITLE "Friedrich Gulda: Quintet" PERFORMER "" INDEX 01 00:00:00 TRACK 02 AUDIO TITLE "Friedrich Gulda: Introvert" PERFORMER "" INDEX 00 03:04:21 INDEX 01 03:05:20 TRACK 03 AUDIO TITLE "Friedrich Gulda: Teheran" PERFORMER "" INDEX 00 07:02:22 INDEX 01 07:03:22 TRACK 04 AUDIO TITLE "Friedrich Gulda: Cool Hill" PERFORMER "" INDEX 00 11:50:55 INDEX 01 11:51:55 TRACK 05 AUDIO TITLE "E.Heyman/J.Greene: Out Of Nowhere" PERFORMER "" INDEX 00 17:26:70 INDEX 01 17:27:70 TRACK 06 AUDIO TITLE "G.Shearing: Lullaby of Birdland" PERFORMER "" INDEX 00 25:52:50 INDEX 01 25:53:50 TRACK 07 AUDIO TITLE "J.Kern: All The Things You Are" PERFORMER "" INDEX 00 31:56:18 INDEX 01 31:57:18 TRACK 08 AUDIO TITLE "B.Miller:/Stoller/Leibner: Bernie.s Tune" PERFORMER "" INDEX 01 39:33:31
[teatrix.ru].t9731.torrent 
Торрент: Зарегистрирован [ 2015-10-23 17:11 ] · 8D970CB78168BFBFB57944861894DEC095ACEA4B

Скачать .torrent

Скачать

20 KB

Статус: проверено
Скачан: 0 раз
Размер: 1.59 GB
terms.php



Быстрый ответ

Имя:

      
Для отправки сообщений необходимо включить JavaScript
Показать сообщения:    

Текущее время: 04-Дек 04:58

Часовой пояс: UTC + 3


Вы можете начинать темы
Вы можете отвечать на сообщения
Вы не можете редактировать свои сообщения
Вы не можете удалять свои сообщения
Вы не можете голосовать в опросах
Вы не можете прикреплять файлы к сообщениям
Вы можете скачивать файлы