(Classical/20th Century) Родион Щедрин - 24 прелюдии и фуги для фортепиано, Полифоническая тетрадь, Музыкальное приношение / Rodion Shchedrin plays Shchedrin (Щедрин, Корнеев, Малина, Поплавский, Копачевский) [5 CD] - 2012, FLAC (image+.cue) lossless


Статистика раздачи [Обновить пиров]
Размер:  1.15 GB   |    Зарегистрирован:  1 год 1 месяц   |    Скачан:  1 раз

Полного источника не было: 4 месяца 15 дней

Личеров:  3  [  0 KB/s  ]   Подробная статистика пиров
 
   
 
 
 

[Цитировать]

Родион Щедрин - 24 прелюдии и фуги для фортепиано, Полифоническая тетрадь, Музыкальное приношение / Rodion Shchedrin plays Shchedrin
Жанр: Classical
Страна-производитель диска: Россия
Год издания диска: 2012
Издатель (лейбл): Мелодия
Номер по каталогу: MEL CD 10 02018
Дата записи: 1966, 1971, 1973, 1983
Формат записи: Stereo / ADD
Аудиокодек: FLAC
Тип рипа: image+.cue
Битрейт аудио: lossless
Продолжительность: 45'21 + 52'34 + 55'18 + 61'36 + 59'50
Источник: собственный рип
Наличие сканов в содержимом раздачи: да

Треклист

CD1:
24 прелюдии и фуги для фортепиано, Том I (№№ I-ХII) «Диезные тональности» (1963-1964)
01. Preludio I [0:00:31.39]
02. Fuga I (a 3 voci) [0:01:33.61]
03. Preludio II [0:00:40.32]
04. Fuga II (a 3 voci) [0:03:19.46]
05. Preludio III [0:01:17.39]
06. Fuga III (a 4 voci) [0:02:11.57]
07. Preludio IV [0:00:56.10]
08. Fuga IV (a 4 voci) [0:03:49.71]
09. Preludio V [0:00:33.46]
10. Fuga V (a 3 voci) [0:02:44.14]
11. Preludio VI [0:01:09.59]
12. Fuga VI (a 4 voci) [0:03:43.61]
13. Preludio VII [0:00:30.19]
14. Fuga VII (a 2 voci) [0:02:03.11]
15. Preludio VIII [0:01:39.52]
16. Fuga VIII (a 3 voci) [0:02:03.20]
17. Preludio IX [0:01:57.71]
18. Fuga IX (a 3 voci) [0:02:23.60]
19. Preludio X [0:02:01.71]
20. Fuga X (a 3 voci) [0:01:44.17]
21. Preludio XI [0:00:38.57]
22. Fuga XI (a 5 voci) [0:04:01.53]
23. Preludio XII [0:01:00.16]
24. Fuga XII (a 3 voci) [0:02:42.37]
TT: 45'21
CD2:
24 прелюдии и фуги для фортепиано, Том II (№№ XIII—XXIV) «Бемольные тональности» (1964-1970)
01. Preludio XIII [0:01:27.53]
02. Fuga XIII (a 3 voci) [0:01:21.11]
03. Preludio XIV [0:00:40.14]
04. Fuga XIV (a 3 voci) [0:02:30.15]
05. Preludio XV [0:01:42.16]
06. Fuga XV (a 4 voci) [0:03:20.50]
07. Preludio XVI [0:00:45.07]
08. Fuga XVI (a 2 voci) [0:03:00.05]
09. Preludio XVII [0:01:39.01]
10. Fuga XVII (a 3 voci) [0:02:02.48]
11. Preludio XVIII [0:00:45.01]
12. Fuga XVIII (a 3 voci) [0:03:17.17]
13. Preludio XIX [0:00:49.68]
14. Fuga XIX (a 3 voci) [0:01:26.29]
15. Preludio XX [0:03:38.70]
16. Fuga XX (a 4 voci) [0:06:25.33]
17. Preludio XXI [0:01:10.69]
18. Fuga XXI (a 3 voci) [0:02:32.03]
19. Preludio XXII [0:00:48.11]
20. Fuga XXII (a 4 voci) [0:05:05.38]
21. Preludio XXIII [0:01:46.29]
22. Fuga XXIII (a 3 voci) [0:04:03.40]
23. Preludio XXIV [0:00:36.29]
24. Fuga XXIV (a 3 voci) [0:01:37.70]
TT: 52'34
CD3:
Полифоническая тетрадь - 25 полифонических прелюдий (1972)
01. Двухголосная инвенция (Andantino) [0:01:35.12]
02. Канон в октаву (Allegro) [0:01:16.08]
03. Остинато (Sostenuto) [0:01:58.64]
04. Фугетта (Moderato) [0:02:26.13]
05. Каноническая имитация (Allegretto) [0:01:08.44]
06. Подголоски (Rubato, ma andante) [0:02:31.08]
07. Зеркальный канон (Commodo) [0:00:56.73]
08. Речитатив и обратное движение (Animato Recitando) [0:01:30.22]
09. Этюд (инверсия) (Scherzando capriccioso) [0:01:27.12]
10. Чакона (Sostenuto) [0:03:01.12]
11. Контрапункт (Moderato) [0:01:19.28]
12. Токкатина-коллаж (Allegro grazioso) [0:01:23.41]
13. Трехголосная инвенция (Andante) [0:02:18.62]
14. Канон в увеличении (Moderato risoluto) [0:01:43.17]
15. Мотет (двойной канон) (Sostenuto) [0:02:07.19]
16. Остинатный бас (Allegro) [0:01:27.49]
17. Бесконечный канон (Recitando improvisato) [0:03:09.34]
18. Фуга (Allegretto moderato) [0:01:35.63]
19. Тройной контрапункт (Larghetto) [0:02:47.34]
20. Канон на кантус фирмус (Andantino) [0:01:57.49]
21. Пассакалия (Andante espressivo) [0:05:00.64]
22. Трехголосный канон (Moderato) [0:03:06.36]
23. Двойная фуга (Allegro) [0:02:14.10]
24. Горизонталь и вертикаль (Adagio improvisato) [0:03:01.14]
25. Полифоническая мозаика (Andantino, росо rubato) [0:04:12.25]
TT: 55'18
CD4:
«Музыкальное приношение» для органа, трёх флейт, трёх фаготов и трёх тромбонов (к 300-летию со дня рождения И.С. Баха) (1983)
01. Трек 1 [0:20:37.73]
02. Трек 2 [0:22:33.70]
03. Трек 3 [0:18:20.12]
TT: 61'36
CD5:
«Музыкальное приношение» для органа, трёх флейт, трёх фаготов и трёх тромбонов (к 300-летию со дня рождения И.С. Баха) (1983) (окончание)
01. Трек 4 [0:23:03.68]
02. Трек 5 [0:22:58.12]
03. Трек 6 [0:13:43.41]
TT: 59'50
Исполнители:
Родион Щедрин, фортепиано (1-3 диски), орган (4-5)
Наталия Малина, ассистент органиста (4-5 диски)
Ансамбль под управлением Александра Корнеева (4-5 диски):
флейты: Александр Корнеев, Александр Поплавский, Игорь Копачевский;
фаготы: Андрис Арницанс, Евгений Евстафьев, Анатолий Капчеля;
тромбоны: Николай Миронов, Владимир Школьник, Эдуард Осипов
Запись: 1966 (1 диск), 1971 (2 диск), 1973 (3 диск), запись с концерта в Большом зале Московской государственной консерватории, 1983 (4-5 диски) гг.
Звукорежиссеры записи: Игорь Вепринцев, Елена Бунеева
Редактор - Е. Растегаева
Ремастеринг - Н. Радугина
Дизайн - Г. Жуков

Лог создания рипаCD1

Exact Audio Copy V1.0 beta 3 from 29. August 2011
Отчёт EAC об извлечении, выполненном 12. октября 2013, 14:51
Rodion Shchedrin / 24 Preludes and Fugues for Piano - Vol. I (Nos. I-XII) 'Sharp Keys'
Дисковод: HL-DT-STDVDRAM GT33N Adapter: 1 ID: 0
Режим чтения : ДостоверностьИспользование точного потока : ДаОтключение кэша аудио : ДаИспользование указателей C2 : Нет
Коррекция смещения при чтении : 103Способность читать области Lead-in и Lead-out : НетЗаполнение пропущенных сэмплов тишиной : ДаУдаление блоков с тишиной в начале и конце : НетПри вычислениях CRC использовались нулевые сэмплы : ДаИнтерфейс : Встроенный Win32-интерфейс для Win NT/2000
Выходной формат : Пользовательский кодировщикВыбранный битрейт : 1024 kBit/sКачество : ВысокийДобавление ID3-тега : ДаУтилита сжатия : C:\Program Files (x86)\Exact Audio Copy\Flac\flac.exeДополнительные параметры : -8 -V -T "ALBUMARTIST=%albumartist%" -T "ALBUM=%albumtitle%" -T "DATE=%year%" -T "TRACKTOTAL=%numtracks%" -T "GENRE=%genre%" -T "COMMENT=%comment%" -T "PERFORMER=%albuminterpret%" -T "COMPOSER=%composer%" %source% -o %dest%
TOC извлечённого CD
Трек | Старт | Длительность | Начальный сектор | Конечный сектор --------------------------------------------------------------------- 1 | 0:00.00 | 0:31.39 | 0 | 2363 2 | 0:31.39 | 1:33.61 | 2364 | 9399 3 | 2:05.25 | 0:40.32 | 9400 | 12431 4 | 2:45.57 | 3:19.46 | 12432 | 27402 5 | 6:05.28 | 1:17.39 | 27403 | 33216 6 | 7:22.67 | 2:11.57 | 33217 | 43098 7 | 9:34.49 | 0:56.10 | 43099 | 47308 8 | 10:30.59 | 3:49.71 | 47309 | 64554 9 | 14:20.55 | 0:33.46 | 64555 | 67075 10 | 14:54.26 | 2:44.14 | 67076 | 79389 11 | 17:38.40 | 1:09.59 | 79390 | 84623 12 | 18:48.24 | 3:43.61 | 84624 | 101409 13 | 22:32.10 | 0:30.19 | 101410 | 103678 14 | 23:02.29 | 2:03.11 | 103679 | 112914 15 | 25:05.40 | 1:39.52 | 112915 | 120391 16 | 26:45.17 | 2:03.20 | 120392 | 129636 17 | 28:48.37 | 1:57.71 | 129637 | 138482 18 | 30:46.33 | 2:23.60 | 138483 | 149267 19 | 33:10.18 | 2:01.71 | 149268 | 158413 20 | 35:12.14 | 1:44.17 | 158414 | 166230 21 | 36:56.31 | 0:38.57 | 166231 | 169137 22 | 37:35.13 | 4:01.53 | 169138 | 187265 23 | 41:36.66 | 1:00.16 | 187266 | 191781 24 | 42:37.07 | 2:42.37 | 191782 | 203968
Характеристики диапазона извлечения и сообщения об ошибках
Выбранный диапазон
Имя файла O:\!Rips\24 Preludes and Fugues for Piano - Vol. I (Nos. I-XII) 'Sharp Keys'.wav
Пиковый уровень 85.5 % Скорость извлечения 2.0 X Качество диапазона 100.0 % CRC теста 4886201C CRC копии 4886201C Копирование... OK
Ошибок не произошло
AccurateRip: сводка
Трек 1 отсутствует в базе данныхТрек 2 отсутствует в базе данныхТрек 3 отсутствует в базе данныхТрек 4 отсутствует в базе данныхТрек 5 отсутствует в базе данныхТрек 6 отсутствует в базе данныхТрек 7 отсутствует в базе данныхТрек 8 отсутствует в базе данныхТрек 9 отсутствует в базе данныхТрек 10 отсутствует в базе данныхТрек 11 отсутствует в базе данныхТрек 12 отсутствует в базе данныхТрек 13 отсутствует в базе данныхТрек 14 отсутствует в базе данныхТрек 15 отсутствует в базе данныхТрек 16 отсутствует в базе данныхТрек 17 отсутствует в базе данныхТрек 18 отсутствует в базе данныхТрек 19 отсутствует в базе данныхТрек 20 отсутствует в базе данныхТрек 21 отсутствует в базе данныхТрек 22 отсутствует в базе данныхТрек 23 отсутствует в базе данныхТрек 24 отсутствует в базе данных
Ни одного трека нет в базе AccurateRip
Конец отчёта
==== Контрольная сумма отчёта 1484783F1176027645BE699F614095D46A8EE27A27ADDEBB7ED80E892CCD9EC0 ====

CD2

Exact Audio Copy V1.0 beta 3 from 29. August 2011
Отчёт EAC об извлечении, выполненном 12. октября 2013, 16:15
Rodion Shchedrin / 24 Preludes and Fugues for Piano - Vol. II (Nos. XIII-XXIV) 'Flat Keys'
Дисковод: HL-DT-STDVDRAM GT33N Adapter: 1 ID: 0
Режим чтения : ДостоверностьИспользование точного потока : ДаОтключение кэша аудио : ДаИспользование указателей C2 : Нет
Коррекция смещения при чтении : 103Способность читать области Lead-in и Lead-out : НетЗаполнение пропущенных сэмплов тишиной : ДаУдаление блоков с тишиной в начале и конце : НетПри вычислениях CRC использовались нулевые сэмплы : ДаИнтерфейс : Встроенный Win32-интерфейс для Win NT/2000
Выходной формат : Пользовательский кодировщикВыбранный битрейт : 1024 kBit/sКачество : ВысокийДобавление ID3-тега : ДаУтилита сжатия : C:\Program Files (x86)\Exact Audio Copy\Flac\flac.exeДополнительные параметры : -8 -V -T "ALBUMARTIST=%albumartist%" -T "ALBUM=%albumtitle%" -T "DATE=%year%" -T "TRACKTOTAL=%numtracks%" -T "GENRE=%genre%" -T "COMMENT=%comment%" -T "PERFORMER=%albuminterpret%" -T "COMPOSER=%composer%" %source% -o %dest%
TOC извлечённого CD
Трек | Старт | Длительность | Начальный сектор | Конечный сектор --------------------------------------------------------------------- 1 | 0:00.00 | 1:27.53 | 0 | 6577 2 | 1:27.53 | 1:21.11 | 6578 | 12663 3 | 2:48.64 | 0:40.14 | 12664 | 15677 4 | 3:29.03 | 2:30.15 | 15678 | 26942 5 | 5:59.18 | 1:42.16 | 26943 | 34608 6 | 7:41.34 | 3:20.50 | 34609 | 49658 7 | 11:02.09 | 0:45.07 | 49659 | 53040 8 | 11:47.16 | 3:00.05 | 53041 | 66545 9 | 14:47.21 | 1:39.01 | 66546 | 73971 10 | 16:26.22 | 2:02.48 | 73972 | 83169 11 | 18:28.70 | 0:45.01 | 83170 | 86545 12 | 19:13.71 | 3:17.17 | 86546 | 101337 13 | 22:31.13 | 0:49.68 | 101338 | 105080 14 | 23:21.06 | 1:26.29 | 105081 | 111559 15 | 24:47.35 | 3:38.70 | 111560 | 127979 16 | 28:26.30 | 6:25.33 | 127980 | 156887 17 | 34:51.63 | 1:10.69 | 156888 | 162206 18 | 36:02.57 | 2:32.03 | 162207 | 173609 19 | 38:34.60 | 0:48.11 | 173610 | 177220 20 | 39:22.71 | 5:05.38 | 177221 | 200133 21 | 44:28.34 | 1:46.29 | 200134 | 208112 22 | 46:14.63 | 4:03.40 | 208113 | 226377 23 | 50:18.28 | 0:36.29 | 226378 | 229106 24 | 50:54.57 | 1:37.70 | 229107 | 236451
Характеристики диапазона извлечения и сообщения об ошибках
Выбранный диапазон
Имя файла O:\!Rips\24 Preludes and Fugues for Piano - Vol. II (Nos. XIII-XXIV) 'Flat Keys'.wav
Пиковый уровень 78.6 % Скорость извлечения 2.1 X Качество диапазона 99.9 % CRC теста B776A6BD CRC копии B776A6BD Копирование... OK
Ошибок не произошло
AccurateRip: сводка
Трек 1 отсутствует в базе данныхТрек 2 отсутствует в базе данныхТрек 3 отсутствует в базе данныхТрек 4 отсутствует в базе данныхТрек 5 отсутствует в базе данныхТрек 6 отсутствует в базе данныхТрек 7 отсутствует в базе данныхТрек 8 отсутствует в базе данныхТрек 9 отсутствует в базе данныхТрек 10 отсутствует в базе данныхТрек 11 отсутствует в базе данныхТрек 12 отсутствует в базе данныхТрек 13 отсутствует в базе данныхТрек 14 отсутствует в базе данныхТрек 15 отсутствует в базе данныхТрек 16 отсутствует в базе данныхТрек 17 отсутствует в базе данныхТрек 18 отсутствует в базе данныхТрек 19 отсутствует в базе данныхТрек 20 отсутствует в базе данныхТрек 21 отсутствует в базе данныхТрек 22 отсутствует в базе данныхТрек 23 отсутствует в базе данныхТрек 24 отсутствует в базе данных
Ни одного трека нет в базе AccurateRip
Конец отчёта
==== Контрольная сумма отчёта 116A0C61FF64F281C456F089795E3AB155874BB7C97C51AE9ACBACE62B36F563 ====

CD3

Exact Audio Copy V1.0 beta 3 from 29. August 2011
Отчёт EAC об извлечении, выполненном 12. октября 2013, 17:41
Rodion Shchedrin / The Polyphonic Book - 25 Polyphonic Preludes
Дисковод: HL-DT-STDVDRAM GT33N Adapter: 1 ID: 0
Режим чтения : ДостоверностьИспользование точного потока : ДаОтключение кэша аудио : ДаИспользование указателей C2 : Нет
Коррекция смещения при чтении : 103Способность читать области Lead-in и Lead-out : НетЗаполнение пропущенных сэмплов тишиной : ДаУдаление блоков с тишиной в начале и конце : НетПри вычислениях CRC использовались нулевые сэмплы : ДаИнтерфейс : Встроенный Win32-интерфейс для Win NT/2000
Выходной формат : Пользовательский кодировщикВыбранный битрейт : 1024 kBit/sКачество : ВысокийДобавление ID3-тега : ДаУтилита сжатия : C:\Program Files (x86)\Exact Audio Copy\Flac\flac.exeДополнительные параметры : -8 -V -T "ALBUMARTIST=%albumartist%" -T "ALBUM=%albumtitle%" -T "DATE=%year%" -T "TRACKTOTAL=%numtracks%" -T "GENRE=%genre%" -T "COMMENT=%comment%" -T "PERFORMER=%albuminterpret%" -T "COMPOSER=%composer%" %source% -o %dest%
TOC извлечённого CD
Трек | Старт | Длительность | Начальный сектор | Конечный сектор --------------------------------------------------------------------- 1 | 0:00.00 | 1:35.12 | 0 | 7136 2 | 1:35.12 | 1:16.08 | 7137 | 12844 3 | 2:51.20 | 1:58.64 | 12845 | 21758 4 | 4:50.09 | 2:26.13 | 21759 | 32721 5 | 7:16.22 | 1:08.44 | 32722 | 37865 6 | 8:24.66 | 2:31.08 | 37866 | 49198 7 | 10:55.74 | 0:56.73 | 49199 | 53471 8 | 11:52.72 | 1:30.22 | 53472 | 60243 9 | 13:23.19 | 1:27.12 | 60244 | 66780 10 | 14:50.31 | 3:01.12 | 66781 | 80367 11 | 17:51.43 | 1:19.28 | 80368 | 86320 12 | 19:10.71 | 1:23.41 | 86321 | 92586 13 | 20:34.37 | 2:18.62 | 92587 | 102998 14 | 22:53.24 | 1:43.17 | 102999 | 110740 15 | 24:36.41 | 2:07.19 | 110741 | 120284 16 | 26:43.60 | 1:27.49 | 120285 | 126858 17 | 28:11.34 | 3:09.34 | 126859 | 141067 18 | 31:20.68 | 1:35.63 | 141068 | 148255 19 | 32:56.56 | 2:47.34 | 148256 | 160814 20 | 35:44.15 | 1:57.49 | 160815 | 169638 21 | 37:41.64 | 5:00.64 | 169639 | 192202 22 | 42:42.53 | 3:06.36 | 192203 | 206188 23 | 45:49.14 | 2:14.10 | 206189 | 216248 24 | 48:03.24 | 3:01.14 | 216249 | 229837 25 | 51:04.38 | 4:12.25 | 229838 | 248762
Характеристики диапазона извлечения и сообщения об ошибках
Выбранный диапазон
Имя файла O:\!Rips\The Polyphonic Book - 25 Polyphonic Preludes.wav
Пиковый уровень 87.0 % Скорость извлечения 2.1 X Качество диапазона 100.0 % CRC теста 171E92D4 CRC копии 171E92D4 Копирование... OK
Ошибок не произошло
AccurateRip: сводка
Трек 1 отсутствует в базе данныхТрек 2 отсутствует в базе данныхТрек 3 отсутствует в базе данныхТрек 4 отсутствует в базе данныхТрек 5 отсутствует в базе данныхТрек 6 отсутствует в базе данныхТрек 7 отсутствует в базе данныхТрек 8 отсутствует в базе данныхТрек 9 отсутствует в базе данныхТрек 10 отсутствует в базе данныхТрек 11 отсутствует в базе данныхТрек 12 отсутствует в базе данныхТрек 13 отсутствует в базе данныхТрек 14 отсутствует в базе данныхТрек 15 отсутствует в базе данныхТрек 16 отсутствует в базе данныхТрек 17 отсутствует в базе данныхТрек 18 отсутствует в базе данныхТрек 19 отсутствует в базе данныхТрек 20 отсутствует в базе данныхТрек 21 отсутствует в базе данныхТрек 22 отсутствует в базе данныхТрек 23 отсутствует в базе данныхТрек 24 отсутствует в базе данныхТрек 25 отсутствует в базе данных
Ни одного трека нет в базе AccurateRip
Конец отчёта
==== Контрольная сумма отчёта 1E3288F4D5C47830E38583F6048453C20B86524ED5C09B5A36DBE13C19D0E0DD ====

CD4

Exact Audio Copy V1.0 beta 3 from 29. August 2011
Отчёт EAC об извлечении, выполненном 12. октября 2013, 18:48
Rodion Shchedrin, Alexander Korneyev / A Musical Offering (Part 1)
Дисковод: HL-DT-STDVDRAM GT33N Adapter: 1 ID: 0
Режим чтения : ДостоверностьИспользование точного потока : ДаОтключение кэша аудио : ДаИспользование указателей C2 : Нет
Коррекция смещения при чтении : 103Способность читать области Lead-in и Lead-out : НетЗаполнение пропущенных сэмплов тишиной : ДаУдаление блоков с тишиной в начале и конце : НетПри вычислениях CRC использовались нулевые сэмплы : ДаИнтерфейс : Встроенный Win32-интерфейс для Win NT/2000
Выходной формат : Пользовательский кодировщикВыбранный битрейт : 1024 kBit/sКачество : ВысокийДобавление ID3-тега : ДаУтилита сжатия : C:\Program Files (x86)\Exact Audio Copy\Flac\flac.exeДополнительные параметры : -8 -V -T "ALBUMARTIST=%albumartist%" -T "ALBUM=%albumtitle%" -T "DATE=%year%" -T "TRACKTOTAL=%numtracks%" -T "GENRE=%genre%" -T "COMMENT=%comment%" -T "PERFORMER=%albuminterpret%" -T "COMPOSER=%composer%" %source% -o %dest%
TOC извлечённого CD
Трек | Старт | Длительность | Начальный сектор | Конечный сектор --------------------------------------------------------------------- 1 | 0:00.00 | 20:37.73 | 0 | 92847 2 | 20:37.73 | 22:33.70 | 92848 | 194392 3 | 43:11.68 | 18:20.12 | 194393 | 276904
Характеристики диапазона извлечения и сообщения об ошибках
Выбранный диапазон
Имя файла O:\!Rips\A Musical Offering (Part 1).wav
Пиковый уровень 98.8 % Скорость извлечения 2.2 X Качество диапазона 100.0 % CRC теста 3B4227C4 CRC копии 3B4227C4 Копирование... OK
Ошибок не произошло
AccurateRip: сводка
Трек 1 отсутствует в базе данныхТрек 2 отсутствует в базе данныхТрек 3 отсутствует в базе данных
Ни одного трека нет в базе AccurateRip
Конец отчёта
==== Контрольная сумма отчёта C031579BF5AE3B13EE380677B827A41AD04C807CCF2DA95E33EC6AA802736092 ====

CD5

Exact Audio Copy V1.0 beta 3 from 29. August 2011
Отчёт EAC об извлечении, выполненном 12. октября 2013, 20:22
Rodion Shchedrin, Alexander Korneyev / A Musical Offering (Part 2)
Дисковод: HL-DT-STDVDRAM GT33N Adapter: 1 ID: 0
Режим чтения : ДостоверностьИспользование точного потока : ДаОтключение кэша аудио : ДаИспользование указателей C2 : Нет
Коррекция смещения при чтении : 103Способность читать области Lead-in и Lead-out : НетЗаполнение пропущенных сэмплов тишиной : ДаУдаление блоков с тишиной в начале и конце : НетПри вычислениях CRC использовались нулевые сэмплы : ДаИнтерфейс : Встроенный Win32-интерфейс для Win NT/2000
Выходной формат : Пользовательский кодировщикВыбранный битрейт : 1024 kBit/sКачество : ВысокийДобавление ID3-тега : ДаУтилита сжатия : C:\Program Files (x86)\Exact Audio Copy\Flac\flac.exeДополнительные параметры : -8 -V -T "ALBUMARTIST=%albumartist%" -T "ALBUM=%albumtitle%" -T "DATE=%year%" -T "TRACKTOTAL=%numtracks%" -T "GENRE=%genre%" -T "COMMENT=%comment%" -T "PERFORMER=%albuminterpret%" -T "COMPOSER=%composer%" %source% -o %dest%
TOC извлечённого CD
Трек | Старт | Длительность | Начальный сектор | Конечный сектор --------------------------------------------------------------------- 1 | 0:00.00 | 23:03.68 | 0 | 103792 2 | 23:03.68 | 22:58.12 | 103793 | 207154 3 | 46:02.05 | 13:43.41 | 207155 | 268920
Характеристики диапазона извлечения и сообщения об ошибках
Выбранный диапазон
Имя файла O:\!Rips\A Musical Offering (Part 2).wav
Пиковый уровень 98.8 % Скорость извлечения 2.2 X Качество диапазона 99.9 % CRC теста 972EAF65 CRC копии 972EAF65 Копирование... OK
Ошибок не произошло
AccurateRip: сводка
Трек 1 отсутствует в базе данныхТрек 2 отсутствует в базе данныхТрек 3 отсутствует в базе данных
Ни одного трека нет в базе AccurateRip
Конец отчёта
==== Контрольная сумма отчёта A5EFDAC78BA16E068246B5175A98C307F907FC324B005D7F48FBBC063F87ADDA ====

Содержание индексной карты (.CUE)CD1

REM GENRE ClassicalREM DATE 2012REM DISCID 4B0A9F18REM COMMENT "ExactAudioCopy v1.0b3"PERFORMER "Rodion Shchedrin"TITLE "24 Preludes and Fugues for Piano - Vol. I (Nos. I-XII) 'Sharp Keys'"FILE "24 Preludes and Fugues for Piano - Vol. I (Nos. I-XII) 'Sharp Keys'.flac" WAVE TRACK 01 AUDIO TITLE "Preludio I" PERFORMER "Rodion Shchedrin" INDEX 01 00:00:00 TRACK 02 AUDIO TITLE "Fuga I (a 3 voci)" PERFORMER "Rodion Shchedrin" INDEX 01 00:31:39 TRACK 03 AUDIO TITLE "Preludio II" PERFORMER "Rodion Shchedrin" INDEX 01 02:05:25 TRACK 04 AUDIO TITLE "Fuga II (a 3 voci)" PERFORMER "Rodion Shchedrin" INDEX 01 02:45:57 TRACK 05 AUDIO TITLE "Preludio III" PERFORMER "Rodion Shchedrin" INDEX 01 06:05:28 TRACK 06 AUDIO TITLE "Fuga III (a 4 voci)" PERFORMER "Rodion Shchedrin" INDEX 01 07:22:67 TRACK 07 AUDIO TITLE "Preludio IV" PERFORMER "Rodion Shchedrin" INDEX 01 09:34:49 TRACK 08 AUDIO TITLE "Fuga IV (a 4 voci)" PERFORMER "Rodion Shchedrin" INDEX 01 10:30:59 TRACK 09 AUDIO TITLE "Preludio V" PERFORMER "Rodion Shchedrin" INDEX 01 14:20:55 TRACK 10 AUDIO TITLE "Fuga V (a 3 voci)" PERFORMER "Rodion Shchedrin" INDEX 01 14:54:26 TRACK 11 AUDIO TITLE "Preludio VI" PERFORMER "Rodion Shchedrin" INDEX 01 17:38:40 TRACK 12 AUDIO TITLE "Fuga VI (a 4 voci)" PERFORMER "Rodion Shchedrin" INDEX 01 18:48:24 TRACK 13 AUDIO TITLE "Preludio VII" PERFORMER "Rodion Shchedrin" INDEX 01 22:32:10 TRACK 14 AUDIO TITLE "Fuga VII (a 2 voci)" PERFORMER "Rodion Shchedrin" INDEX 01 23:02:29 TRACK 15 AUDIO TITLE "Preludio VIII" PERFORMER "Rodion Shchedrin" INDEX 01 25:05:40 TRACK 16 AUDIO TITLE "Fuga VIII (a 3 voci)" PERFORMER "Rodion Shchedrin" INDEX 01 26:45:17 TRACK 17 AUDIO TITLE "Preludio IX" PERFORMER "Rodion Shchedrin" INDEX 01 28:48:37 TRACK 18 AUDIO TITLE "Fuga IX (a 3 voci)" PERFORMER "Rodion Shchedrin" INDEX 01 30:46:33 TRACK 19 AUDIO TITLE "Preludio X" PERFORMER "Rodion Shchedrin" INDEX 01 33:10:18 TRACK 20 AUDIO TITLE "Fuga X (a 3 voci)" PERFORMER "Rodion Shchedrin" INDEX 01 35:12:14 TRACK 21 AUDIO TITLE "Preludio XI" PERFORMER "Rodion Shchedrin" INDEX 01 36:56:31 TRACK 22 AUDIO TITLE "Fuga XI (a 5 voci)" PERFORMER "Rodion Shchedrin" INDEX 01 37:35:13 TRACK 23 AUDIO TITLE "Preludio XII" PERFORMER "Rodion Shchedrin" INDEX 01 41:36:66 TRACK 24 AUDIO TITLE "Fuga XII (a 3 voci)" PERFORMER "Rodion Shchedrin" INDEX 01 42:37:07

CD2

REM GENRE ClassicalREM DATE 2012REM DISCID 400C5018REM COMMENT "ExactAudioCopy v1.0b3"PERFORMER "Rodion Shchedrin"TITLE "24 Preludes and Fugues for Piano - Vol. II (Nos. XIII-XXIV) 'Flat Keys'"FILE "24 Preludes and Fugues for Piano - Vol. II (Nos. XIII-XXIV) 'Flat Keys'.flac" WAVE TRACK 01 AUDIO TITLE "Preludio XIII" PERFORMER "Rodion Shchedrin" INDEX 01 00:00:00 TRACK 02 AUDIO TITLE "Fuga XIII (a 3 voci)" PERFORMER "Rodion Shchedrin" INDEX 01 01:27:53 TRACK 03 AUDIO TITLE "Preludio XIV" PERFORMER "Rodion Shchedrin" INDEX 01 02:48:64 TRACK 04 AUDIO TITLE "Fuga XIV (a 3 voci)" PERFORMER "Rodion Shchedrin" INDEX 01 03:29:03 TRACK 05 AUDIO TITLE "Preludio XV" PERFORMER "Rodion Shchedrin" INDEX 01 05:59:18 TRACK 06 AUDIO TITLE "Fuga XV (a 4 voci)" PERFORMER "Rodion Shchedrin" INDEX 01 07:41:34 TRACK 07 AUDIO TITLE "Preludio XVI" PERFORMER "Rodion Shchedrin" INDEX 01 11:02:09 TRACK 08 AUDIO TITLE "Fuga XVI (a 2 voci)" PERFORMER "Rodion Shchedrin" INDEX 01 11:47:16 TRACK 09 AUDIO TITLE "Preludio XVII" PERFORMER "Rodion Shchedrin" INDEX 01 14:47:21 TRACK 10 AUDIO TITLE "Fuga XVII (a 3 voci)" PERFORMER "Rodion Shchedrin" INDEX 01 16:26:22 TRACK 11 AUDIO TITLE "Preludio XVIII" PERFORMER "Rodion Shchedrin" INDEX 01 18:28:70 TRACK 12 AUDIO TITLE "Fuga XVIII (a 3 voci)" PERFORMER "Rodion Shchedrin" INDEX 01 19:13:71 TRACK 13 AUDIO TITLE "Preludio XIX" PERFORMER "Rodion Shchedrin" INDEX 01 22:31:13 TRACK 14 AUDIO TITLE "Fuga XIX (a 3 voci)" PERFORMER "Rodion Shchedrin" INDEX 01 23:21:06 TRACK 15 AUDIO TITLE "Preludio XX" PERFORMER "Rodion Shchedrin" INDEX 01 24:47:35 TRACK 16 AUDIO TITLE "Fuga XX (a 4 voci)" PERFORMER "Rodion Shchedrin" INDEX 01 28:26:30 TRACK 17 AUDIO TITLE "Preludio XXI" PERFORMER "Rodion Shchedrin" INDEX 01 34:51:63 TRACK 18 AUDIO TITLE "Fuga XXI (a 3 voci)" PERFORMER "Rodion Shchedrin" INDEX 01 36:02:57 TRACK 19 AUDIO TITLE "Preludio XXII" PERFORMER "Rodion Shchedrin" INDEX 01 38:34:60 TRACK 20 AUDIO TITLE "Fuga XXII (a 4 voci)" PERFORMER "Rodion Shchedrin" INDEX 01 39:22:71 TRACK 21 AUDIO TITLE "Preludio XXIII" PERFORMER "Rodion Shchedrin" INDEX 01 44:28:34 TRACK 22 AUDIO TITLE "Fuga XXIII (a 3 voci)" PERFORMER "Rodion Shchedrin" INDEX 01 46:14:63 TRACK 23 AUDIO TITLE "Preludio XXIV" PERFORMER "Rodion Shchedrin" INDEX 01 50:18:28 TRACK 24 AUDIO TITLE "Fuga XXIV (a 3 voci)" PERFORMER "Rodion Shchedrin" INDEX 01 50:54:57

CD3

REM GENRE ClassicalREM DATE 2012REM DISCID 720CF419REM COMMENT "ExactAudioCopy v1.0b3"PERFORMER "Rodion Shchedrin"TITLE "The Polyphonic Book - 25 Polyphonic Preludes"FILE "The Polyphonic Book - 25 Polyphonic Preludes.flac" WAVE TRACK 01 AUDIO TITLE "Two part invention (Andantino)" PERFORMER "Rodion Shchedrin" INDEX 01 00:00:00 TRACK 02 AUDIO TITLE "Canon at the octave (Allegro)" PERFORMER "Rodion Shchedrin" INDEX 01 01:35:12 TRACK 03 AUDIO TITLE "Ostinato (Sostenuto)" PERFORMER "Rodion Shchedrin" INDEX 01 02:51:20 TRACK 04 AUDIO TITLE "Fughetta (Moderato)" PERFORMER "Rodion Shchedrin" INDEX 01 04:50:09 TRACK 05 AUDIO TITLE "Canonic imitation (Allegretto)" PERFORMER "Rodion Shchedrin" INDEX 01 07:16:22 TRACK 06 AUDIO TITLE "Collateral parts (Rubato, ma andante)" PERFORMER "Rodion Shchedrin" INDEX 01 08:24:66 TRACK 07 AUDIO TITLE "'Mirror' canon (Commodo)" PERFORMER "Rodion Shchedrin" INDEX 01 10:55:74 TRACK 08 AUDIO TITLE "Recitative and crab motion (Animato Recitando)" PERFORMER "Rodion Shchedrin" INDEX 01 11:52:72 TRACK 09 AUDIO TITLE "Etude (Inversion) (Scherzando capriccioso)" PERFORMER "Rodion Shchedrin" INDEX 01 13:23:19 TRACK 10 AUDIO TITLE "Chaconne (Sostenuto)" PERFORMER "Rodion Shchedrin" INDEX 01 14:50:31 TRACK 11 AUDIO TITLE "Counterpoint (Moderato)" PERFORMER "Rodion Shchedrin" INDEX 01 17:51:43 TRACK 12 AUDIO TITLE "Toccatina-collage (Allegro grazioso)" PERFORMER "Rodion Shchedrin" INDEX 01 19:10:71 TRACK 13 AUDIO TITLE "Invention in three parts (Andante)" PERFORMER "Rodion Shchedrin" INDEX 01 20:34:37 TRACK 14 AUDIO TITLE "Canon by augmentation (Moderato risoluto)" PERFORMER "Rodion Shchedrin" INDEX 01 22:53:24 TRACK 15 AUDIO TITLE "Motet (Double canon) (Sostenuto)" PERFORMER "Rodion Shchedrin" INDEX 01 24:36:41 TRACK 16 AUDIO TITLE "Basso ostinato (Allegro)" PERFORMER "Rodion Shchedrin" INDEX 01 26:43:60 TRACK 17 AUDIO TITLE "Perpetual canon (Recitando improvisato)" PERFORMER "Rodion Shchedrin" INDEX 01 28:11:34 TRACK 18 AUDIO TITLE "Fugue (Allegretto moderato)" PERFORMER "Rodion Shchedrin" INDEX 01 31:20:68 TRACK 19 AUDIO TITLE "Triple counterpoint (Larghetto)" PERFORMER "Rodion Shchedrin" INDEX 01 32:56:56 TRACK 20 AUDIO TITLE "Canon to a cantus firmus (Andantino)" PERFORMER "Rodion Shchedrin" INDEX 01 35:44:15 TRACK 21 AUDIO TITLE "Passacaglia (Andante espressivo)" PERFORMER "Rodion Shchedrin" INDEX 01 37:41:64 TRACK 22 AUDIO TITLE "Canon in three parts (Moderato)" PERFORMER "Rodion Shchedrin" INDEX 01 42:42:53 TRACK 23 AUDIO TITLE "Double fugue (Allegro)" PERFORMER "Rodion Shchedrin" INDEX 01 45:49:14 TRACK 24 AUDIO TITLE "The horizontal and the vertical (Adagio improvisato)" PERFORMER "Rodion Shchedrin" INDEX 01 48:03:24 TRACK 25 AUDIO TITLE "Polyphonic mosaic (Andantino, poco rubato)" PERFORMER "Rodion Shchedrin" INDEX 01 51:04:38

CD4

REM GENRE ClassicalREM DATE 2012REM DISCID 240E6C03REM COMMENT "ExactAudioCopy v1.0b3"PERFORMER "Rodion Shchedrin, Alexander Korneyev"TITLE "A Musical Offering (Part 1)"FILE "A Musical Offering (Part 1).flac" WAVE TRACK 01 AUDIO TITLE "Track 1" PERFORMER "Rodion Shchedrin, Alexander Korneyev" INDEX 01 00:00:00 TRACK 02 AUDIO TITLE "Track 2" PERFORMER "Rodion Shchedrin, Alexander Korneyev" INDEX 01 20:37:73 TRACK 03 AUDIO TITLE "Track 3" PERFORMER "Rodion Shchedrin, Alexander Korneyev" INDEX 01 43:11:68

CD5

REM GENRE ClassicalREM DATE 2012REM DISCID 260E0103REM COMMENT "ExactAudioCopy v1.0b3"PERFORMER "Rodion Shchedrin, Alexander Korneyev"TITLE "A Musical Offering (Part 2)"FILE "A Musical Offering (Part 2).flac" WAVE TRACK 01 AUDIO TITLE "Track 4" PERFORMER "Rodion Shchedrin, Alexander Korneyev" INDEX 01 00:00:00 TRACK 02 AUDIO TITLE "Track 5" PERFORMER "Rodion Shchedrin, Alexander Korneyev" INDEX 01 23:03:68 TRACK 03 AUDIO TITLE "Track 6" PERFORMER "Rodion Shchedrin, Alexander Korneyev" INDEX 01 46:02:05
Доп. информация:
«...Музыкальное приношение. Я считаю, что оно до сих пор не оценено и не понято. Как и многие, первые минут тридцать я был в некотором недоумении, как-то не понимал. А потом все стало для меня внесловесно понятно.»
«Для меня это сочинение — лучшее, что он сделал, оно открывает совсем новый музыкальный мир.»
«Щедрину удалось в своей сверхмонументальной композиции удержать уровень интонационной остроты от начала до конца и достичь средствами статики гигантского эмоционального напряжения.
Композитор намеренно ломает привычные представления о динамике и пропорциях, спадах и подъемах, погружая нас на длительное время в одно состояние.»
(Альфред Шнитке)
Когда-то давно я слушал "Музыкальное приношение" Щедрина на трех грампластинках, взятых в библиотеке. (http://rutracker.org/forum/viewtopic.php?t=2472396)
Тогда я мало что понял, но впечатление было сильным.
И вот, наконец, это издано на CD.
Издание приурочено к 80-летию композитора.
[teatrix.ru].t9734.torrent 
Торрент: Зарегистрирован [ 2015-10-23 17:11 ] · A46EFFD825E7D1A1CDAC02EE74A1D1CB2C297F24

Скачать .torrent

Скачать

28 KB

Статус: проверено
Скачан: 1 раз
Размер: 1.15 GB
terms.php



Быстрый ответ

Имя:

      
Для отправки сообщений необходимо включить JavaScript
Показать сообщения:    

Текущее время: 06-Дек 19:05

Часовой пояс: UTC + 3


Вы можете начинать темы
Вы можете отвечать на сообщения
Вы не можете редактировать свои сообщения
Вы не можете удалять свои сообщения
Вы не можете голосовать в опросах
Вы не можете прикреплять файлы к сообщениям
Вы можете скачивать файлы