(Classical) Петр Чайковский - Собрание сочинений / Pyotr Tchaikovsky Edition - Brilliant Classics [93980] (60 CD's) - 2011, FLAC (image+.cue) lossless


Статистика раздачи [Обновить пиров]
Размер:  14.99 GB   |    Зарегистрирован:  1 год 1 месяц   |    Скачан:  2 раза

Полного источника не было: 3 месяца 9 дней

Личеров:  3  [  0 KB/s  ]   Подробная статистика пиров
 
   
 
 
 

[Цитировать]

Петр Чайковский - Собрание сочинений / Pyotr Tchaikovsky Edition - Brilliant Classics [93980] (60 CD's)
Жанр: Classical
Год издания диска: 2011
Издатель (лейбл): Brilliant Classic
Номер по каталогу: 93980
Аудиокодек: FLAC
Тип рипа: image+.cue
Битрейт аудио: lossless
Продолжительность: ~67 часов
Источник: Google
Наличие сканов в содержимом раздачи: да
Треклист:

Краткое содержание дисков

CD 01 [Symphony N.1; 1812 Overture]
CD 02 [Symphony N.2; Francesca da Rimini]
CD 03 [Symphony N.3; Hamlet--Fantasy Overture]
CD 04 [Symphony N.4; Marche Slave]
CD 05 [Symphony N.5; Capriccio Italien]
CD 06 [Symphony N.6; The Storm]
CD 07 [Manfred Symphony; Romeo & Juliet]
CD 08 [Hamlet--Overture & Incidental Music]
CD 09 [The Snow Maiden]
CD 10 [Orchestral Suites 1&2]
CD 11 [Orchestral Suites 3&4]
CD 12 [Swan Lake (I)]
CD 13 [Swan Lake (II); Var. Rococo Theme; Sym. 6]
CD 14 [Sleeping Beauty (I)]
CD 15 [Sleeping Beauty (II)]
CD 16 [The Nutcracker (I)]
CD 17 [The Nutcracker (II); Orchestral Suites 3&4]
CD 18 [Piano Concertos 1&2]
CD 19 [Piano Concerto N.3; Concert Fantasy]
CD 20 [Violin Concerto; Shorter Violin Works]
CD 21 [Cello Works; Serenade for Strings]
CD 22 [Liturgy Of St. John Chrysostom]
CD 23 [Secular Choral Works]
CD 24 [Piano Trio]
CD 25 [String Quartets 1&2; Quartet Movement]
CD 26 [String Sextet; String Quartet N.3]
CD 27 [The Seasons; 6 Piano Pieces; Album for Young]
CD 28 [Piano Sonata,Op.80; 18 Piano Pieces]
CD 29 [Shorter Piano Works]
CD 30 [6 Pieces Single Theme; Piano Sonata,Op.37 etc.]
CD 31 [12 Piano Pieces,Op.40; Violin Concerto]
CD 32 [Evgeny Onegin (I)]
CD 33 [Evgeny Onegin (II)]
CD 34 [The Oprichnik (I)]
CD 35 [The Oprichnik (II)]
CD 36 [The Oprichnik (III)]
CD 37 [Cherevichki (I)]
CD 38 [Cherevichki (II)]
CD 39 [Cherevichki (III)]
CD 40 [The Maid Of Orleans (I)]
CD 41 [The Maid Of Orleans (II)]
CD 42 [The Maid Of Orleans (III); Iolanta (I)]
CD 43 [Iolanta (II)]
CD 44 [Pique Dame (I)]
CD 45 [Pique Dame (II)]
CD 46 [Charodeika (I)]
CD 47 [Charodeika (II)]
CD 48 [Charodeika (III); etc.]
CD 49 [Mazeppa (I)]
CD 50 [Mazeppa (II)]
CD 51 [Songs (I)]
CD 52 [Songs (II)]
CD 53 [Songs (III)]
CD 54 [Songs (IV)]
CD 55 [Songs (V)]
CD 56 [Historical Recordings (I)]
CD 57 [Historical Recordings (II)]
CD 58 [Historical Recordings (III)]
CD 59 [Historical Recordings (IV)]
CD 60 [Historical Recordings (V)]
CD-ROM - Booklet Notes and sung texts of the songs. No libretti

CD1

01. Symphony No. 1 in G minor, 'Winter Dreams', Op.13 - I. 'Daydreams Of A Winter Journey' - Allegro tranquillo
02. II. 'Land Of Gloom, Land Of Mist' - Adagio cantabile, ma non tanto
03. III. Scherzo. Allegro scherzando giocoso
04. IV. Finale. Andante lugubre; allegro moderato
05. Festival Overture in E-flat major, '1812 Ouverture', Op.49

Отчет EAC

Exact Audio Copy V1.0 beta 1 from 15. November 2010
EAC extraction logfile from 29. December 2011, 18:13
- / Brilliant Classics--Tchaikovsky Edition (CD 01)
Used drive : ATAPI DVD A DH16A6L-C Adapter: 1 ID: 1
Read mode : Secure
Utilize accurate stream : Yes
Defeat audio cache : Yes
Make use of C2 pointers : No
Read offset correction : 6
Overread into Lead-In and Lead-Out : No
Fill up missing offset samples with silence : Yes
Delete leading and trailing silent blocks : No
Null samples used in CRC calculations : No
Normalize to : 98 %
Used interface : Native Win32 interface for Win NT & 2000
Used output format : Internal WAV Routines
Sample format : 44.100 Hz; 16 Bit; Stereo
TOC of the extracted CD
Track | Start | Length | Start sector | End sector
---------------------------------------------------------
1 | 0:00.00 | 13:00.17 | 0 | 58516
2 | 13:00.17 | 11:06.55 | 58517 | 108521
3 | 24:06.72 | 7:52.28 | 108522 | 143949
4 | 31:59.25 | 11:39.03 | 143950 | 196377
5 | 43:38.28 | 14:56.14 | 196378 | 263591
Range status and errors
Selected range
Filename C:\Users\david\Music\Brilliant Classics--Tchaikovsky Edition (CD 01).wav
Peak level 98.7 %
Extraction speed 0.7 X
Range quality 99.9 %
Test CRC 013D9531
Copy CRC 013D9531
Copy OK
No errors occurred
AccurateRip summary
Track 1 not present in database
Track 2 not present in database
Track 3 not present in database
Track 4 not present in database
Track 5 not present in database
None of the tracks are present in the AccurateRip database
End of status report
==== Log checksum EB03FBDCD477A5650FC542E9538D59EB9088ED6BE7F3EBBAFBD923C1237E0BD7 ====

CD2

01. Symphony No. 2 in C minor, 'Little Russian', Op.17 - I. Andante sostenuto; allegro vivo
02. II. Andantino marziale; quasi moderato
03. III. Scherzo. Allegro molto vivace
04. IV. Finale. Moderato assai
05. Symphonic Fantasia in E minor after Dante, 'Francesca da Rimini'

Отчет EAC

Exact Audio Copy V1.0 beta 1 from 15. November 2010
EAC extraction logfile from 29. December 2011, 19:12
- / Brilliant Classics--Tchaikovsky Edition (CD 02)
Used drive : ATAPI DVD A DH16A6L-C Adapter: 1 ID: 1
Read mode : Secure
Utilize accurate stream : Yes
Defeat audio cache : Yes
Make use of C2 pointers : No
Read offset correction : 6
Overread into Lead-In and Lead-Out : No
Fill up missing offset samples with silence : Yes
Delete leading and trailing silent blocks : No
Null samples used in CRC calculations : No
Normalize to : 98 %
Used interface : Native Win32 interface for Win NT & 2000
Used output format : Internal WAV Routines
Sample format : 44.100 Hz; 16 Bit; Stereo
TOC of the extracted CD
Track | Start | Length | Start sector | End sector
---------------------------------------------------------
1 | 0:00.67 | 12:31.53 | 67 | 56444
2 | 12:32.45 | 7:57.27 | 56445 | 92246
3 | 20:29.72 | 5:57.30 | 92247 | 119051
4 | 26:27.27 | 11:30.40 | 119052 | 170841
5 | 37:57.67 | 26:16.68 | 170842 | 289109
Range status and errors
Selected range
Filename C:\Users\david\Music\Brilliant Classics--Tchaikovsky Edition (CD 02).wav
Peak level 100.0 %
Extraction speed 1.3 X
Range quality 100.0 %
Test CRC 08600B97
Copy CRC 08600B97
Copy OK
No errors occurred
AccurateRip summary
Track 1 not present in database
Track 2 not present in database
Track 3 not present in database
Track 4 not present in database
Track 5 not present in database
None of the tracks are present in the AccurateRip database
End of status report
==== Log checksum 1ACABDE2C06856BF21C07C4DCE2609F2F900CB005A0767DF332CC00E1D8B994C ====

CD3

01. Symphony No. 3 in D major, 'Polish', Op.29 - I. Introduzione e allegro; moderato assai (Tempo di marcia funebre); allegro brillante
02. II. Alla tedesca; allegro moderato e semplice
03. III. Andante elegiaco
04. IV. Scherzo. Allegro vivo
05. V. Finale. Allegro con fuoco (Tempo di Pollaca)
06. Fantasy Overture in F minor for Orchestra, 'Hamlet', Op.67a

Отчет EAC

Exact Audio Copy V1.0 beta 1 from 15. November 2010
EAC extraction logfile from 29. December 2011, 22:37
- / Brilliant Classics--Tchaikovsky Edition (CD 03)
Used drive : ATAPI DVD A DH16A6L-C Adapter: 1 ID: 1
Read mode : Secure
Utilize accurate stream : Yes
Defeat audio cache : Yes
Make use of C2 pointers : No
Read offset correction : 6
Overread into Lead-In and Lead-Out : No
Fill up missing offset samples with silence : Yes
Delete leading and trailing silent blocks : No
Null samples used in CRC calculations : No
Normalize to : 98 %
Used interface : Native Win32 interface for Win NT & 2000
Used output format : Internal WAV Routines
Sample format : 44.100 Hz; 16 Bit; Stereo
TOC of the extracted CD
Track | Start | Length | Start sector | End sector
---------------------------------------------------------
1 | 0:00.00 | 13:35.62 | 0 | 61186
2 | 13:35.62 | 6:51.50 | 61187 | 92061
3 | 20:27.37 | 9:51.25 | 92062 | 136411
4 | 30:18.62 | 6:28.69 | 136412 | 165580
5 | 36:47.56 | 10:53.06 | 165581 | 214561
6 | 47:40.62 | 19:02.13 | 214562 | 300224
Range status and errors
Selected range
Filename C:\Users\david\Music\Brilliant Classics--Tchaikovsky Edition (CD 03).wav
Peak level 91.2 %
Extraction speed 0.9 X
Range quality 100.0 %
Test CRC 95F119B1
Copy CRC 95F119B1
Copy OK
No errors occurred
AccurateRip summary
Track 1 not present in database
Track 2 not present in database
Track 3 not present in database
Track 4 not present in database
Track 5 not present in database
Track 6 not present in database
None of the tracks are present in the AccurateRip database
End of status report
==== Log checksum D93014BACF2F1066A85262680BF3FDA7F20CA6B082F99B6304344148E5F39991 ====

CD4

01. Symphony No. 4 in F minor, Op.36 - I. Andante sostenuto; moderato con anima
02. II. Andantino in modo di canzona
03. III. Scherzo. Pizzicato ostinato
04. IV. Finale. Allegro con fuoco
05. 'Marche Slave' for Orchestra, Op.31

Отчет EAC

Exact Audio Copy V1.0 beta 1 from 15. November 2010
EAC extraction logfile from 30. December 2011, 2:22
- / Brilliant Classics--Tchaikovsky Edition (CD 04)
Used drive : ATAPI DVD A DH16A6L-C Adapter: 1 ID: 1
Read mode : Secure
Utilize accurate stream : Yes
Defeat audio cache : Yes
Make use of C2 pointers : No
Read offset correction : 6
Overread into Lead-In and Lead-Out : No
Fill up missing offset samples with silence : Yes
Delete leading and trailing silent blocks : No
Null samples used in CRC calculations : No
Normalize to : 98 %
Used interface : Native Win32 interface for Win NT & 2000
Used output format : Internal WAV Routines
Sample format : 44.100 Hz; 16 Bit; Stereo
TOC of the extracted CD
Track | Start | Length | Start sector | End sector
---------------------------------------------------------
1 | 0:00.00 | 19:07.07 | 0 | 86031
2 | 19:07.07 | 9:42.05 | 86032 | 129686
3 | 28:49.12 | 5:32.28 | 129687 | 154614
4 | 34:21.40 | 9:12.73 | 154615 | 196087
5 | 43:34.38 | 9:42.60 | 196088 | 239797
Range status and errors
Selected range
Filename C:\Users\david\Music\Brilliant Classics--Tchaikovsky Edition (CD 04).wav
Peak level 100.0 %
Extraction speed 0.5 X
Range quality 100.0 %
Test CRC CFDB95B0
Copy CRC CFDB95B0
Copy OK
No errors occurred
AccurateRip summary
Track 1 not present in database
Track 2 not present in database
Track 3 not present in database
Track 4 not present in database
Track 5 not present in database
None of the tracks are present in the AccurateRip database
End of status report
==== Log checksum F14F884A7D226BFC03481197252F7BD7355A0C3CF933A2D3AC6F388E848C1CB5 ====

CD5

01. Symphony No. 5 in E minor, Op.64 - I. Andante; allegro con anima
02. II. Andante cantabile con alcuna licenza; moderato con anima
03. III. Valse. Allegro moderato
04. IV. Finale. Andante maestoso; allegro vivace
05. 'Capriccio Italien' for Orchestra, Op.45

Отчет EAC

Exact Audio Copy V1.0 beta 1 from 15. November 2010
EAC extraction logfile from 30. December 2011, 11:47
- / Brilliant Classics--Tchaikovsky Edition (CD 05)
Used drive : ATAPI DVD A DH16A6L-C Adapter: 1 ID: 1
Read mode : Secure
Utilize accurate stream : Yes
Defeat audio cache : Yes
Make use of C2 pointers : No
Read offset correction : 6
Overread into Lead-In and Lead-Out : No
Fill up missing offset samples with silence : Yes
Delete leading and trailing silent blocks : No
Null samples used in CRC calculations : No
Normalize to : 98 %
Used interface : Native Win32 interface for Win NT & 2000
Used output format : Internal WAV Routines
Sample format : 44.100 Hz; 16 Bit; Stereo
TOC of the extracted CD
Track | Start | Length | Start sector | End sector
---------------------------------------------------------
1 | 0:00.00 | 15:23.65 | 0 | 69289
2 | 15:23.65 | 13:24.17 | 69290 | 129606
3 | 28:48.07 | 5:50.08 | 129607 | 155864
4 | 34:38.15 | 12:22.45 | 155865 | 211559
5 | 47:00.60 | 16:39.63 | 211560 | 286547
Range status and errors
Selected range
Filename C:\Users\david\Music\Brilliant Classics--Tchaikovsky Edition (CD 05).wav
Peak level 98.3 %
Extraction speed 1.1 X
Range quality 100.0 %
Test CRC ADF99ABF
Copy CRC ADF99ABF
Copy OK
No errors occurred
AccurateRip summary
Track 1 not present in database
Track 2 not present in database
Track 3 not present in database
Track 4 not present in database
Track 5 not present in database
None of the tracks are present in the AccurateRip database
End of status report
==== Log checksum 2272909D87A6474A70C61F2E18CB19F2DEF1D4C6424B0EE863F9DA3AB07372D2 ====

CD6

01. Symphony No. 6 in B minor, 'Pathйtique', Op.74 - I. Adagio; allegro non troppo
02. II. Allegro con grazia
03. III. Allegro molto vivace
04. IV. Finale. Adagio lamentoso; andante
05. Overture for Orchestra, 'The Storm'

Отчет EAC

Exact Audio Copy V1.0 beta 1 from 15. November 2010
EAC extraction logfile from 30. December 2011, 12:15
- / Brilliant Classics--Tchaikovsky Edition (CD 06)
Used drive : ATAPI DVD A DH16A6L-C Adapter: 1 ID: 1
Read mode : Secure
Utilize accurate stream : Yes
Defeat audio cache : Yes
Make use of C2 pointers : No
Read offset correction : 6
Overread into Lead-In and Lead-Out : No
Fill up missing offset samples with silence : Yes
Delete leading and trailing silent blocks : No
Null samples used in CRC calculations : No
Normalize to : 98 %
Used interface : Native Win32 interface for Win NT & 2000
Used output format : Internal WAV Routines
Sample format : 44.100 Hz; 16 Bit; Stereo
TOC of the extracted CD
Track | Start | Length | Start sector | End sector
---------------------------------------------------------
1 | 0:00.00 | 18:22.25 | 0 | 82674
2 | 18:22.25 | 7:24.47 | 82675 | 116021
3 | 25:46.72 | 9:22.26 | 116022 | 158197
4 | 35:09.23 | 10:30.61 | 158198 | 205508
5 | 45:40.09 | 14:16.65 | 205509 | 269773
Range status and errors
Selected range
Filename C:\Users\david\Music\Brilliant Classics--Tchaikovsky Edition (CD 06).wav
Peak level 99.8 %
Extraction speed 1.0 X
Range quality 100.0 %
Test CRC B1EA617C
Copy CRC B1EA617C
Copy OK
No errors occurred
AccurateRip summary
Track 1 not present in database
Track 2 not present in database
Track 3 not present in database
Track 4 not present in database
Track 5 not present in database
None of the tracks are present in the AccurateRip database
End of status report
==== Log checksum 054F9E5F949655E8C58F0035BAE2256446B56B9FEB57B324CF20FFC26A3504F1 ====

CD7

01. Symphony in B minor after Lord Byron, 'Manfred', Op.58 - I. Lento lugubre
02. II. Vivace con spirito
03. III. Andante con moto
04. IV. Allegro con fuoco
05. Fantasy Overture after W. Shakespeare, 'Romeo & Juliet'

Отчет EAC

Exact Audio Copy V1.0 beta 1 from 15. November 2010
EAC extraction logfile from 30. December 2011, 12:55
- / Brilliant Classics--Tchaikovsky Edition (CD 07)
Used drive : ATAPI DVD A DH16A6L-C Adapter: 1 ID: 1
Read mode : Secure
Utilize accurate stream : Yes
Defeat audio cache : Yes
Make use of C2 pointers : No
Read offset correction : 6
Overread into Lead-In and Lead-Out : No
Fill up missing offset samples with silence : Yes
Delete leading and trailing silent blocks : No
Null samples used in CRC calculations : No
Normalize to : 98 %
Used interface : Native Win32 interface for Win NT & 2000
Used output format : Internal WAV Routines
Sample format : 44.100 Hz; 16 Bit; Stereo
TOC of the extracted CD
Track | Start | Length | Start sector | End sector
---------------------------------------------------------
1 | 0:00.00 | 18:31.73 | 0 | 83397
2 | 18:31.73 | 9:56.24 | 83398 | 128121
3 | 28:28.22 | 11:51.44 | 128122 | 181490
4 | 40:19.66 | 19:30.57 | 181491 | 269297
5 | 59:50.48 | 20:27.52 | 269298 | 361374
Range status and errors
Selected range
Filename C:\Users\david\Music\Brilliant Classics--Tchaikovsky Edition (CD 07).wav
Peak level 100.0 %
Extraction speed 1.3 X
Range quality 100.0 %
Test CRC 77B6D6C6
Copy CRC 77B6D6C6
Copy OK
No errors occurred
AccurateRip summary
Track 1 not present in database
Track 2 not present in database
Track 3 not present in database
Track 4 not present in database
Track 5 not present in database
None of the tracks are present in the AccurateRip database
End of status report
==== Log checksum 15A7BD19186C4218C785D5803F967333350174612309CDD7A5449B9F9D447BE1 ====

CD8

01. Incidental Music for Soprano, Baritone & Orchestra, 'Hamlet', Op.67a - I. Overture
02. II. Moderato assai
03. III. Allegro vivo
04. IV. Moderato assai
05. V. Allegro giusto ed agitato
06. VI. Allegro semplice
07. VII. Fanfare
08. VIII. Andante quasi allegretto
09. IX. Andante non troppo
10. X. Andantino 'Elsinore', Mad Scene
11. XI. Andantino
12. XII. Marcia. Moderato assai
13. XIII. Allegro giusto
14. XIV. Allegro risoluto ma non troppo
15. Tone Poem for Orchestra, 'Fatum', Op.posth.77

Отчет EAC

Exact Audio Copy V1.0 beta 1 from 15. November 2010
EAC extraction logfile from 30. December 2011, 20:13
- / Brilliant Classics--Tchaikovsky Edition (CD 08)
Used drive : ATAPI DVD A DH16A6L-C Adapter: 1 ID: 1
Read mode : Secure
Utilize accurate stream : Yes
Defeat audio cache : Yes
Make use of C2 pointers : No
Read offset correction : 6
Overread into Lead-In and Lead-Out : No
Fill up missing offset samples with silence : Yes
Delete leading and trailing silent blocks : No
Null samples used in CRC calculations : No
Normalize to : 98 %
Used interface : Native Win32 interface for Win NT & 2000
Used output format : Internal WAV Routines
Sample format : 44.100 Hz; 16 Bit; Stereo
TOC of the extracted CD
Track | Start | Length | Start sector | End sector
---------------------------------------------------------
1 | 0:00.00 | 9:39.08 | 0 | 43432
2 | 9:39.08 | 1:24.22 | 43433 | 49754
3 | 11:03.30 | 0:23.06 | 49755 | 51485
4 | 11:26.36 | 0:31.00 | 51486 | 53810
5 | 11:57.36 | 3:19.40 | 53811 | 68775
6 | 15:17.01 | 3:21.52 | 68776 | 83902
7 | 18:38.53 | 0:24.04 | 83903 | 85706
8 | 19:02.57 | 4:27.04 | 85707 | 105735
9 | 23:29.61 | 6:36.71 | 105736 | 135506
10 | 30:06.57 | 2:48.74 | 135507 | 148180
11 | 32:55.56 | 0:55.45 | 148181 | 152350
12 | 33:51.26 | 4:48.10 | 152351 | 173960
13 | 38:39.36 | 0:22.10 | 173961 | 175620
14 | 39:01.46 | 0:50.49 | 175621 | 179419
15 | 39:52.20 | 18:56.55 | 179420 | 264674
Range status and errors
Selected range
Filename C:\Users\david\Music\Brilliant Classics--Tchaikovsky Edition (CD 08).wav
Peak level 98.3 %
Extraction speed 1.4 X
Range quality 100.0 %
Test CRC C9D69FB9
Copy CRC C9D69FB9
Copy OK
No errors occurred
AccurateRip summary
Track 1 not present in database
Track 2 not present in database
Track 3 not present in database
Track 4 not present in database
Track 5 not present in database
Track 6 not present in database
Track 7 not present in database
Track 8 not present in database
Track 9 not present in database
Track 10 not present in database
Track 11 not present in database
Track 12 not present in database
Track 13 not present in database
Track 14 not present in database
Track 15 not present in database
None of the tracks are present in the AccurateRip database
End of status report
==== Log checksum 69D8434EA8216B9F98DFC880FFEDF5E451CA971361BB5F73AF1DFF2DE19E70B5 ====

CD9

01. Incidental Music to the play by Ostrovsky, 'The Snow Maiden (Snegurochka)' - I. Introduction
02. II. Dance & Choruses Of The Birds
03. III. Winter's Monologue
04. IV. Carnival Procession
05. V. Melodrama
06. VI. Interlude
07. VII. Lehl's First Song
08. VIII. Lehl's Second Song
09. IX. Interlude
10. X. Chant Of The Blind Bards
11. XI. Melodrama
12. XII. Chorus Of The People And Courtiers
13. XIII. Round Of The Young Maidens
14. XIV. Dance Of The Tumblers
15. XV. Lehl's Third Song
16. XVI. Brussila's Song
17. XVII. Apparition Of The Spirit Of The Wood
18. XVIII. Interlude. The Spring Fairy
19. XIX. Tsar Berendey's March & Chorus
20. XX. Final Chorus

Отчет EAC

Exact Audio Copy V1.0 beta 1 from 15. November 2010
EAC extraction logfile from 31. December 2011, 10:02
- / Brilliant Classics--Tchaikovsky Edition (CD 09)
Used drive : ATAPI DVD A DH16A6L-C Adapter: 1 ID: 1
Read mode : Secure
Utilize accurate stream : Yes
Defeat audio cache : Yes
Make use of C2 pointers : No
Read offset correction : 6
Overread into Lead-In and Lead-Out : No
Fill up missing offset samples with silence : Yes
Delete leading and trailing silent blocks : No
Null samples used in CRC calculations : No
Normalize to : 98 %
Used interface : Native Win32 interface for Win NT & 2000
Used output format : Internal WAV Routines
Sample format : 44.100 Hz; 16 Bit; Stereo
TOC of the extracted CD
Track | Start | Length | Start sector | End sector
---------------------------------------------------------
1 | 0:00.00 | 4:48.33 | 0 | 21632
2 | 4:48.33 | 5:40.07 | 21633 | 47139
3 | 10:28.40 | 3:21.43 | 47140 | 62257
4 | 13:50.08 | 7:05.27 | 62258 | 94159
5 | 20:55.35 | 2:01.18 | 94160 | 103252
6 | 22:56.53 | 1:22.20 | 103253 | 109422
7 | 24:18.73 | 3:56.52 | 109423 | 127174
8 | 28:15.50 | 1:33.20 | 127175 | 134169
9 | 29:48.70 | 3:11.50 | 134170 | 148544
10 | 33:00.45 | 4:01.69 | 148545 | 166688
11 | 37:02.39 | 4:09.36 | 166689 | 185399
12 | 41:12.00 | 2:14.28 | 185400 | 195477
13 | 43:26.28 | 2:28.20 | 195478 | 206597
14 | 45:54.48 | 4:36.55 | 206598 | 227352
15 | 50:31.28 | 6:42.40 | 227353 | 257542
16 | 57:13.68 | 1:31.72 | 257543 | 264439
17 | 58:45.65 | 0:51.09 | 264440 | 268273
18 | 59:36.74 | 4:26.34 | 268274 | 288257
19 | 64:03.33 | 6:38.62 | 288258 | 318169
20 | 70:42.20 | 1:48.18 | 318170 | 326287
Range status and errors
Selected range
Filename C:\Users\david\Music\Brilliant Classics--Tchaikovsky Edition (CD 09).wav
Peak level 99.0 %
Extraction speed 0.1 X
Range quality 100.0 %
Test CRC 671A9709
Copy CRC 671A9709
Copy OK
No errors occurred
AccurateRip summary
Track 1 not present in database
Track 2 not present in database
Track 3 not present in database
Track 4 not present in database
Track 5 not present in database
Track 6 not present in database
Track 7 not present in database
Track 8 not present in database
Track 9 not present in database
Track 10 not present in database
Track 11 not present in database
Track 12 not present in database
Track 13 not present in database
Track 14 not present in database
Track 15 not present in database
Track 16 not present in database
Track 17 not present in database
Track 18 not present in database
Track 19 not present in database
Track 20 not present in database
None of the tracks are present in the AccurateRip database
End of status report
==== Log checksum 8E7B59DA57236305D63735FC2DC0A18D96033E9FEBF4FA5796CAD19DB86455A8 ====

CD10

01. Orchestral Suite No. 1 in D minor, Op.43 - I. Introduzione e Fuga
02. II. Divertimento
03. III. Intermezzo
04. IV. Marche Miniature
05. V. Scherzo
06. VI. Gavotte
07. Orchestral Suite No. 2 in C major, 'Suite Caractйristique', Op.53 - I. Jeu de sons
08. II. Valse
09. III. Scherzo burlesque
10. IV. Rкves d'enfant
11. V. Danse baroque

Отчет EAC

Exact Audio Copy V1.0 beta 1 from 15. November 2010
EAC extraction logfile from 26. December 2011, 11:56
- / Brilliant Classics--Tchaikovsky Edition (CD 10)
Used drive : ATAPI DVD A DH16A6L-C Adapter: 1 ID: 1
Read mode : Secure
Utilize accurate stream : Yes
Defeat audio cache : Yes
Make use of C2 pointers : No
Read offset correction : 6
Overread into Lead-In and Lead-Out : No
Fill up missing offset samples with silence : Yes
Delete leading and trailing silent blocks : No
Null samples used in CRC calculations : No
Normalize to : 98 %
Used interface : Native Win32 interface for Win NT & 2000
Used output format : Internal WAV Routines
Sample format : 44.100 Hz; 16 Bit; Stereo
TOC of the extracted CD
Track | Start | Length | Start sector | End sector
---------------------------------------------------------
1 | 0:00.00 | 9:27.00 | 0 | 42524
2 | 9:27.00 | 5:36.00 | 42525 | 67724
3 | 15:03.00 | 7:46.70 | 67725 | 102744
4 | 22:49.70 | 2:00.05 | 102745 | 111749
5 | 24:50.00 | 6:51.00 | 111750 | 142574
6 | 31:41.00 | 4:53.69 | 142575 | 164618
7 | 36:34.69 | 9:54.06 | 164619 | 209174
8 | 46:29.00 | 5:43.50 | 209175 | 234949
9 | 52:12.50 | 5:05.25 | 234950 | 257849
10 | 57:18.00 | 9:20.00 | 257850 | 299849
11 | 66:38.00 | 4:02.60 | 299850 | 318059
Range status and errors
Selected range
Filename C:\Users\Music\Brilliant Classics--Tchaikovsky Edition (CD 10).wav
Peak level 100.0 %
Extraction speed 0.1 X
Range quality 99.9 %
Test CRC 2AC29CD3
Copy CRC 2AC29CD3
Copy OK
No errors occurred
AccurateRip summary
Track 1 not present in database
Track 2 not present in database
Track 3 not present in database
Track 4 not present in database
Track 5 not present in database
Track 6 not present in database
Track 7 not present in database
Track 8 not present in database
Track 9 not present in database
Track 10 not present in database
Track 11 not present in database
None of the tracks are present in the AccurateRip database
End of status report
==== Log checksum 5A42C3223C7CCCA0DDF8679759FA070106AF6168491F3F82D04E881D41F46019 ====

CD11

01. Orchestral Suite No. 3 in G major, Op.55 - I. Йlйgie. Andante molto cantabile
02. II. Valse mйlancolique. Allegro moderato
03. III. Scherzo. Molto vivace
04. IV. Tema con Variazioni. Andante con moto
05. Orchestral Suite No. 4 in G major, 'Mozartiana' - I. Gigue. Allegro (Gigue, K.574)
06. II. Menuet. Moderato (Minuet, K.355)
07. III. Preghiera. Andante non tanto (Ave verum corpus, K.618)
08. IV. Thиme et Variations. Allegro giusto (Unser dummer Pцbel meint, K.455)

Отчет EAC

Exact Audio Copy V1.0 beta 1 from 15. November 2010
EAC extraction logfile from 26. December 2011, 12:21
- / Brilliant Classics--Tchaikovsky Edition (CD 11)
Used drive : ATAPI DVD A DH16A6L-C Adapter: 1 ID: 1
Read mode : Secure
Utilize accurate stream : Yes
Defeat audio cache : Yes
Make use of C2 pointers : No
Read offset correction : 6
Overread into Lead-In and Lead-Out : No
Fill up missing offset samples with silence : Yes
Delete leading and trailing silent blocks : No
Null samples used in CRC calculations : No
Normalize to : 98 %
Used interface : Native Win32 interface for Win NT & 2000
Used output format : Internal WAV Routines
Sample format : 44.100 Hz; 16 Bit; Stereo
TOC of the extracted CD
Track | Start | Length | Start sector | End sector
---------------------------------------------------------
1 | 0:00.00 | 10:07.70 | 0 | 45594
2 | 10:07.70 | 5:34.00 | 45595 | 70644
3 | 15:41.70 | 4:38.02 | 70645 | 91496
4 | 20:19.72 | 18:56.03 | 91497 | 176699
5 | 39:16.00 | 1:37.00 | 176700 | 183974
6 | 40:53.00 | 3:47.17 | 183975 | 201016
7 | 44:40.17 | 3:47.35 | 201017 | 218076
8 | 48:27.52 | 15:06.36 | 218077 | 286062
Range status and errors
Selected range
Filename C:\Users\Music\Brilliant Classics--Tchaikovsky Edition (CD 11).wav
Peak level 89.7 %
Extraction speed 0.7 X
Range quality 100.0 %
Test CRC FA54406D
Copy CRC FA54406D
Copy OK
No errors occurred
AccurateRip summary
Track 1 not present in database
Track 2 not present in database
Track 3 not present in database
Track 4 not present in database
Track 5 not present in database
Track 6 not present in database
Track 7 not present in database
Track 8 not present in database
None of the tracks are present in the AccurateRip database
End of status report
==== Log checksum 22AA79BD098C7548D714C5A695677E22DD48DF27B00FC3F44D54EE9F95E195AD ====

CD12

01. Ballet, 'Swan Lake' (abridged by Riccardo Drigo), Op.20 - a. Introduction-N.1; Moderato assai--Scиne. Allegro giusto
02. b. N.2; Waltz. Tempo di Valse
03. c. N.4; Pas de trois. Intrada (allegro); andante; sostenuto; allegro semplice; presto; moderato; allegro; Coda (allegro vivace)
04. d. N.7-8; Subject; Dance With The Goblets (Tempo di Polacca)
05. e. N.10; Scene (Moderato)
06. f. N.11-12; Scene (Allegro moderato; allegro vivo); Scene (Allegro)
07. g. N.13. Dances Of The Swans--I. Tempo di Valse
08. h. N.13; Dances Of The Swans--V. Pas d'action. Odette et le Pince (Andante)
09. i. N.13; Dances Of The Swans--IV. Danse des petits cygnes (Allegro moderato)
10. j. N.13; Dances Of The Swans--VI. Danse gйnйrale (Valse)
11. k. N.13; Dances Of The Swans--II. Odette solo (Moderato assai)
12. l. N.13; Dances Of The Swans--VII. Coda (Allegro vivace)
13. m. N.15; Scene. Allegro giusto
14. n. N.17; Scene. Entrance & Waltz Of The Special Guests (Allegro; tempo di valse)
15. o. N.18; Scene. Allegro; allegro giusto
16. p. N.21; Spanish Dance (Allegro non troppo. Tempo di Bolero)
17. q. N.22; Neapolitan Dance (Allegro moderato; andantino quasi moderato)
18. r. N.23; Mazurka
19. s. N.20; Danse hongroise (Czбrdбs)
20. t. N.5; Pas de deux. Intrada; Valse; Andante; Valse; Coda (allegro molto vivace)

Отчет EAC

Exact Audio Copy V1.0 beta 1 from 15. November 2010
EAC extraction logfile from 26. December 2011, 14:28
- / Brilliant Classics--Tchaikovsky Edition (CD 12)
Used drive : ATAPI DVD A DH16A6L-C Adapter: 1 ID: 1
Read mode : Secure
Utilize accurate stream : Yes
Defeat audio cache : Yes
Make use of C2 pointers : No
Read offset correction : 6
Overread into Lead-In and Lead-Out : No
Fill up missing offset samples with silence : Yes
Delete leading and trailing silent blocks : No
Null samples used in CRC calculations : No
Normalize to : 98 %
Used interface : Native Win32 interface for Win NT & 2000
Used output format : Internal WAV Routines
Sample format : 44.100 Hz; 16 Bit; Stereo
TOC of the extracted CD
Track | Start | Length | Start sector | End sector
---------------------------------------------------------
1 | 0:00.00 | 5:42.68 | 0 | 25717
2 | 5:42.68 | 6:45.01 | 25718 | 56093
3 | 12:27.69 | 6:59.53 | 56094 | 87571
4 | 19:27.47 | 4:51.57 | 87572 | 109453
5 | 24:19.29 | 2:35.34 | 109454 | 121112
6 | 26:54.63 | 7:56.43 | 121113 | 156855
7 | 34:51.31 | 2:16.00 | 156856 | 167055
8 | 37:07.31 | 5:43.02 | 167056 | 192782
9 | 42:50.33 | 1:16.26 | 192783 | 198508
10 | 44:06.59 | 1:31.60 | 198509 | 205393
11 | 45:38.44 | 1:43.63 | 205394 | 213181
12 | 47:22.32 | 2:18.25 | 213182 | 223556
13 | 49:40.57 | 2:54.31 | 223557 | 236637
14 | 52:35.13 | 3:33.55 | 236638 | 252667
15 | 56:08.68 | 1:52.56 | 252668 | 261123
16 | 58:01.49 | 2:16.64 | 261124 | 271387
17 | 60:18.38 | 2:08.71 | 271388 | 281058
18 | 62:27.34 | 2:49.54 | 281059 | 293787
19 | 65:17.13 | 2:27.68 | 293788 | 304880
20 | 67:45.06 | 7:36.70 | 304881 | 339150
Range status and errors
Selected range
Filename C:\Users\Music\Brilliant Classics--Tchaikovsky Edition (CD 12).wav
Peak level 99.8 %
Extraction speed 0.3 X
Range quality 100.0 %
Test CRC 1A2BA475
Copy CRC 1A2BA475
Copy OK
No errors occurred
AccurateRip summary
Track 1 not present in database
Track 2 not present in database
Track 3 not present in database
Track 4 not present in database
Track 5 not present in database
Track 6 not present in database
Track 7 not present in database
Track 8 not present in database
Track 9 not present in database
Track 10 not present in database
Track 11 not present in database
Track 12 not present in database
Track 13 not present in database
Track 14 not present in database
Track 15 not present in database
Track 16 not present in database
Track 17 not present in database
Track 18 not present in database
Track 19 not present in database
Track 20 not present in database
None of the tracks are present in the AccurateRip database
End of status report
==== Log checksum 638E85FBDF72BDB47108CF1823644B3C4DA36AA9DE28AFD4A339FC72E2C1AFC1 ====

CD13

01. Ballet, 'Swan Lake' (abridged by Riccardo Drigo), Op.20 - u. N.28; Scene (Allegro agitato; allegro vivace)
02. v. N.29; Finale. Andante; allegro agitato; alla breve; moderato e maestoso
03. Variations on a Rococo Theme for Cello & Orchestra (abridged by Wilhelm Fitzenhagen), Op.33
04. Symphony No. 6 in B minor, 'Pathйtique', Op.74 - I. Adagio; allegro non troppo
05. II. Allegro con grazia
06. III. Allegro molto vivace
07. IV. Finale. Adagio lamentoso; andante

Отчет EAC

Exact Audio Copy V1.0 beta 1 from 15. November 2010
EAC extraction logfile from 26. December 2011, 14:54
- / Brilliant Classics--Tchaikovsky Edition (CD 13)
Used drive : ATAPI DVD A DH16A6L-C Adapter: 1 ID: 1
Read mode : Secure
Utilize accurate stream : Yes
Defeat audio cache : Yes
Make use of C2 pointers : No
Read offset correction : 6
Overread into Lead-In and Lead-Out : No
Fill up missing offset samples with silence : Yes
Delete leading and trailing silent blocks : No
Null samples used in CRC calculations : No
Normalize to : 98 %
Used interface : Native Win32 interface for Win NT & 2000
Used output format : Internal WAV Routines
Sample format : 44.100 Hz; 16 Bit; Stereo
TOC of the extracted CD
Track | Start | Length | Start sector | End sector
---------------------------------------------------------
1 | 0:00.00 | 2:01.74 | 0 | 9148
2 | 2:01.74 | 6:12.22 | 9149 | 37070
3 | 8:14.21 | 16:17.26 | 37071 | 110371
4 | 24:31.47 | 18:10.53 | 110372 | 192174
5 | 42:42.25 | 7:05.38 | 192175 | 224087
6 | 49:47.63 | 8:46.53 | 224088 | 263590
7 | 58:34.41 | 9:43.48 | 263591 | 307363
Range status and errors
Selected range
Filename C:\Users\Music\Brilliant Classics--Tchaikovsky Edition (CD 13).wav
Peak level 100.0 %
Extraction speed 0.4 X
Range quality 100.0 %
Test CRC 1891849B
Copy CRC 1891849B
Copy OK
No errors occurred
AccurateRip summary
Track 1 not present in database
Track 2 not present in database
Track 3 not present in database
Track 4 not present in database
Track 5 not present in database
Track 6 not present in database
Track 7 not present in database
None of the tracks are present in the AccurateRip database
End of status report
==== Log checksum 8236996040B6C93740B05DBBBE2C34B9EF8718FDCA1FC0A69CD1E67B50637DB6 ====

CD14

01. Ballet, 'Sleeping Beauty', Op.66 - a. Introduction (Allegro vivo; andantino); Prologue--The Christening. N.1; March (moderato)
02. b. Prologue--The Christening; N.2; Dance Scene (moderato con moto)
03. c. Prologue--The Christening; N.3-a; Pas de six. Introduction; adagio
04. d. Prologue--The Christening; N.3-b; Pas de six. Var.I--Fairy Of The Crystal Fountain (allegro moderato)
05. e. Prologue--The Christening; N.3-c; Pas de six. Var.II--Fairy Of The Enchanted Garden (allegro)
06. f. Prologue--The Christening; N.3-d; Pas de six. Var.III--Fairy Of The Woodland Glades (allegro moderato)
07. g. Prologue--The Christening; N.3-e; Pas de six. Var.IV--Fairy Of The Songbirds (moderato)
08. h. Prologue--The Christening; N.3-f; Pas de six. Var.V--Fairy Of The Golden Vine (allegro molto vivace)
09. i. Prologue--The Christening; N.3-g; Pas de six. Var.VI--Lilac Fairy (Tempo di valse)
10. j. Prologue--The Christening; N.3-h; Pas de six. Coda (Allegro giusto)
11. k. Prologue--The Christening; N.4; Finale
12. l. Act I--The Spell; N.5; Scene (allegro vivo; moderato)
13. m. Act I--The Spell; N.6; Waltz (Allegro. Tempo di Valse)
14. n. Act I--The Spell; N.7; Scene (Andante)
15. o. Act I--The Spell; N.8-a; Pas d'action. Rose Adagio (andante; adagio maestoso)
16. p. Act I--The Spell; N.8-b; Pas d'action. Dance Of The Maids Of Honour & Pages
17. q. Act I--The Spell; N.8-c; Pas d'action. Aurora's Variation
18. r. Act I--The Spell; N.8-d; Pas d'action. Coda (allegro giusto)
19. s. Act I--The Spell; N.9; Finale

Отчет EAC

Exact Audio Copy V1.0 beta 1 from 15. November 2010
EAC extraction logfile from 27. December 2011, 14:14
- / Brilliant Classics--Tchaikovsky Edition (CD 14)
Used drive : ATAPI DVD A DH16A6L-C Adapter: 1 ID: 1
Read mode : Secure
Utilize accurate stream : Yes
Defeat audio cache : Yes
Make use of C2 pointers : No
Read offset correction : 6
Overread into Lead-In and Lead-Out : No
Fill up missing offset samples with silence : Yes
Delete leading and trailing silent blocks : No
Null samples used in CRC calculations : No
Normalize to : 98 %
Used interface : Native Win32 interface for Win NT & 2000
Used output format : Internal WAV Routines
Sample format : 44.100 Hz; 16 Bit; Stereo
TOC of the extracted CD
Track | Start | Length | Start sector | End sector
---------------------------------------------------------
1 | 0:00.00 | 7:52.67 | 0 | 35466
2 | 7:52.67 | 4:13.63 | 35467 | 54504
3 | 12:06.55 | 4:14.72 | 54505 | 73626
4 | 16:21.52 | 0:44.55 | 73627 | 76981
5 | 17:06.32 | 0:34.65 | 76982 | 79596
6 | 17:41.22 | 0:56.03 | 79597 | 83799
7 | 18:37.25 | 0:30.72 | 83800 | 86121
8 | 19:08.22 | 0:56.68 | 86122 | 90389
9 | 20:05.15 | 0:57.17 | 90390 | 94681
10 | 21:02.32 | 1:29.08 | 94682 | 101364
11 | 22:31.40 | 8:09.60 | 101365 | 138099
12 | 30:41.25 | 6:35.50 | 138100 | 167774
13 | 37:17.00 | 4:20.55 | 167775 | 187329
14 | 41:37.55 | 1:49.42 | 187330 | 195546
15 | 43:27.22 | 6:05.60 | 195547 | 222981
16 | 49:33.07 | 1:58.45 | 222982 | 231876
17 | 51:31.52 | 2:38.05 | 231877 | 243731
18 | 54:09.57 | 3:37.18 | 243732 | 260024
19 | 57:47.00 | 5:39.65 | 260025 | 285514
Range status and errors
Selected range
Filename C:\Users\Music\Brilliant Classics--Tchaikovsky Edition (CD 14).wav
Peak level 100.0 %
Extraction speed 0.2 X
Range quality 100.0 %
Test CRC 7875D9A8
Copy CRC 7875D9A8
Copy OK
No errors occurred
AccurateRip summary
Track 1 cannot be verified as accurate (confidence 4) [46EEC16A], AccurateRip returned [E6984FEC]
Track 2 cannot be verified as accurate (confidence 4) [DC783D1B], AccurateRip returned [B3F95DC6]
Track 3 cannot be verified as accurate (confidence 4) [426BB4B2], AccurateRip returned [4991D924]
Track 4 cannot be verified as accurate (confidence 4) [CDFD9F17], AccurateRip returned [BE5C6C7E]
Track 5 cannot be verified as accurate (confidence 4) [B92E9A99], AccurateRip returned [D77520E0]
Track 6 cannot be verified as accurate (confidence 4) [62149A44], AccurateRip returned [1BD5A16C]
Track 7 cannot be verified as accurate (confidence 4) [4E6AA652], AccurateRip returned [9ADA065C]
Track 8 cannot be verified as accurate (confidence 4) [F2C1BFD0], AccurateRip returned [D4C2ADED]
Track 9 cannot be verified as accurate (confidence 4) [616AEACE], AccurateRip returned [CFC2D556]
Track 10 cannot be verified as accurate (confidence 4) [8A092ED7], AccurateRip returned [8837C53B]
Track 11 cannot be verified as accurate (confidence 4) [7356C2B0], AccurateRip returned [6F502824]
Track 12 cannot be verified as accurate (confidence 4) [AA010BD5], AccurateRip returned [8A1C5F26]
Track 13 cannot be verified as accurate (confidence 4) [7BD756FD], AccurateRip returned [F1EF0944]
Track 14 cannot be verified as accurate (confidence 4) [B7782D7B], AccurateRip returned [47F4C11F]
Track 15 cannot be verified as accurate (confidence 4) [2522F4D9], AccurateRip returned [19EA49DE]
Track 16 cannot be verified as accurate (confidence 4) [D2A8AD46], AccurateRip returned [90467930]
Track 17 cannot be verified as accurate (confidence 4) [9B425591], AccurateRip returned [97152318]
Track 18 cannot be verified as accurate (confidence 4) [B908974A], AccurateRip returned [D2CFACF1]
Track 19 cannot be verified as accurate (confidence 4) [835ED866], AccurateRip returned [6600A36F]
No tracks could be verified as accurate
You may have a different pressing from the one(s) in the database
End of status report
==== Log checksum FE1883D4F2FC4A4DDA2039BB980FA7F4E9853441C6DF9980195136C8784D7E6F ====

CD15

01. Ballet, 'Sleeping Beauty', Op.66 - t. Act II--The Vision; N.10; Entr'acte & Scene (Allegro con spirito; un poco piщ tranquillo)
02. u. Act II--The Vision; N.11; Blind Man's Bluff (Allegro vivo)
03. v. Act II--The Vision; N.12-a; Scene. Dances Of The Courtiers
04. w. Act II--The Vision; N.12-c; Dance Of The Duchesses (Minuet. Moderato con moto)
05. x. Act II--The Vision; N.12-d. Dance Of The Baronesses (Gavotte)
06. y. Act II--The Vision; N.12-e; Dance Of The Countesses (Allegro non troppo)
07. z. Act II--The Vision; N.12-f; Dance Of The Marchionesses (Allegro non troppo)
08. z-a. Act II--The Vision; N.13; Farandole. Scene (Poco piщ vivo); Dance (Allegro non troppo)
09. z-b. Act II--The Vision; N.14; Scene. Prince Florimund & The Lilac Fairy
10. z-c. Act II--The Vision; N.15-a; Pas d'action. Aurora & Florimund (Andante cantabile)
11. z-d. Act II--The Vision; N.15-b; Pas d'action. Aurora's Variation (Allegro con moto)
12. z-e. Act II--The Vision; N.15-c; Pas d'action. Coda (Presto)
13. z-f. Act II--The Vision; N.16; Scene (Allegro agitato)
14. z-g. Act II--The Vision; N.17; Panorama (Andantino)
15. z-h. Act II--The Vision; N.19-20; Symphonic Entr'acte (The Sleep); Scene (Andante misterioso); Finale. The Awakening (Allegro agitato)
16. z-i. Act III--The Wedding; N.21; March (Allegro non troppo)
17. z-j. Act III--The Wedding; N.22; Polonaise. Procession Of The Fairy-Tale Characters (Allegro moderato e brillante)
18. z-k. Act III-The Wedding; N.23-a; Pas de quatre. Introduction (Allegro non tanto)
19. z-l. Act III-The Wedding; N.23-b. Pas de quatre. Var.I--The Golden Fairy (Allegro. Tempo di Valse)
20. z-m. Act III-The Wedding; N.23-c. Pas de quatre. Var.II--The Silver Fairy (Allegro giusto)
21. z-n. Act III--The Wedding; N.23-d; Pas de quatre. Var.IV--The Diamond Fairy (Vivace); Coda (L'istesso tempo)
22. z-o. Act III--The Wedding; N.24; Pas de caractиre. Puss-in-Boots & The White Cat (Allegro moderato)
23. z-p. Act III--The Wedding; N.25-a; Pas de quatre. Introduction (Adagio)
24. z-q. Act III--The Wedding; N.25-b. Pas de quatre. Var.I--Cinderella & Prince Charming (Allegro. Tempo di Valse)
25. z-r. Act III--The Wedding; N.25-c; Pas de quatre. Var.II--The Bluebird & Princess Florine (Andantino)
26. z-s. Act III--The Wedding; N.25-d; Pas de quatre. Coda (Presto)
27. z-t. Act III--The Wedding; N.26; Pas de caractиre. Red Riding Hood & The Wolf (Allegro moderato)
28. z-u. Act III--The Wedding; N.27-a; Tom Thumb (Allegro agitato; tempo di Valse; vivace assai)
29. z-v. Act III--The Wedding; N.27-b; Cinderella & Prince Fortune
30. z-w. Act III--The Wedding; N.28-a; Pas de deux (Aurora & Florimund). Entrйe (Allegretto; allegro moderato); Adagio (Andante non troppo)
31. z-x. Act III--The Wedding; N.28-b; Pas de deux (Aurora & Florimund). Var.I--Florimund (Vivace; prestissimo)
32. z-y. Act III--The Wedding; N.28-c; Pas de deux (Aurora & Florimund). Var.II--Aurora (Andantino)
33. z-z. Act III--The Wedding; N.28-d; Pas de deux (Aurora & Florimund). Coda (Allegro vivace)
34. z-z-a. Act III--The Wedding; N.29; Sarabande
35. z-z-b. Act III--The Wedding; N.30-a; Finale (Allegro brillante. Tempo di Mazurka)--
36. z-z-c. Act III--The Wedding; N.30-b; Apotheosis. Andante molto maestoso

Отчет EAC

Exact Audio Copy V1.0 beta 1 from 15. November 2010
EAC extraction logfile from 27. December 2011, 16:08
- / Brilliant Classics--Tchaikovsky Edition (CD 15)
Used drive : ATAPI DVD A DH16A6L-C Adapter: 1 ID: 1
Read mode : Secure
Utilize accurate stream : Yes
Defeat audio cache : Yes
Make use of C2 pointers : No
Read offset correction : 6
Overread into Lead-In and Lead-Out : No
Fill up missing offset samples with silence : Yes
Delete leading and trailing silent blocks : No
Null samples used in CRC calculations : No
Normalize to : 98 %
Used interface : Native Win32 interface for Win NT & 2000
Used output format : Internal WAV Routines
Sample format : 44.100 Hz; 16 Bit; Stereo
TOC of the extracted CD
Track | Start | Length | Start sector | End sector
---------------------------------------------------------
1 | 0:00.00 | 2:46.00 | 0 | 12449
2 | 2:46.00 | 1:39.00 | 12450 | 19874
3 | 4:25.00 | 0:39.65 | 19875 | 22864
4 | 5:04.65 | 0:51.10 | 22865 | 26699
5 | 5:56.00 | 0:46.25 | 26700 | 30174
6 | 6:42.25 | 0:31.52 | 30175 | 32551
7 | 7:14.02 | 0:45.05 | 32552 | 35931
8 | 7:59.07 | 1:35.43 | 35932 | 43099
9 | 9:34.50 | 4:46.12 | 43100 | 64561
10 | 14:20.62 | 5:00.08 | 64562 | 87069
11 | 19:20.70 | 1:25.27 | 87070 | 93471
12 | 20:46.22 | 1:22.33 | 93472 | 99654
13 | 22:08.55 | 0:46.20 | 99655 | 103124
14 | 22:55.00 | 2:49.17 | 103125 | 115816
15 | 25:44.17 | 4:19.73 | 115817 | 135314
16 | 30:04.15 | 2:25.60 | 135315 | 146249
17 | 32:30.00 | 4:29.15 | 146250 | 166439
18 | 36:59.15 | 1:51.00 | 166440 | 174764
19 | 38:50.15 | 1:03.20 | 174765 | 179509
20 | 39:53.35 | 0:57.65 | 179510 | 183849
21 | 40:51.25 | 1:27.20 | 183850 | 190394
22 | 42:18.45 | 1:55.40 | 190395 | 199059
23 | 44:14.10 | 2:14.40 | 199060 | 209149
24 | 46:28.50 | 0:47.72 | 209150 | 212746
25 | 47:16.47 | 0:45.20 | 212747 | 216141
26 | 48:01.67 | 1:30.03 | 216142 | 222894
27 | 49:31.70 | 1:19.47 | 222895 | 228866
28 | 50:51.42 | 1:16.53 | 228867 | 234619
29 | 52:08.20 | 2:31.17 | 234620 | 245961
30 | 54:39.37 | 3:40.03 | 245962 | 262464
31 | 58:19.40 | 1:00.27 | 262465 | 266991
32 | 59:19.67 | 1:26.28 | 266992 | 273469
33 | 60:46.20 | 1:23.02 | 273470 | 279696
34 | 62:09.22 | 2:03.55 | 279697 | 288976
35 | 64:13.02 | 3:55.48 | 288977 | 306649
36 | 68:08.50 | 1:54.06 | 306650 | 315205
Range status and errors
Selected range
Filename C:\Users\Music\Brilliant Classics--Tchaikovsky Edition (CD 15).wav
Peak level 100.0 %
Extraction speed 0.0 X
Range quality 100.0 %
Test CRC D4E9D647
Copy CRC D4E9D647
Copy OK
No errors occurred
AccurateRip summary
Track 1 cannot be verified as accurate (confidence 4) [EC80D82A], AccurateRip returned [17853807]
Track 2 cannot be verified as accurate (confidence 4) [6587B8A4], AccurateRip returned [909CBF6D]
Track 3 cannot be verified as accurate (confidence 4) [4AB183D8], AccurateRip returned [6A129373]
Track 4 cannot be verified as accurate (confidence 4) [D1F08E1C], AccurateRip returned [939661BD]
Track 5 cannot be verified as accurate (confidence 4) [9104758E], AccurateRip returned [DBD06589]
Track 6 cannot be verified as accurate (confidence 4) [631B5417], AccurateRip returned [5910A3AA]
Track 7 cannot be verified as accurate (confidence 4) [0FE7BC3D], AccurateRip returned [C1E8F9F6]
Track 8 cannot be verified as accurate (confidence 4) [86A9646A], AccurateRip returned [DB0D73A5]
Track 9 cannot be verified as accurate (confidence 4) [220AB37B], AccurateRip returned [454D56A5]
Track 10 cannot be verified as accurate (confidence 4) [A39EFFEA], AccurateRip returned [61C80A1E]
Track 11 cannot be verified as accurate (confidence 4) [DAD68595], AccurateRip returned [E0A2C289]
Track 12 cannot be verified as accurate (confidence 4) [7007CEDA], AccurateRip returned [5ACFF1E1]
Track 13 cannot be verified as accurate (confidence 4) [A723A802], AccurateRip returned [9466A8CF]
Track 14 cannot be verified as accurate (confidence 4) [55456CD6], AccurateRip returned [4929087F]
Track 15 cannot be verified as accurate (confidence 4) [33437FCD], AccurateRip returned [CC7F98FB]
Track 16 cannot be verified as accurate (confidence 4) [4BE9AEE5], AccurateRip returned [16A6CF90]
Track 17 cannot be verified as accurate (confidence 4) [8BD785F6], AccurateRip returned [55384D0A]
Track 18 cannot be verified as accurate (confidence 4) [2D061BFB], AccurateRip returned [FA10F607]
Track 19 cannot be verified as accurate (confidence 4) [987A7707], AccurateRip returned [20A479E0]
Track 20 cannot be verified as accurate (confidence 4) [6DB87102], AccurateRip returned [0A2A69D2]
Track 21 cannot be verified as accurate (confidence 4) [4F5CEFDC], AccurateRip returned [3D931B57]
Track 22 cannot be verified as accurate (confidence 4) [26304266], AccurateRip returned [4A8776DB]
Track 23 cannot be verified as accurate (confidence 4) [6BF28162], AccurateRip returned [BDF756A7]
Track 24 cannot be verified as accurate (confidence 4) [E316F620], AccurateRip returned [DC6F82AB]
Track 25 cannot be verified as accurate (confidence 4) [54886D46], AccurateRip returned [4DF062E8]
Track 26 cannot be verified as accurate (confidence 4) [78D8B142], AccurateRip returned [1C460C77]
Track 27 cannot be verified as accurate (confidence 4) [3F492D05], AccurateRip returned [8AC881A2]
Track 28 cannot be verified as accurate (confidence 4) [6C6DD720], AccurateRip returned [90298E70]
Track 29 cannot be verified as accurate (confidence 4) [545FE37E], AccurateRip returned [221500B2]
Track 30 cannot be verified as accurate (confidence 4) [8ADC5BE2], AccurateRip returned [88E9A4E1]
Track 31 cannot be verified as accurate (confidence 4) [25C0CB1E], AccurateRip returned [AF738548]
Track 32 cannot be verified as accurate (confidence 4) [535936FF], AccurateRip returned [71F953E4]
Track 33 cannot be verified as accurate (confidence 4) [EFC013FA], AccurateRip returned [17A621B0]
Track 34 cannot be verified as accurate (confidence 4) [18987180], AccurateRip returned [47A9F2EC]
Track 35 cannot be verified as accurate (confidence 4) [8A2832A4], AccurateRip returned [95A73676]
Track 36 cannot be verified as accurate (confidence 4) [B101CDE1], AccurateRip returned [4A9F1B6A]
No tracks could be verified as accurate
You may have a different pressing from the one(s) in the database
End of status report
==== Log checksum 4651F113811F9418733176D069E473B3EAAB210EF6D424156698D2A2316ECF45 ====
Исполнители:

Содержимое издания с исполнителями

Manfred Symphony, Op. 58
Rod Elms (organ)
London Symphony Orchestra, Yuri Simonov
Concert Fantasy, Op. 56
Michael Ponti (piano)
Prague Symphony Orchestra, Richard Kapp
Violin Concerto in D major, Op. 35
Viktor Tretiakov (violin)
USSR State Symphony Orchestra, Mariss Jansons
String Quartet No. 1 in D major, Op. 11
String Quartet No. 2 in F major, Op. 22
String Quartet No. 3 in E flat minor, Op. 30
Endellion String Quartet
Piano Trio in A minor, Op. 50 'In Memory of a Great Artist'
Oistrakh Trio
The Seasons, Op. 37b
Michael Ponti (piano)
Piano Sonata 'No 1' in F minor
Michael Ponti (piano)
Piano Sonata No. 2 in C sharp minor, Op. 80
Michael Ponti (piano)
Album for the Young, Op. 39
Michael Ponti (piano)
Eugene Onegin
Alexander Lebedev (Eugene Onegin), Elena Zelyenskaya (Tatyana), Farit Hussainov (Lenski), Olga Obuchova (Olga), Ludmilla Ladinskaya (Larina), Galina Babicheva (Filipjewna), Alexei Levitski (Gremin), Vladimir Vassilev (Triquet)
Novosibirsk State Opera Orchestra, Samuel Friedmann
Oprichnik
Vassily Savenko (Prince Zhemchuzhny), Elena Lassoskaya (Natalia), Dmitri Ulyanov (Molchan Mitkov), Irina Dolyenko (Boyarina Morozova), Vsevolod Grivnov (Andrei Morozov), Alexandra Dursseneva (Basmanov), Vladimir Ognovienko (Prince Vyazminsky), Cinzia de Mola (Zakharyevna)
Orchestra e Coro del Teatro Lirico di Cagliari, Gennady Rozhdestvensky
Cherevichki (The Slippers)
Georgi Nelepp (Vakula), Aleksey Petrovich Ivanov (Byes), Elisabeta Antonova (Solokha), Yelena Dimitrievna Kruglikova (Oksana), Maxim Mikhailov (Chub), Fedor Godovkin (Panas)
Orchestra & Chorus of the Bolshoi Theatre, Alexander Melik-Pasheyev
Jeanne d'Arc, La Pucelle d'Orleans
Sofiya Preobrazenskaya (Joan of Arc), Vladimir Kilcevskij (King Charles VII), Olga Afanasevna Kashevarova (Agnes Sorel)
Orchestra & Chorus of the Kirov Theatre, Boris Khaikin
Iolanta
Tatiana Vorjdova (Iolanta), Alexei Levitski (Rene), Vassili Gorshkov (Vaudemont), Vladimir Prudnik (Ibn-Hakia), Sergei Nikitin (Robert), Tatiana Gorbunova (Martha)
Novosibirsk State Opera Orchestra, Alexei Ludmilin
Pique Dame
Georgi Nelepp (Hermann), Eugenia Smolenskaya (Lisa), Eugenia Verbitskaya (Countess), Aleksey Petrovich Ivanov (Tomsky), Pavel Lisitsian (Yeletsky), Vera Ivanova Borisenko (Polina)
Orchestra & Chorus of the Bolshoi Theatre, Alexander Melik-Pasheyev
Charodeika
Natalia Sokolova (Natasia/Kuma), Mikhail Kiselev (Prince Nikita Danilich Kurlyatev), Vera Ivanova Borisenko (Princess Evpraksia Romanova), Georgi Nelepp (Prince Yuri), Alexsei Korolev (Mamirov), Anna Matiushina (Nenila)
Moscow State Philharmonic Orchestra, Samuil A Samosud
Mazeppa
Aleksey Petrovich Ivanov (Mazeppa), Nina Pokrovskaya (Mariya), Ivan Petrov (Kochubey), Vera Aleksandrovna Davydova (Liubov), Grigori Bolshakov (Andrei), Vsevolod Tyutyunnik (Orlik), Tikhon Tchernyakov (Iskra)
Orchestra and Chorus of the Bolshoi Theatre, Vassili Nebolsin
The Snow Maiden, Op. 12
Russian State Chorus & Orchestra, Andrei Chistiakov
Suite No. 1 in D minor, Op. 43
Suite No. 2 in C major, Op. 53
Suite No. 3 in G major, Op.55
Suite No. 4 in G major, Op.61 'Mozartiana'
Radio-Sinfonieorchester Stuttgart, Sir Neville Marriner
Swan Lake, Op. 20
Orchestre de la Suisse Romande, Ernest Ansermet
The Nutcracker, Op. 71
Orchestre de la Suisse Romande, Ernest Ansermet
Sleeping Beauty, Op. 66
Orchestre de la Suisse Romande, Ernest Ansermet
Liturgy of St John Chrysostom, Op. 41
National Choir of the Ukraine 'Dumka', Yevhen Savchuk
Capriccio italien, Op. 45
London Symphony Orchestra, Gennady Rozhdestvensky
Marche slave, Op. 31
London Symphony Orchestra, Gennady Rozhdestvensky
Hamlet - Fantasy overture, Op. 67
Tchaikovsky Symphony Orchestra of Radio Moscow, Vladimir Fedoseyev
Francesca da Rimini, Op. 32
Philharmonia Orchestra, Yuri Simonov
The Storm Overture (Groza), Op.76
London Symphony Orchestra, Gennady Rozhdestvensky
Romeo & Juliet - Fantasy Overture
Kirov Theatre Orchestra, Yuri Temirkanov
1812 Overture, Op. 49
London Philharmonic Orchestra, Alexander Gibson
Fatum, Op. 77
Grand Symphony Orchestra, Alexander Gauk
Hamlet: Incidental Music
USSR Radio & TV Symphony Orchestra, Alexander Gauk
Symphony No. 6 in B minor, Op. 74 'Pathetique'
Orchestre de la Suisse Romande, Ernest Ansermet
Variations on a Rococo Theme, Op. 33
Maurice Gendron (cello)
Orchestre de la Suisse Romande, Ernest Ansermet
Variations on a Rococo Theme, Op. 33
Alexander Rudin (cello)
Ensemble Instrumental Musica Viva, Nicolai Alexiev
Serenade for Strings in C major, Op. 48
Alexander Rudin
Violin Concerto in D major, Op. 35
Aaron Rosand (violin)
Orchestra of Radio Luxembourg, Louis de Froment
Selected songs
Ljuba Kazarnovskaya (soprano), Ljuba Orfenova (piano)
Serenade for Strings in C major, Op. 48
Leningrad Philharmonic Orchestra, Evgeny Mravinsky
The Nutcracker Suite, Op. 71a (excerpts)
Leningrad Philharmonic Orchestra, Evgeny Mravinsky
Symphony No. 5 in E minor, Op. 64
Leningrad Philharmonic Orchestra, Evgeny Mravinsky
Sleeping Beauty: Pas de deux, Act III
Leningrad Philharmonic Orchestra, Evgeny Mravinsky
Capriccio italien, Op. 45
Leningrad Philharmonic Orchestra, Evgeny Mravinsky
Francesca da Rimini, Op. 32
Leningrad Philharmonic Orchestra, Evgeny Mravinsky
Violin Concerto in D major, Op. 35
David Oistrakh (violin)
Moscow Philharmonic Orchestra, Gennady Rozhdestvensky
Violin Concerto in D major, Op. 35
Leonid Kogan (violin)
USSR State Radio Symphony Orchestra, Vassily Nebolsin
Piano Concerto No. 1 in B flat minor, Op. 23
Evgeny Kissin (piano)
St Petersburg Academic Symphony Orchestra, Valery Gergiev
Piano Concerto No. 1 in B flat minor, Op. 23
Sviatoslav Richter (piano)
Moscow Philharmonic Orchestra, Kyrill Kondrashin
Symphony No. 1 in G minor, Op. 13 'Winter Daydreams'
Tchaikovsky Symphony Orchestra of Radio Moscow, Vladimir Fedoseyev
Symphony No. 2 in C minor, Op. 17 'Little Russian'
Philharmonia Orchestra, Yuri Simonov
Symphony No. 3 in D major, Op. 29 'Polish'
Tchaikovsky Symphony Orchestra of Radio Moscow, Vladimir Fedoseyev
Symphony No. 4 in F minor, Op. 36
London Symphony Orchestra, Gennady Rozhdestvensky
Symphony No. 5 in E minor, Op. 64
London Symphony Orchestra, Gennady Rozhdestvensky
Symphony No. 6 in B minor, Op. 74 'Pathetique'
London Symphony Orchestra, Gennady Rozhdestvensky
Piano Concerto No. 1 in B flat minor, Op. 23
Byron Janis (piano)
Minneapolis Symphony Orchestra, Stanislaw Skrowaczweski
Piano Concerto No. 2 in G major, Op. 44
Shura Cherkassky (piano)
Cincinnati Symphony Orchestra, Walter Susskin
Piano Concerto No. 3 in E flat major
Michael Ponti (piano)
Orchestra of Radio Luxembourg, Louis de Froment
plus secular choral works and piano pieces
Доп. информация: По-моему, это первая попытка выпустить большое собрание произведений Чайковского. И хотя оно не является полным в прямом, академическом смысле слова, думаю, что данное издание будет интересно очень многим любителям музыки. В процессе подготовки треклистов я обнаружил много записей редко исполняемых произведений.
[teatrix.ru].t9735.torrent 
Торрент: Зарегистрирован [ 2015-10-23 17:11 ] · 05825C6A6C1A0E563DF174E8A8D9A7A9ABE519FB

Скачать .torrent

Скачать

108 KB

Статус: проверено
Скачан: 2 раз
Размер: 14.99 GB
terms.php



Быстрый ответ

Имя:

      
Для отправки сообщений необходимо включить JavaScript
Показать сообщения:    

Текущее время: 03-Дек 18:43

Часовой пояс: UTC + 3


Вы можете начинать темы
Вы можете отвечать на сообщения
Вы не можете редактировать свои сообщения
Вы не можете удалять свои сообщения
Вы не можете голосовать в опросах
Вы не можете прикреплять файлы к сообщениям
Вы можете скачивать файлы