(Classical / Piano) Дмитрий Шостакович Полное собрание сочинений для фортепиано(Борис Петрушанский)/Dmitri Shostakovich - Piano Works Complete(Boris Petrushansky) -2006, FLAC (image+.cue) lossless


Статистика раздачи [Обновить пиров]
Размер:  1.09 GB   |    Зарегистрирован:  1 год 1 месяц   |    Скачан:  0 раз

Полного источника не было: Никогда

Личеров:  3  [  0 KB/s  ]   Подробная статистика пиров
 
   
 
 
 

[Цитировать]

Дмитрий Шостакович Полное собрание сочинений для фортепиано
Dmitri Shostakovich - Piano Works Complete

Жанр: Classical , Piano
Страна-производитель диска: Italy
Год издания диска: 2006
Издатель (лейбл): Stradivarius
Номер по каталогу: STR 33763
Дата записи: 1992 - 2003
Аудиокодек: FLAC
Тип рипа: image+.cue
Битрейт аудио: lossless
Продолжительность: 05:23:37
Источник: скачано с Avaxhome
Наличие сканов в содержимом раздачи: да
Треклист:

CD 1

FIVE PRELUDES, Op.2:
01. No.1 in A minor: Allegro moderato e scherzando [0:00:54.37]
02. No.2 in G major: Andante [0:02:12.66]
03. No.3 in E minor: Allegro moderato [0:01:01.15]
04. No.4 in D-flat major: Moderato [0:01:55.29]
05. No.5 in F minor: Andantino [0:01:26.02]
THREE FANTASTIC DANCES, Op.5:
06. No.1: Allegretto [0:01:45.11]
07. No.2 Andantino [0:01:49.50]
08. No.3 Allegretto [0:01:01.13]
APHORISMS, Op.13 No.1
09. : Recitative [0:00:56.02]
10. No.2 Serenade [0:01:19.12]
11. No.3 Nocturne [0:01:46.13]
12. No.4 Elegy [0:01:08.44]
13. No.5 Funeral March [0:01:31.43]
14. No.6 Étude [0:00:33.68]
15. No.7 Danse macabre [0:00:51.26]
16. No.8 Canon [0:00:45.54]
17. No.9 Legend [0:02:04.02]
18. No.10: Berceuse [0:03:02.52]
19. THE GOLDEN AGE, Op.22a - Polka [0:01:57.48]
24 PRELUDES, Op.34:
20. No.1 in C major: Allegretto [0:01:31.36]
21. No.2 in A minor: Allegretto [0:00:50.00]
22. No.3 in G major: Andante [0:02:35.43]
23. No.4 in E minor: Moderato [0:02:35.29]
24. No.5 in D major: Allegro vivace [0:00:29.58]
25. No.6 in B minor: Allegretto [0:01:27.19]
26. No.7 in A major: Andante [0:01:22.21]
27. No.8 in F-sharp minor: Allegretto [0:01:01.19]
28. No.9 in E major: Presto [0:00:37.53]
29. No.10 in C-sharp minor: Moderato non troppo [0:02:23.00]
30. No.11 in B major: Allegretto [0:01:01.62]
31. No.12 in G-sharp minor: Allegro non troppo [0:01:42.72]
32. No.13 in F-sharp major: Moderato [0:00:56.01]
33. No.14 in E-flat minor: Adagio [0:03:03.46]
34. No.15 in D-flat major: Allegretto [0:00:56.56]
35. No.16 in B-flat minor: Andantino [0:01:32.74]
36. No.17 in A-flat major: Largo [0:02:43.68]
37. No.18 in F minor: Allegretto [0:00:46.52]
38. No.19 in E-flat major: Andantino [0:01:45.27]
39. No.20 in C minor: Allegretto furioso [0:00:41.41]
40. No.21 in B-flat major: Allegretto poco moderato [0:00:44.28]
41. No.22 in G minor: Adagio [0:02:52.13]
42. No.23 in F major: Moderato [0:01:39.08]
43. No.24 in D minor: Allegretto [0:01:34.03]
DANCES OF THE DOLLS:
44. I. Lyrical Waltz [0:01:53.24]
45. II. Gavotte [0:01:32.31]
46. III. Romance [0:02:30.54]
47. IV. Polka [0:01:23.54]
48. V. Waltz-Scherzo [0:03:11.26]
49. VI. Hurdy-Gurdy [0:00:41.39]
50. VII. Dance [0:00:37.11]

CD 2

Piano Sonata No. 1, Op. 12;
01. Allegro - Adagio - Allegro - Lento - Allegro [0:14:53.45]
Piano Sonata No. 2 In B Minor, Op. 61;
02. I. Allegretto [0:08:19.14]
03. II. Largo [0:08:03.38]
04. III. Moderato Con Moto [0:14:54.02]
Three Pieces For Piano;
05. I. Minuet; Allegretto [0:00:43.59]
06. II. Prelude; Lento, Ma Non Troppo [0:00:56.70]
07. III. Intermezzo; Allegretto [0:00:52.04]
Children's Notebook, Six Pieces For Piano, Op. 69;
08. I. March; Animato [0:00:28.28]
09. II. Waltz; Tranquillo [0:00:40.39]
10. III. The Bear [0:00:49.54]
11. IV. Funny Story; Allegro [0:00:30.31]
12. V. Sad Story; Lento [0:01:48.43]
13. ; VI. Mechanical Doll; Con Moto [0:00:47.38]
14. VII. Birthday [0:01:03.37]
15. Murzilka For Piano, Op. 2b [0:00:38.47]
16. Three Variations On A Theme By Glinka For Piano, Op. 104a;
Adagio - Allegretto - (Finale) Moderato Maestoso [0:06:50.15]

CD 3

24 Preludes And Fugues, Op. 87;
01. Prelude No. 1 In C Major [0:03:46.35]
02. Fugue No. 1 In C Major [0:03:46.67]
03. Prelude No. 2 In A Minor [0:00:56.53]
04. Fugue No. 2 In A Minor [0:01:21.52]
05. Prelude No. 3 In G Major [0:01:42.08]
06. Fugue No. 3 In G Major [0:01:58.47]
07. Prelude No. 4 In E Minor [0:03:36.65]
08. Fugue No. 4 In E Minor [0:05:37.35]
09. Prelude No. 5 In D Major [0:02:05.43]
10. Fugue No. 5 In D Major [0:01:57.60]
11. Prelude No. 6 In B Minor [0:01:57.47]
12. Fugue No. 6 In B Minor [0:07:56.43]
13. Prelude No. 7 In A Major [0:01:30.65]
14. Fugue No. 7 In A Major [0:02:35.45]
15. Prelude No. 8 In F Sharp Minor [0:01:36.35]
16. Fugue No. 8 In F Sharp Minor [0:08:45.12]
17. Prelude No. 9 In E Major [0:03:30.55]
18. Fugue No. 9 In E Major [0:01:32.38]
19. Prelude No. 10 In C Sharp Minor [0:02:19.27]
20. Fugue No. 10 In C Sharp Minor [0:06:42.15]

CD 4

24 Preludes And Fugues, Op. 87;
01. Prelude No. 11 In B Major [0:01:21.35]
02. Fugue No. 11 In B Major [0:02:08.40]
03. Prelude No. 12 In G Sharp Minor [0:04:48.35]
04. Fugue No. 12 In G Sharp Minor [0:04:10.22]
05. Prelude No. 13 In F Sharp Major [0:02:59.60]
06. Fugue No. 13 In F Sharp Major [0:07:16.13]
07. Prelude No. 14 In E Flat Minor [0:06:24.12]
08. Fugue No. 14 In E Flat Minor [0:04:07.05]
09. Prelude No. 15 In D Flat Major [0:02:58.63]
10. Fugue No. 15 In D Flat Major [0:01:50.05]
11. Prelude No. 16 In B Flat Minor [0:04:17.07]
12. Fugue No. 16 In B Flat Minor [0:10:28.05]
13. Prelude No. 17 In A Flat Major [0:02:18.35]
14. Fugue No. 17 In A Flat Major [0:03:53.13]

CD 5

01. Prelude 18 [0:03:09.38]
02. Fugue 18 [0:04:51.07]
03. Prelude 19 [0:03:35.43]
04. Fugue 19 [0:03:06.25]
05. Prelude 20 [0:06:25.45]
06. Fugue 20 [0:08:17.05]
07. Prelude 21 [0:01:18.48]
08. Fugue 21 [0:02:51.24]
09. Prelude 22 [0:02:18.05]
10. Fugue 22 [0:05:03.00]
11. Prelude 23 [0:04:37.13]
12. Fugue 23 [0:04:10.49]
13. Prelude 24 [0:04:10.60]
14. Fugue 24 [0:07:05.38]
Исполнители:

Boris Petrushansky


Фортепиано: Grancoda Steinway
.

Лог создания рипа

CD 1

Exact Audio Copy V1.0 beta 3 from 29. August 2011
EAC extraction logfile from 10. July 2013, 23:56
Dmitri Shostakovich / Piano Works Complete CD 1 (Boris Petrushansky)
Used drive : TSSTcorpCDDVDW SH-S223C Adapter: 2 ID: 1
Read mode : Secure
Utilize accurate stream : Yes
Defeat audio cache : Yes
Make use of C2 pointers : No
Read offset correction : 697
Overread into Lead-In and Lead-Out : No
Fill up missing offset samples with silence : Yes
Delete leading and trailing silent blocks : No
Null samples used in CRC calculations : Yes
Used interface : Native Win32 interface for Win NT & 2000
Used output format : User Defined Encoder
Selected bitrate : 896 kBit/s
Quality : High
Add ID3 tag : No
Command line compressor : C:\Program Files (x86)\Exact Audio Copy\FLAC\FLAC.EXE
Additional command line options : -V -0 -T "COMMENT=Ripped by Tapaz9" -T "artist=%artist%" -T "title=%title%" -T "album=%albumtitle%" -T "date=%year%" -T "tracknumber=%tracknr%" -T "genre=%genre%" %source%
TOC of the extracted CD
Track | Start | Length | Start sector | End sector
---------------------------------------------------------
1 | 0:00.00 | 0:54.37 | 0 | 4086
2 | 0:54.37 | 2:12.66 | 4087 | 14052
3 | 3:07.28 | 1:01.15 | 14053 | 18642
4 | 4:08.43 | 1:55.29 | 18643 | 27296
5 | 6:03.72 | 1:26.02 | 27297 | 33748
6 | 7:29.74 | 1:45.11 | 33749 | 41634
7 | 9:15.10 | 1:49.50 | 41635 | 49859
8 | 11:04.60 | 1:01.13 | 49860 | 54447
9 | 12:05.73 | 0:56.02 | 54448 | 58649
10 | 13:02.00 | 1:19.12 | 58650 | 64586
11 | 14:21.12 | 1:46.13 | 64587 | 72549
12 | 16:07.25 | 1:08.44 | 72550 | 77693
13 | 17:15.69 | 1:31.43 | 77694 | 84561
14 | 18:47.37 | 0:33.68 | 84562 | 87104
15 | 19:21.30 | 0:51.26 | 87105 | 90955
16 | 20:12.56 | 0:45.54 | 90956 | 94384
17 | 20:58.35 | 2:04.02 | 94385 | 103686
18 | 23:02.37 | 3:02.52 | 103687 | 117388
19 | 26:05.14 | 1:57.48 | 117389 | 126211
20 | 28:02.62 | 1:31.36 | 126212 | 133072
21 | 29:34.23 | 0:50.00 | 133073 | 136822
22 | 30:24.23 | 2:35.43 | 136823 | 148490
23 | 32:59.66 | 2:35.29 | 148491 | 160144
24 | 35:35.20 | 0:29.58 | 160145 | 162377
25 | 36:05.03 | 1:27.19 | 162378 | 168921
26 | 37:32.22 | 1:22.21 | 168922 | 175092
27 | 38:54.43 | 1:01.19 | 175093 | 179686
28 | 39:55.62 | 0:37.53 | 179687 | 182514
29 | 40:33.40 | 2:23.00 | 182515 | 193239
30 | 42:56.40 | 1:01.62 | 193240 | 197876
31 | 43:58.27 | 1:42.72 | 197877 | 205598
32 | 45:41.24 | 0:56.01 | 205599 | 209799
33 | 46:37.25 | 3:03.46 | 209800 | 223570
34 | 49:40.71 | 0:56.56 | 223571 | 227826
35 | 50:37.52 | 1:32.74 | 227827 | 234800
36 | 52:10.51 | 2:43.68 | 234801 | 247093
37 | 54:54.44 | 0:46.52 | 247094 | 250595
38 | 55:41.21 | 1:45.27 | 250596 | 258497
39 | 57:26.48 | 0:41.41 | 258498 | 261613
40 | 58:08.14 | 0:44.28 | 261614 | 264941
41 | 58:52.42 | 2:52.13 | 264942 | 277854
42 | 61:44.55 | 1:39.08 | 277855 | 285287
43 | 63:23.63 | 1:34.03 | 285288 | 292340
44 | 64:57.66 | 1:53.24 | 292341 | 300839
45 | 66:51.15 | 1:32.31 | 300840 | 307770
46 | 68:23.46 | 2:30.54 | 307771 | 319074
47 | 70:54.25 | 1:23.54 | 319075 | 325353
48 | 72:18.04 | 3:11.26 | 325354 | 339704
49 | 75:29.30 | 0:41.39 | 339705 | 342818
50 | 76:10.69 | 0:37.11 | 342819 | 345604
Range status and errors
Selected range
Filename F:\Musique\Shostakovich, Dmitri\Shostakovich_ComletePianoWorks_Petrushansky\CD1\Dmitri Shostakovich - Piano Works Complete CD 1 (Boris Petrushansky).wav
Peak level 94.4 %
Extraction speed 14.1 X
Range quality 100.0 %
Copy CRC 8111689A
Copy OK
No errors occurred
End of status report
==== Log checksum 03DE34FD3AA3E55B1EEE71D8B98BBFAA8729609D153B9DAADCEEE2F33285F652 ====

CD 2

Exact Audio Copy V1.0 beta 3 from 29. August 2011
EAC extraction logfile from 11. July 2013, 0:10
Dmitri Shostakovich / Piano Works Complete CD 2 (Boris Petrushansky)
Used drive : TSSTcorpCDDVDW SH-S223C Adapter: 2 ID: 1
Read mode : Secure
Utilize accurate stream : Yes
Defeat audio cache : Yes
Make use of C2 pointers : No
Read offset correction : 697
Overread into Lead-In and Lead-Out : No
Fill up missing offset samples with silence : Yes
Delete leading and trailing silent blocks : No
Null samples used in CRC calculations : Yes
Used interface : Native Win32 interface for Win NT & 2000
Used output format : User Defined Encoder
Selected bitrate : 896 kBit/s
Quality : High
Add ID3 tag : No
Command line compressor : C:\Program Files (x86)\Exact Audio Copy\FLAC\FLAC.EXE
Additional command line options : -V -0 -T "COMMENT=Ripped by Tapaz9" -T "artist=%artist%" -T "title=%title%" -T "album=%albumtitle%" -T "date=%year%" -T "tracknumber=%tracknr%" -T "genre=%genre%" %source%
TOC of the extracted CD
Track | Start | Length | Start sector | End sector
---------------------------------------------------------
1 | 0:00.00 | 14:53.45 | 0 | 67019
2 | 14:53.45 | 8:19.14 | 67020 | 104458
3 | 23:12.59 | 8:03.38 | 104459 | 140721
4 | 31:16.22 | 14:54.02 | 140722 | 207773
5 | 46:10.24 | 0:43.59 | 207774 | 211057
6 | 46:54.08 | 0:56.70 | 211058 | 215327
7 | 47:51.03 | 0:52.04 | 215328 | 219231
8 | 48:43.07 | 0:28.28 | 219232 | 221359
9 | 49:11.35 | 0:40.39 | 221360 | 224398
10 | 49:51.74 | 0:49.54 | 224399 | 228127
11 | 50:41.53 | 0:30.31 | 228128 | 230408
12 | 51:12.09 | 1:48.43 | 230409 | 238551
13 | 53:00.52 | 0:47.38 | 238552 | 242114
14 | 53:48.15 | 1:03.37 | 242115 | 246876
15 | 54:51.52 | 0:38.47 | 246877 | 249773
16 | 55:30.24 | 6:50.15 | 249774 | 280538
Range status and errors
Selected range
Filename F:\Musique\Shostakovich, Dmitri\Shostakovich_ComletePianoWorks_Petrushansky\CD2\Dmitri Shostakovich - Piano Works Complete CD 2 (Boris Petrushansky).wav
Peak level 98.8 %
Extraction speed 14.7 X
Range quality 100.0 %
Copy CRC 6D9E3441
Copy OK
No errors occurred
End of status report
==== Log checksum 2F59E7133358A3E6CBD859ADC1B2AC32E1B39AAF49B3A5F88DC8CFF85B966009 ====

CD 3

Exact Audio Copy V1.0 beta 3 from 29. August 2011
EAC extraction logfile from 11. July 2013, 0:20
Dmitri Shostakovich / Piano Works Complete CD 3 (Boris Petrushansky)
Used drive : TSSTcorpCDDVDW SH-S223C Adapter: 2 ID: 1
Read mode : Secure
Utilize accurate stream : Yes
Defeat audio cache : Yes
Make use of C2 pointers : No
Read offset correction : 697
Overread into Lead-In and Lead-Out : No
Fill up missing offset samples with silence : Yes
Delete leading and trailing silent blocks : No
Null samples used in CRC calculations : Yes
Used interface : Native Win32 interface for Win NT & 2000
Used output format : User Defined Encoder
Selected bitrate : 896 kBit/s
Quality : High
Add ID3 tag : No
Command line compressor : C:\Program Files (x86)\Exact Audio Copy\FLAC\FLAC.EXE
Additional command line options : -V -0 -T "COMMENT=Ripped by Tapaz9" -T "artist=%artist%" -T "title=%title%" -T "album=%albumtitle%" -T "date=%year%" -T "tracknumber=%tracknr%" -T "genre=%genre%" %source%
TOC of the extracted CD
Track | Start | Length | Start sector | End sector
---------------------------------------------------------
1 | 0:00.00 | 3:46.35 | 0 | 16984
2 | 3:46.35 | 3:46.67 | 16985 | 34001
3 | 7:33.27 | 0:56.53 | 34002 | 38254
4 | 8:30.05 | 1:21.52 | 38255 | 44381
5 | 9:51.57 | 1:42.08 | 44382 | 52039
6 | 11:33.65 | 1:58.47 | 52040 | 60936
7 | 13:32.37 | 3:36.65 | 60937 | 77201
8 | 17:09.27 | 5:37.35 | 77202 | 102511
9 | 22:46.62 | 2:05.43 | 102512 | 111929
10 | 24:52.30 | 1:57.60 | 111930 | 120764
11 | 26:50.15 | 1:57.47 | 120765 | 129586
12 | 28:47.62 | 7:56.43 | 129587 | 165329
13 | 36:44.30 | 1:30.65 | 165330 | 172144
14 | 38:15.20 | 2:35.45 | 172145 | 183814
15 | 40:50.65 | 1:36.35 | 183815 | 191049
16 | 42:27.25 | 8:45.12 | 191050 | 230436
17 | 51:12.37 | 3:30.55 | 230437 | 246241
18 | 54:43.17 | 1:32.38 | 246242 | 253179
19 | 56:15.55 | 2:19.27 | 253180 | 263631
20 | 58:35.07 | 6:42.15 | 263632 | 293796
Range status and errors
Selected range
Filename F:\Musique\Shostakovich, Dmitri\Shostakovich_ComletePianoWorks_Petrushansky\CD3\Dmitri Shostakovich - Piano Works Complete CD 3 (Boris Petrushansky).wav
Peak level 91.9 %
Extraction speed 13.9 X
Range quality 99.9 %
Copy CRC 21CF36BE
Copy OK
No errors occurred
End of status report
==== Log checksum F62062E87730ADDA4A795989B0692275C4B994DBFEAC902689BD69106F738173 ====

CD 4

Exact Audio Copy V1.0 beta 3 from 29. August 2011
EAC extraction logfile from 11. July 2013, 0:28
Dmitri Shostakovich / Piano Works Complete CD 4 (Boris Petrushansky)
Used drive : TSSTcorpCDDVDW SH-S223C Adapter: 2 ID: 1
Read mode : Secure
Utilize accurate stream : Yes
Defeat audio cache : Yes
Make use of C2 pointers : No
Read offset correction : 697
Overread into Lead-In and Lead-Out : No
Fill up missing offset samples with silence : Yes
Delete leading and trailing silent blocks : No
Null samples used in CRC calculations : Yes
Used interface : Native Win32 interface for Win NT & 2000
Used output format : User Defined Encoder
Selected bitrate : 896 kBit/s
Quality : High
Add ID3 tag : No
Command line compressor : C:\Program Files (x86)\Exact Audio Copy\FLAC\FLAC.EXE
Additional command line options : -V -0 -T "COMMENT=Ripped by Tapaz9" -T "artist=%artist%" -T "title=%title%" -T "album=%albumtitle%" -T "date=%year%" -T "tracknumber=%tracknr%" -T "genre=%genre%" %source%
TOC of the extracted CD
Track | Start | Length | Start sector | End sector
---------------------------------------------------------
1 | 0:00.00 | 1:21.35 | 0 | 6109
2 | 1:21.35 | 2:08.40 | 6110 | 15749
3 | 3:30.00 | 4:48.35 | 15750 | 37384
4 | 8:18.35 | 4:10.22 | 37385 | 56156
5 | 12:28.57 | 2:59.60 | 56157 | 69641
6 | 15:28.42 | 7:16.13 | 69642 | 102354
7 | 22:44.55 | 6:24.12 | 102355 | 131166
8 | 29:08.67 | 4:07.05 | 131167 | 149696
9 | 33:15.72 | 2:58.63 | 149697 | 163109
10 | 36:14.60 | 1:50.05 | 163110 | 171364
11 | 38:04.65 | 4:17.07 | 171365 | 190646
12 | 42:21.72 | 10:28.05 | 190647 | 237751
13 | 52:50.02 | 2:18.35 | 237752 | 248136
14 | 55:08.37 | 3:53.13 | 248137 | 265624
Range status and errors
Selected range
Filename F:\Musique\Shostakovich, Dmitri\Shostakovich_ComletePianoWorks_Petrushansky\CD4\Dmitri Shostakovich - Piano Works Complete CD 4 (Boris Petrushansky).wav
Peak level 97.2 %
Extraction speed 14.9 X
Range quality 100.0 %
Copy CRC C9CF87BC
Copy OK
No errors occurred
End of status report
==== Log checksum 31E00D5F000FAFF36DCE95340A5A2518E8B5B63E704D77937C8D33F22B64E01B ====

CD 5

Exact Audio Copy V1.0 beta 3 from 29. August 2011
EAC extraction logfile from 11. July 2013, 0:40
Dmitri Shostakovich / Piano Works Complete CD 5 (Boris Petrushansky)
Used drive : TSSTcorpCDDVDW SH-S223C Adapter: 2 ID: 1
Read mode : Secure
Utilize accurate stream : Yes
Defeat audio cache : Yes
Make use of C2 pointers : No
Read offset correction : 697
Overread into Lead-In and Lead-Out : No
Fill up missing offset samples with silence : Yes
Delete leading and trailing silent blocks : No
Null samples used in CRC calculations : Yes
Used interface : Native Win32 interface for Win NT & 2000
Used output format : User Defined Encoder
Selected bitrate : 896 kBit/s
Quality : High
Add ID3 tag : No
Command line compressor : C:\Program Files (x86)\Exact Audio Copy\FLAC\FLAC.EXE
Additional command line options : -V -0 -T "COMMENT=Ripped by Tapaz9" -T "artist=%artist%" -T "title=%title%" -T "album=%albumtitle%" -T "date=%year%" -T "tracknumber=%tracknr%" -T "genre=%genre%" %source%
TOC of the extracted CD
Track | Start | Length | Start sector | End sector
---------------------------------------------------------
1 | 0:00.00 | 3:09.38 | 0 | 14212
2 | 3:09.38 | 4:51.07 | 14213 | 36044
3 | 8:00.45 | 3:35.43 | 36045 | 52212
4 | 11:36.13 | 3:06.25 | 52213 | 66187
5 | 14:42.38 | 6:25.45 | 66188 | 95107
6 | 21:08.08 | 8:17.05 | 95108 | 132387
7 | 29:25.13 | 1:18.48 | 132388 | 138285
8 | 30:43.61 | 2:51.24 | 138286 | 151134
9 | 33:35.10 | 2:18.05 | 151135 | 161489
10 | 35:53.15 | 5:03.00 | 161490 | 184214
11 | 40:56.15 | 4:37.13 | 184215 | 205002
12 | 45:33.28 | 4:10.49 | 205003 | 223801
13 | 49:44.02 | 4:10.60 | 223802 | 242611
14 | 53:54.62 | 7:05.38 | 242612 | 274524
Range status and errors
Selected range
Filename F:\Musique\Shostakovich, Dmitri\Shostakovich_ComletePianoWorks_Petrushansky\CD5\Dmitri Shostakovich - Piano Works Complete CD 5 (Boris Petrushansky).wav
Peak level 94.6 %
Extraction speed 14.9 X
Range quality 99.9 %
Copy CRC FB435FDE
Copy OK
No errors occurred
End of status report
==== Log checksum 20F8A3C4A0707BF961E5C913C08EC102B9F54179DC54C04CEB089DE8ECD98AA8 ====
[teatrix.ru].t9736.torrent 
Торрент: Зарегистрирован [ 2015-10-23 17:11 ] · 333914A61A888609AB9014EE9A875E7D3541A526

Скачать .torrent

Скачать

14 KB

Статус: проверено
Скачан: 0 раз
Размер: 1.09 GB
terms.php



Быстрый ответ

Имя:

      
Для отправки сообщений необходимо включить JavaScript
Показать сообщения:    

Текущее время: 06-Дек 15:10

Часовой пояс: UTC + 3


Вы можете начинать темы
Вы можете отвечать на сообщения
Вы не можете редактировать свои сообщения
Вы не можете удалять свои сообщения
Вы не можете голосовать в опросах
Вы не можете прикреплять файлы к сообщениям
Вы можете скачивать файлы