(Vocal) Hans Hotter - Lieder and Opera Scenes 1942-1973 (Schubert • Wolf • Loewe • Brahms • Strauss • Verdi • Bizet • Leoncavallo • Wagner) - 2002, FLAC (image+.cue) lossless


Статистика раздачи [Обновить пиров]
Размер:  922 MB   |    Зарегистрирован:  1 год 1 месяц   |    Скачан:  0 раз

Полного источника не было: Никогда

Личеров:  3  [  0 KB/s  ]   Подробная статистика пиров
 
   
 
 
 

[Цитировать]

hans hotter
lieder and opera scenes 1942-1973

schubert • wolf • loewe • brahms • strauss • verdi • bizet • leoncavallo • wagner-
-
-
-
- Жанр: Vocal
Страна-производитель диска: EU
Год издания диска: 2002
Издатель (лейбл): DGG
Дата записи: 1942-73
Аудиокодек: FLAC
Тип рипа: image+.cue
Битрейт аудио: lossless
Продолжительность: 3:54'59''
Источник: собственный рип
Наличие сканов в содержимом раздачи: да
Треклист:

CD1

Franz Schubert
Winterrreise, D 911:
[1] Gute Nacht
[2] Die Wetterfahne
[3] Gefrorne Tranen
[4] Erstarrung
[5] Der Lindenbaum
[6] Wasserflut
[7] Auf dem Flusse
[8] Ruckblick
[9] Irrlicht
[10] Rast
[11] Fruhlingstraum
[12] Einsamkeit
[13] Die Post
[14] Der greise Kopf
[15] Die Krahe
[16] Letzte Hoffnung
[17] Im Dorfe
[18] Der sturmische Morgen
[19] Tauschung
[20] Der Wegweiser
[21] Das Wirtshaus
[22] Mut!
[23] Die Nebensonnen
[24] Der Leiermann
[25] Gruppe aus dem Tartarus, D 583
[26] Im Fruhling, D 882
Erik Werba [1-24] Geoffrey Parsons [25-26] - piano

Лог создания рипа

Exact Audio Copy V1.0 beta 3 from 29. August 2011
EAC extraction logfile from 30. April 2013, 19:22
Hans Hotter / Lieder and Opera Scenes 1942-1973 (Disc 1)
Used drive : COMPAQ CD-ROM LTN403 Adapter: 0 ID: 0
Read mode : SecureUtilize accurate stream : YesDefeat audio cache : YesMake use of C2 pointers : No
Read offset correction : -1164Overread into Lead-In and Lead-Out : YesFill up missing offset samples with silence : YesDelete leading and trailing silent blocks : NoNull samples used in CRC calculations : YesUsed interface : Native Win32 interface for Win NT & 2000
Used output format : User Defined EncoderSelected bitrate : 128 kBit/sQuality : HighAdd ID3 tag : NoCommand line compressor : C:\Program Files\FLAC\flac.exeAdditional command line options : -T "COMMENT=rip by el coronel, rutracker.org" -8 -V %source%
TOC of the extracted CD
Track | Start | Length | Start sector | End sector --------------------------------------------------------- 1 | 0:00.00 | 5:43.00 | 0 | 25724 2 | 5:43.00 | 2:00.00 | 25725 | 34724 3 | 7:43.00 | 2:23.00 | 34725 | 45449 4 | 10:06.00 | 3:14.00 | 45450 | 59999 5 | 13:20.00 | 4:23.00 | 60000 | 79724 6 | 17:43.00 | 3:55.00 | 79725 | 97349 7 | 21:38.00 | 3:38.00 | 97350 | 113699 8 | 25:16.00 | 2:34.00 | 113700 | 125249 9 | 27:50.00 | 2:42.00 | 125250 | 137399 10 | 30:32.00 | 3:09.00 | 137400 | 151574 11 | 33:41.00 | 4:17.00 | 151575 | 170849 12 | 37:58.00 | 2:24.00 | 170850 | 181649 13 | 40:22.00 | 2:33.00 | 181650 | 193124 14 | 42:55.00 | 2:50.00 | 193125 | 205874 15 | 45:45.00 | 2:00.00 | 205875 | 214874 16 | 47:45.00 | 2:19.00 | 214875 | 225299 17 | 50:04.00 | 3:05.00 | 225300 | 239174 18 | 53:09.00 | 0:59.00 | 239175 | 243599 19 | 54:08.00 | 1:23.00 | 243600 | 249824 20 | 55:31.00 | 3:56.00 | 249825 | 267524 21 | 59:27.00 | 3:18.00 | 267525 | 282374 22 | 62:45.00 | 1:38.00 | 282375 | 289724 23 | 64:23.00 | 2:20.00 | 289725 | 300224 24 | 66:43.00 | 3:39.00 | 300225 | 316649 25 | 70:22.00 | 3:34.00 | 316650 | 332699 26 | 73:56.00 | 4:21.00 | 332700 | 352274
Range status and errors
Selected range
Filename C:\Documents and Settings\User.X-TEAM\Мои документы\Hans Hotter - Lieder and Opera Scenes 1942-1973 (Disc 1).wav
Peak level 97.3 % Extraction speed 3.0 X Range quality 99.9 % Test CRC F6321B70 Copy CRC F6321B70 Copy OK
No errors occurred
AccurateRip summary
Track 1 accurately ripped (confidence 4) [1682842E] (AR v1)Track 2 accurately ripped (confidence 4) [B9439E67] (AR v1)Track 3 accurately ripped (confidence 4) [77A44548] (AR v1)Track 4 accurately ripped (confidence 4) [770AB9F6] (AR v1)Track 5 accurately ripped (confidence 4) [01B1B05D] (AR v1)Track 6 accurately ripped (confidence 4) [E1B71495] (AR v1)Track 7 accurately ripped (confidence 4) [B1E83E88] (AR v1)Track 8 accurately ripped (confidence 4) [6693F449] (AR v1)Track 9 accurately ripped (confidence 4) [20EF0578] (AR v1)Track 10 accurately ripped (confidence 4) [D8687F7B] (AR v1)Track 11 accurately ripped (confidence 4) [3A28922C] (AR v1)Track 12 accurately ripped (confidence 4) [425834B8] (AR v1)Track 13 accurately ripped (confidence 4) [562ADDB1] (AR v1)Track 14 accurately ripped (confidence 4) [18320A07] (AR v1)Track 15 accurately ripped (confidence 4) [1A939FAA] (AR v1)Track 16 accurately ripped (confidence 4) [69B6699F] (AR v1)Track 17 accurately ripped (confidence 4) [1DF8552D] (AR v1)Track 18 accurately ripped (confidence 4) [9D67744C] (AR v1)Track 19 accurately ripped (confidence 4) [CB97631F] (AR v1)Track 20 accurately ripped (confidence 4) [EDA4F2AF] (AR v1)Track 21 accurately ripped (confidence 4) [260703F9] (AR v1)Track 22 accurately ripped (confidence 4) [E85F1404] (AR v1)Track 23 accurately ripped (confidence 4) [BB134EFC] (AR v1)Track 24 accurately ripped (confidence 4) [F35DDBE8] (AR v1)Track 25 accurately ripped (confidence 4) [29095EE4] (AR v1)Track 26 accurately ripped (confidence 4) [10D538ED] (AR v1)
All tracks accurately ripped
End of status report
==== Log checksum 343F99A948BBEF28040C73F39EEE66A8E75E7E97CCA1BEC2018640737729100E ====

Содержание индексной карты (.CUE)

REM GENRE VocalREM DATE 2002REM DISCID 6D12591AREM COMMENT "ExactAudioCopy v1.0b3"PERFORMER "Hans Hotter"TITLE "Lieder and Opera Scenes 1942-1973 (Disc 1)"FILE "Hans Hotter - Lieder and Opera Scenes 1942-1973 (Disc 1).flac" WAVE TRACK 01 AUDIO TITLE "F.Schubert - Winterrreise, D 911: Gute Nacht" PERFORMER "Hans Hotter, Erich Werba" INDEX 01 00:00:00 TRACK 02 AUDIO TITLE "Die Wetterfahne" PERFORMER "Hans Hotter, Erich Werba" INDEX 01 05:43:00 TRACK 03 AUDIO TITLE "Gefrorne Tranen" PERFORMER "Hans Hotter, Erich Werba" INDEX 01 07:43:00 TRACK 04 AUDIO TITLE "Erstarrung" PERFORMER "Hans Hotter, Erich Werba" INDEX 01 10:06:00 TRACK 05 AUDIO TITLE "Der Lindenbaum" PERFORMER "Hans Hotter, Erich Werba" INDEX 01 13:20:00 TRACK 06 AUDIO TITLE "Wasserflut" PERFORMER "Hans Hotter, Erich Werba" INDEX 01 17:43:00 TRACK 07 AUDIO TITLE "Auf dem Flusse" PERFORMER "Hans Hotter, Erich Werba" INDEX 01 21:38:00 TRACK 08 AUDIO TITLE "Ruckblick" PERFORMER "Hans Hotter, Erich Werba" INDEX 01 25:16:00 TRACK 09 AUDIO TITLE "Irrlicht" PERFORMER "Hans Hotter, Erich Werba" INDEX 01 27:50:00 TRACK 10 AUDIO TITLE "Rast" PERFORMER "Hans Hotter, Erich Werba" INDEX 01 30:32:00 TRACK 11 AUDIO TITLE "Fruhlingstraum" PERFORMER "Hans Hotter, Erich Werba" INDEX 01 33:41:00 TRACK 12 AUDIO TITLE "Einsamkeit" PERFORMER "Hans Hotter, Erich Werba" INDEX 01 37:58:00 TRACK 13 AUDIO TITLE "Die Post" PERFORMER "Hans Hotter, Erich Werba" INDEX 01 40:22:00 TRACK 14 AUDIO TITLE "Der greise Kopf" PERFORMER "Hans Hotter, Erich Werba" INDEX 01 42:55:00 TRACK 15 AUDIO TITLE "Die Krahe" PERFORMER "Hans Hotter, Erich Werba" INDEX 01 45:45:00 TRACK 16 AUDIO TITLE "Letzte Hoffnung" PERFORMER "Hans Hotter, Erich Werba" INDEX 01 47:45:00 TRACK 17 AUDIO TITLE "Im Dorfe" PERFORMER "Hans Hotter, Erich Werba" INDEX 01 50:04:00 TRACK 18 AUDIO TITLE "Der sturmische Morgen" PERFORMER "Hans Hotter, Erich Werba" INDEX 01 53:09:00 TRACK 19 AUDIO TITLE "Tauschung" PERFORMER "Hans Hotter, Erich Werba" INDEX 01 54:08:00 TRACK 20 AUDIO TITLE "Der Wegweiser" PERFORMER "Hans Hotter, Erich Werba" INDEX 01 55:31:00 TRACK 21 AUDIO TITLE "Das Wirtshaus" PERFORMER "Hans Hotter, Erich Werba" INDEX 01 59:27:00 TRACK 22 AUDIO TITLE "Mut!" PERFORMER "Hans Hotter, Erich Werba" INDEX 01 62:45:00 TRACK 23 AUDIO TITLE "Die Nebensonnen" PERFORMER "Hans Hotter, Erich Werba" INDEX 01 64:23:00 TRACK 24 AUDIO TITLE "Der Leiermann" PERFORMER "Hans Hotter, Erich Werba" INDEX 01 66:43:00 TRACK 25 AUDIO TITLE "F.Schubert - Gruppe aus dem Tartarus, D 583" PERFORMER "Hans Hotter, Geoffrey Parsons" INDEX 00 70:18:00 INDEX 01 70:22:00 TRACK 26 AUDIO TITLE "F.Schubert - Im Fruhling, D 882" PERFORMER "Hans Hotter, Geoffrey Parsons" INDEX 01 73:56:00

CD2

Franz Schubert
Schwanengesang, D 957:
[1] 1. Liebesbotschaft
[2] 11. Die Stadt
[3] 13. Der Doppelganger
[4] 14. Die Taubenpost
[5] Alinde, D 904
[6] An die Entfernte, D 765
Hugo WOLF
Lieder nach Gedichten von Eduard Morike:
[7] Der Tambour
[8] Nimmersatte Liebe
[9] Jagerlied
Italienisches Liederbuch:
[10] 7. Der Mond hat eine schwere Klag' erhoben
[11] 18. Heb auf dein blondes Haupt
[12] 27. Schon strecht' ich aus
[13] 22. Ein Standechen Euch zu bringen
Lieder nach Gedichten von Eduard Morike:
[14] Denk es, o Seele!
Drei Lieder nach Gedichten von Michelangelo:
[15] Wohl denk' ich oft an m...
[16] Alles endet, was entstehet
[17] Fuhlt meine Seele das ersehnte Licht
Spanisches Liederbuch, Teil II:
[18] 6. Wenn du zu den Blumen gehst
[19] Der Musikant
Spanisches Liederbuch, Teil II:
[20] 7. Wer sein holdes Lieb verloren
[21] Der Soldat I
[22] Anakreons Grab
[23] Der verzweifelte Liebhaber
Richard Strauss
[24] All mein' Gedanken, mein Herz und mein Sinn, Op.21 No.1
[25] Nachtgang, Op.29 No.3
[26] Du meines Herzens Kronelein, Op.21 No.2
[27] Gefunden, Op.56 No.1
[28] Himmelsboten, Op.32 No.5
[29] Ach, weh mir ungluckhaftem Mann, Op.21 No.4
Geoffrey Parsons - piano

Лог создания рипа

Exact Audio Copy V1.0 beta 3 from 29. August 2011
EAC extraction logfile from 30. April 2013, 20:22
Hans Hotter / Lieder and Opera Scenes 1942-1973 (Disc 2)
Used drive : COMPAQ CD-ROM LTN403 Adapter: 0 ID: 0
Read mode : SecureUtilize accurate stream : YesDefeat audio cache : YesMake use of C2 pointers : No
Read offset correction : -1164Overread into Lead-In and Lead-Out : YesFill up missing offset samples with silence : YesDelete leading and trailing silent blocks : NoNull samples used in CRC calculations : YesUsed interface : Native Win32 interface for Win NT & 2000
Used output format : User Defined EncoderSelected bitrate : 128 kBit/sQuality : HighAdd ID3 tag : NoCommand line compressor : C:\Program Files\FLAC\flac.exeAdditional command line options : -T "COMMENT=rip by el coronel, rutracker.org" -8 -V %source%
TOC of the extracted CD
Track | Start | Length | Start sector | End sector --------------------------------------------------------- 1 | 0:00.00 | 3:15.65 | 0 | 14689 2 | 3:15.65 | 2:56.68 | 14690 | 27957 3 | 6:12.58 | 4:23.07 | 27958 | 47689 4 | 10:35.65 | 3:47.00 | 47690 | 64714 5 | 14:22.65 | 4:44.74 | 64715 | 86088 6 | 19:07.64 | 2:35.72 | 86089 | 97785 7 | 21:43.61 | 2:30.03 | 97786 | 109038 8 | 24:13.64 | 2:19.00 | 109039 | 119463 9 | 26:32.64 | 1:06.71 | 119464 | 124484 10 | 27:39.60 | 1:45.00 | 124485 | 132359 11 | 29:24.60 | 2:06.05 | 132360 | 141814 12 | 31:30.65 | 1:58.71 | 141815 | 150735 13 | 33:29.61 | 1:20.74 | 150736 | 156809 14 | 34:50.60 | 3:09.72 | 156810 | 171056 15 | 38:00.57 | 2:04.73 | 171057 | 180429 16 | 40:05.55 | 4:47.04 | 180430 | 201958 17 | 44:52.59 | 4:39.74 | 201959 | 222957 18 | 49:32.58 | 2:52.00 | 222958 | 235857 19 | 52:24.58 | 1:47.01 | 235858 | 243883 20 | 54:11.59 | 2:18.74 | 243884 | 254307 21 | 56:30.58 | 1:25.07 | 254308 | 260689 22 | 57:55.65 | 2:59.66 | 260690 | 274180 23 | 60:55.56 | 1:01.74 | 274181 | 278829 24 | 61:57.55 | 1:24.15 | 278830 | 285144 25 | 63:21.70 | 3:03.69 | 285145 | 298938 26 | 66:25.64 | 2:10.68 | 298939 | 308756 27 | 68:36.57 | 2:15.74 | 308757 | 318955 28 | 70:52.56 | 3:16.73 | 318956 | 333728 29 | 74:09.54 | 2:21.21 | 333729 | 344324
Range status and errors
Selected range
Filename C:\Documents and Settings\User.X-TEAM\Мои документы\Hans Hotter - Lieder and Opera Scenes 1942-1973 (Disc 2).wav
Peak level 88.4 % Extraction speed 3.0 X Range quality 99.9 % Test CRC E50E2F8A Copy CRC E50E2F8A Copy OK
No errors occurred
AccurateRip summary
Track 1 cannot be verified as accurate (confidence 2) [A4D10A0C], AccurateRip returned [D17C1E66] (AR v2)Track 2 cannot be verified as accurate (confidence 2) [51A9D277], AccurateRip returned [09AF8C04] (AR v2)Track 3 cannot be verified as accurate (confidence 2) [2409FB87], AccurateRip returned [BCD7CF26] (AR v2)Track 4 cannot be verified as accurate (confidence 2) [1F9A2011], AccurateRip returned [2F040DBA] (AR v2)Track 5 cannot be verified as accurate (confidence 2) [15B85DD2], AccurateRip returned [E891AA86] (AR v2)Track 6 cannot be verified as accurate (confidence 2) [33C6DEA9], AccurateRip returned [C557B85D] (AR v2)Track 7 cannot be verified as accurate (confidence 2) [4B84FA2D], AccurateRip returned [488B5945] (AR v2)Track 8 cannot be verified as accurate (confidence 2) [E49A0B35], AccurateRip returned [011CC066] (AR v2)Track 9 cannot be verified as accurate (confidence 2) [31D8DC3D], AccurateRip returned [FF8773CF] (AR v2)Track 10 cannot be verified as accurate (confidence 2) [5DAA87DD], AccurateRip returned [CDC7E87D] (AR v2)Track 11 cannot be verified as accurate (confidence 2) [906F7F47], AccurateRip returned [8B30DADE] (AR v2)Track 12 cannot be verified as accurate (confidence 2) [219E0C5E], AccurateRip returned [B4F76F8D] (AR v2)Track 13 cannot be verified as accurate (confidence 2) [D9EC5A7C], AccurateRip returned [77902FF2] (AR v2)Track 14 cannot be verified as accurate (confidence 2) [D474713A], AccurateRip returned [5AD19AA1] (AR v2)Track 15 cannot be verified as accurate (confidence 2) [F6D8E0E5], AccurateRip returned [C307DC81] (AR v2)Track 16 cannot be verified as accurate (confidence 2) [D18664E3], AccurateRip returned [175CB30B] (AR v2)Track 17 cannot be verified as accurate (confidence 2) [D1C4BA36], AccurateRip returned [9F376130] (AR v2)Track 18 cannot be verified as accurate (confidence 2) [93621113], AccurateRip returned [FD25722E] (AR v2)Track 19 cannot be verified as accurate (confidence 2) [DA6DB37C], AccurateRip returned [F14C62E1] (AR v2)Track 20 cannot be verified as accurate (confidence 2) [ECF8563B], AccurateRip returned [6B48912F] (AR v2)Track 21 cannot be verified as accurate (confidence 2) [9621EC90], AccurateRip returned [518A7A3B] (AR v2)Track 22 cannot be verified as accurate (confidence 2) [E61E3293], AccurateRip returned [CEFE5C4F] (AR v2)Track 23 cannot be verified as accurate (confidence 2) [C502C2D9], AccurateRip returned [009B8981] (AR v2)Track 24 cannot be verified as accurate (confidence 2) [8C0C583B], AccurateRip returned [C74F22AD] (AR v2)Track 25 cannot be verified as accurate (confidence 2) [9242C2DE], AccurateRip returned [02ACDB4B] (AR v2)Track 26 cannot be verified as accurate (confidence 2) [E597A1D0], AccurateRip returned [1C9B9C43] (AR v2)Track 27 cannot be verified as accurate (confidence 2) [C45C5F9A], AccurateRip returned [859761F2] (AR v2)Track 28 cannot be verified as accurate (confidence 2) [C137C51A], AccurateRip returned [6F33286F] (AR v2)Track 29 cannot be verified as accurate (confidence 2) [D206C5B0], AccurateRip returned [AC2FAD89] (AR v2)
No tracks could be verified as accurateYou may have a different pressing from the one(s) in the database
End of status report
==== Log checksum C98707C56A0DA0425F046CFDBFC2CA3CB3FB0AD67B8217627DF4BDC13A638104 ====

Содержание индексной карты (.CUE)

REM GENRE VocalREM DATE 2002REM DISCID C911EF1DREM COMMENT "ExactAudioCopy v1.0b3"PERFORMER "Hans Hotter"TITLE "Lieder and Opera Scenes 1942-1973 (Disc 2)"FILE "Hans Hotter - Lieder and Opera Scenes 1942-1973 (Disc 2).flac" WAVE TRACK 01 AUDIO TITLE "F.Schubert - Schwanengesang, D 957: 1. Liebesbotschaft" PERFORMER "Hans Hotter, Geoffrey Parsons" INDEX 01 00:00:00 TRACK 02 AUDIO TITLE "11. Die Stadt" PERFORMER "Hans Hotter, Geoffrey Parsons" INDEX 01 03:15:65 TRACK 03 AUDIO TITLE "13. Der Doppelganger" PERFORMER "Hans Hotter, Geoffrey Parsons" INDEX 01 06:12:58 TRACK 04 AUDIO TITLE "14. Die Taubenpost" PERFORMER "Hans Hotter, Geoffrey Parsons" INDEX 01 10:35:65 TRACK 05 AUDIO TITLE "F.Schubert - Alinde, D 904" PERFORMER "Hans Hotter, Geoffrey Parsons" INDEX 01 14:22:65 TRACK 06 AUDIO TITLE "F.Schubert - An die Entfernte, D 765" PERFORMER "Hans Hotter, Geoffrey Parsons" INDEX 01 19:07:64 TRACK 07 AUDIO TITLE "H.Wolf - Lieder nach Gedichten von Eduard Morike: Der Tambour" PERFORMER "Hans Hotter, Geoffrey Parsons" INDEX 00 21:37:66 INDEX 01 21:43:61 TRACK 08 AUDIO TITLE "Nimmersatte Liebe" PERFORMER "Hans Hotter, Geoffrey Parsons" INDEX 01 24:13:64 TRACK 09 AUDIO TITLE "Jagerlied" PERFORMER "Hans Hotter, Geoffrey Parsons" INDEX 01 26:32:64 TRACK 10 AUDIO TITLE "H.Wolf - Italienisches Liederbuch: 7. Der Mond hat eine schwere Klag' erhoben" PERFORMER "Hans Hotter, Geoffrey Parsons" INDEX 01 27:39:60 TRACK 11 AUDIO TITLE "18. Heb auf dein blondes Haupt" PERFORMER "Hans Hotter, Geoffrey Parsons" INDEX 01 29:24:60 TRACK 12 AUDIO TITLE "27. Schon strecht' ich aus" PERFORMER "Hans Hotter, Geoffrey Parsons" INDEX 01 31:30:65 TRACK 13 AUDIO TITLE "22. Ein Standechen Euch zu bringen" PERFORMER "Hans Hotter, Geoffrey Parsons" INDEX 01 33:29:61 TRACK 14 AUDIO TITLE "H.Wolf - Lieder nach Gedichten von Eduard Morike: Denk es, o Seele!" PERFORMER "Hans Hotter, Geoffrey Parsons" INDEX 00 34:50:40 INDEX 01 34:50:60 TRACK 15 AUDIO TITLE "H.Wolf - Drei Lieder nach Gedichten von Michelangelo: Wohl denk' ich oft an m..." PERFORMER "Hans Hotter, Geoffrey Parsons" INDEX 01 38:00:57 TRACK 16 AUDIO TITLE "Alles endet, was entstehet" PERFORMER "Hans Hotter, Geoffrey Parsons" INDEX 01 40:05:55 TRACK 17 AUDIO TITLE "Fuhlt meine Seele das ersehnte Licht" PERFORMER "Hans Hotter, Geoffrey Parsons" INDEX 01 44:52:59 TRACK 18 AUDIO TITLE "H.Wolf - Spanisches Liederbuch, Teil II: 6. Wenn du zu den Blumen gehst" PERFORMER "Hans Hotter, Geoffrey Parsons" INDEX 00 49:32:38 INDEX 01 49:32:58 TRACK 19 AUDIO TITLE "Der Musikant" PERFORMER "Hans Hotter, Geoffrey Parsons" INDEX 01 52:24:58 TRACK 20 AUDIO TITLE "H.Wolf - Spanisches Liederbuch, Teil II: 7. Wer sein holdes Lieb verloren" PERFORMER "Hans Hotter, Geoffrey Parsons" INDEX 01 54:11:59 TRACK 21 AUDIO TITLE "Der Soldat I - Ist auch schmuck nicht mein Ro.lein" PERFORMER "Hans Hotter, Geoffrey Parsons" INDEX 00 56:30:38 INDEX 01 56:30:58 TRACK 22 AUDIO TITLE "H.Wolf - Anakreons Grab" PERFORMER "Hans Hotter, Geoffrey Parsons" INDEX 01 57:55:65 TRACK 23 AUDIO TITLE "H.Wolf - Der verzweifelte Liebhaber" PERFORMER "Hans Hotter, Geoffrey Parsons" INDEX 01 60:55:56 TRACK 24 AUDIO TITLE "R.Strauss - All mein' Gedanken, mein Herz und mein Sinn, Op.21 No.1" PERFORMER "Hans Hotter, Geoffrey Parsons" INDEX 00 61:54:00 INDEX 01 61:57:55 TRACK 25 AUDIO TITLE "R.Strauss - Nachtgang, Op.29 No.3" PERFORMER "Hans Hotter, Geoffrey Parsons" INDEX 01 63:21:70 TRACK 26 AUDIO TITLE "R.Strauss - Du meines Herzens Kronelein, Op.21 No.2" PERFORMER "Hans Hotter, Geoffrey Parsons" INDEX 01 66:25:64 TRACK 27 AUDIO TITLE "R.Strauss - Gefunden, Op.56 No.1" PERFORMER "Hans Hotter, Geoffrey Parsons" INDEX 01 68:36:57 TRACK 28 AUDIO TITLE "R.Strauss - Himmelsboten, Op.32 No.5" PERFORMER "Hans Hotter, Geoffrey Parsons" INDEX 00 70:52:36 INDEX 01 70:52:56 TRACK 29 AUDIO TITLE "R.Strauss - Ach, weh mir ungluckhaftem Mann, Op.21 No.4" PERFORMER "Hans Hotter, Geoffrey Parsons" INDEX 01 74:09:54

CD3

Carl Loewe
[1] Odins Meeresritt, Op.118
[2] Die wandelnde Glocke, Op.20 No.3
[3] Hochzeitlied, Op.20 No.1
[4] Hinkende Jamben, Op.62 Heft I No.5
Johannes Brahms
[5] Auf dem Kirchhofe, Op.105 No.4
[6] Ruhe, Su.liebchen, im Schatten, Op.33 No.9
[7] Mit vierzig Jahren, Op.94 No.1
Giuseppe Verdi
[8] Aida: 'Wehe, mein Vater' - 'Zu dir fuhrt mich ein ernster Grund'
[9] Othello: 'Ich glaube an einen Gott'
[10] Othello: 'Zur Nachtzeit war es'
Georges Bizet
[11] Carmen: 'Euren Gru. kann ich wohl erwidern'
Ruggero Leoncavallo
[12] Pagliacci: 'Schaut her, ich bin's'
Richard Wagner
[13] Der fliegende Hollander: 'Die Frist ist um'
[14] Die Meistersinger von Nurnberg: 'Was duftet doch der Flieder'
[15] Die Meistersinger von Nurnberg: 'Wahn, Wahn, uberall Wahn'
[16] Die Walkure: 'Leb wohl du kuhnes, herrliches Kind'
Geoffrey Parsons [1-7] - piano
Staatlisches Wiener Volksopernorchester - Argeo Quardi [8]
Bayerisches Staatsorchester - Heinrich Hollreiser [9-10, 13]
Orchester des Deutschen Opernhaus, Berlin - Artur Rother [11-12, 14]
Orchester des Staatsoper Berlin - Robert Heger [15-16]

Лог создания рипа

Exact Audio Copy V1.0 beta 3 from 29. August 2011
EAC extraction logfile from 30. April 2013, 21:20
Hans Hotter / Lieder and Opera Scenes 1942-1973 (Disc 3)
Used drive : COMPAQ CD-ROM LTN403 Adapter: 0 ID: 0
Read mode : SecureUtilize accurate stream : YesDefeat audio cache : YesMake use of C2 pointers : No
Read offset correction : -1164Overread into Lead-In and Lead-Out : YesFill up missing offset samples with silence : YesDelete leading and trailing silent blocks : NoNull samples used in CRC calculations : YesUsed interface : Native Win32 interface for Win NT & 2000
Used output format : User Defined EncoderSelected bitrate : 128 kBit/sQuality : HighAdd ID3 tag : NoCommand line compressor : C:\Program Files\FLAC\flac.exeAdditional command line options : -T "COMMENT=rip by el coronel, rutracker.org" -8 -V %source%
TOC of the extracted CD
Track | Start | Length | Start sector | End sector --------------------------------------------------------- 1 | 0:00.00 | 5:10.12 | 0 | 23261 2 | 5:10.12 | 2:03.00 | 23262 | 32486 3 | 7:13.12 | 5:23.00 | 32487 | 56711 4 | 12:36.12 | 1:02.00 | 56712 | 61361 5 | 13:38.12 | 2:54.00 | 61362 | 74411 6 | 16:32.12 | 5:33.00 | 74412 | 99386 7 | 22:05.12 | 3:59.63 | 99387 | 117374 8 | 26:05.00 | 7:20.00 | 117375 | 150374 9 | 33:25.00 | 4:24.00 | 150375 | 170174 10 | 37:49.00 | 3:10.00 | 170175 | 184424 11 | 40:59.00 | 3:06.00 | 184425 | 198374 12 | 44:05.00 | 4:41.00 | 198375 | 219449 13 | 48:46.00 | 8:49.00 | 219450 | 259124 14 | 57:35.00 | 6:46.50 | 259125 | 289624 15 | 64:21.50 | 7:04.25 | 289625 | 321449 16 | 71:26.00 | 8:45.00 | 321450 | 360824
Range status and errors
Selected range
Filename C:\Documents and Settings\User.X-TEAM\Мои документы\Hans Hotter - Lieder and Opera Scenes 1942-1973 (Disc 3).wav
Peak level 95.3 % Extraction speed 3.0 X Range quality 99.9 % Test CRC 52ACBAE3 Copy CRC 52ACBAE3 Copy OK
No errors occurred
AccurateRip summary
Track 1 not present in databaseTrack 2 not present in databaseTrack 3 not present in databaseTrack 4 not present in databaseTrack 5 not present in databaseTrack 6 not present in databaseTrack 7 not present in databaseTrack 8 not present in databaseTrack 9 not present in databaseTrack 10 not present in databaseTrack 11 not present in databaseTrack 12 not present in databaseTrack 13 not present in databaseTrack 14 not present in databaseTrack 15 not present in databaseTrack 16 not present in database
None of the tracks are present in the AccurateRip database
End of status report
==== Log checksum ECA4793A24AAA5760D5D5401525CC99B22A44D9696E1CF0666D3349B035F157F ====

Содержание индексной карты (.CUE)

REM GENRE VocalREM DATE 2002REM DISCID EF12CB10REM COMMENT "ExactAudioCopy v1.0b3"PERFORMER "Hans Hotter"TITLE "Lieder and Opera Scenes 1942-1973 (Disc 3)"FILE "Hans Hotter - Lieder and Opera Scenes 1942-1973 (Disc 3).flac" WAVE TRACK 01 AUDIO TITLE "C.Loewe - Odins Meeresritt, Op.118" PERFORMER "Hans Hotter, Geoffrey Parsons" INDEX 01 00:00:00 TRACK 02 AUDIO TITLE "C.Loewe - Die wandelnde Glocke, Op.20 No.3" PERFORMER "Hans Hotter, Geoffrey Parsons" INDEX 01 05:10:12 TRACK 03 AUDIO TITLE "C.Loewe - Hochzeitlied, Op.20 No.1" PERFORMER "Hans Hotter, Geoffrey Parsons" INDEX 01 07:13:12 TRACK 04 AUDIO TITLE "C.Loewe - Hinkende Jamben, Op.62 Heft I No.5" PERFORMER "Hans Hotter, Geoffrey Parsons" INDEX 01 12:36:12 TRACK 05 AUDIO TITLE "J.Brahms - Auf dem Kirchhofe, Op.105 No.4" PERFORMER "Hans Hotter, Geoffrey Parsons" INDEX 01 13:38:12 TRACK 06 AUDIO TITLE "J.Brahms - Ruhe, Su.liebchen, im Schatten, Op.33 No.9" PERFORMER "Hans Hotter, Geoffrey Parsons" INDEX 01 16:32:12 TRACK 07 AUDIO TITLE "J.Brahms - Mit vierzig Jahren, Op.94 No.1" PERFORMER "Hans Hotter, Geoffrey Parsons" INDEX 01 22:05:12 TRACK 08 AUDIO TITLE "G.Verdi - Aida: 'Wehe, mein Vater' - 'Zu dir fuhrt mich ein ernster Grund'" PERFORMER "Hans Hotter; Staatliches Wiener Volksopernorchester - Argeo Quardi" INDEX 00 26:01:00 INDEX 01 26:05:00 TRACK 09 AUDIO TITLE "G.Verdi - Othello: 'Ich glaube an einen Gott'" PERFORMER "Hans Hotter; Bayerisches Staatsorchester - Heinrich Hollreiser" INDEX 00 33:21:00 INDEX 01 33:25:00 TRACK 10 AUDIO TITLE "G.Verdi - Othello: 'Zur Nachtzeit war es'" PERFORMER "Hans Hotter; Bayerisches Staatsorchester - Heinrich Hollreiser" INDEX 00 37:45:00 INDEX 01 37:49:00 TRACK 11 AUDIO TITLE "G.Bizet - Carmen: 'Euren Gru. kann ich wohl erwidern'" PERFORMER "Hans Hotter; Chor und Orchester des Deutschen Opernhauses Berlin - Arthur Rother" INDEX 00 40:55:00 INDEX 01 40:59:00 TRACK 12 AUDIO TITLE "R.Leoncavallo - Pagliacci: 'Schaut her, ich bin's'" PERFORMER "Hans Hotter; Orchester des Deutschen Opernhauses Berlin - Arthur Rother" INDEX 00 44:01:00 INDEX 01 44:05:00 TRACK 13 AUDIO TITLE "R.Wagner - Der fliegende Hollander: 'Die Frist ist um'" PERFORMER "Hans Hotter; Bayerisches Staatsorchester - Heinrich Hollreiser" INDEX 00 48:42:00 INDEX 01 48:46:00 TRACK 14 AUDIO TITLE "R.Wagner - Die Meistersinger von Nurnberg: 'Was duftet doch der Flieder'" PERFORMER "Hans Hotter; Orchester des Deutschen Opernhauses Berlin - Arthur Rother" INDEX 00 57:31:00 INDEX 01 57:35:00 TRACK 15 AUDIO TITLE "R.Wagner - Die Meistersinger von Nurnberg: 'Wahn, Wahn, uberall Wahn'" PERFORMER "Hans Hotter; Orchester des Staatsoper Berlin - Robert Heger" INDEX 00 64:17:54 INDEX 01 64:21:50 TRACK 16 AUDIO TITLE "R.Wagner - Die Walkure: 'Leb wohl du kuhnes, herrliches Kind'" PERFORMER "Hans Hotter; Orchester des Staatsoper Berlin - Robert Heger" INDEX 00 71:22:00 INDEX 01 71:26:00
Исполнители:
Hans Hotter - bass-baritone
[teatrix.ru].t9737.torrent 
Торрент: Зарегистрирован [ 2015-10-23 17:11 ] · 192A2C0D4CFE219427F1E8D819DC79ABB6716F5A

Скачать .torrent

Скачать

19 KB

Статус: проверено
Скачан: 0 раз
Размер: 922 MB
terms.php



Быстрый ответ

Имя:

      
Для отправки сообщений необходимо включить JavaScript
Показать сообщения:    

Текущее время: 09-Дек 14:36

Часовой пояс: UTC + 3


Вы можете начинать темы
Вы можете отвечать на сообщения
Вы не можете редактировать свои сообщения
Вы не можете удалять свои сообщения
Вы не можете голосовать в опросах
Вы не можете прикреплять файлы к сообщениям
Вы можете скачивать файлы