(Classical) Beethoven Collection (Box Set 16 CD) - 1961-2010, FLAC (image+.cue) lossless


Статистика раздачи [Обновить пиров]
Размер:  4.61 GB   |    Зарегистрирован:  1 год 1 месяц   |    Скачан:  0 раз

Полного источника не было: Никогда

Личеров:  3  [  0 KB/s  ]   Подробная статистика пиров
 
   
 
 
 

[Цитировать]

Ludwig van Beethoven Collection (Box Set 16 CD)
Жанр: Classical
Страна-производитель диска: Germany / Italy
Год издания диска: 2010
Издатель (лейбл): Universal Music Italia srl / Deutsche Grammophon
Номер по каталогу: 480 3796
Дата записи: 1961-2010
Аудиокодек: FLAC
Тип рипа: image+.cue
Битрейт аудио: lossless
Продолжительность: 18:34:50
Источник: собственный рип
Наличие сканов в содержимом раздачи: да
Исполнители:
Herbert von Karajan, Ferdinand Leitner, Eugen Jochum, Ferenc Fricsay, Leonard Bernstein; Sviatoslav Richter, Wilhelm Kempff, Geza Anda, Daniel Barenboim, Amadeus Quartet (Quartetto Amadeus) and David Oistrakh; Berliner Philharmoniker, Royal Concertgebouw Orchestra, Radio-Symphonie-Orchester Berlin, Royal Philharmonic Orchestra,...
Треклист:
"CD 1-5: [ADD] 1963 Deutsche Grammophon GmbH, Hamburg (Berliner Philharmoniker; Herbert von Karajan)"

CD 1:

Symphony no.1 in C major, Op.21
1. Adagio molto - Allegro con brio 9:30
2. Andante cantabile con moto 5:50
3. Menuetto (Allegro molto e vivace) 3:56
4. Finale (Adagio - Allegro molto e vivace) 5:41
Symphony no.3 in E flat major, Op.55 -"Eroica"
1. Allegro con brio 14:43
2. Marcia funebre (Adagio assai) 17:05
3. Scherzo (Allegro vivace) 5:44
4. Finale (Allegro molto) 12:20

CD 2:

Symphony no.2 in D major, Op.36
1. Adagio molto - Allegro con brio 10:16
2. Larghetto 10:33
3. Scherzo (Allegro) 3:51
4. Allegro molto 6:18
Symphony no.4 in B flat major, Op.60
1. Adagio - Allegro vivace 9:49
2. Adagio 9:55
3. Allegro vivace 5:42
4. Allegro ma non troppo 5:23

CD 3:

Symphony No.5 in C minor, Op.67
1. Allegro con brio 7:14
2. Andante con moto 10:01
3. Allegro 4:55
4. Allegro 8:57
Symphony No.6 in F, Op.68 -"Pastoral"
1. Erwachen heiterer Empfindungen bei der Ankunft auf dem Lande: Allegro ma non troppo 8:57
2. Szene am Bach: (Andante molto mosso) 11:32
3. Lustiges Zusammensein der Landleute (Allegro) 3:02
4. Gewitter, Sturm (Allegro) 3:25
5. Hirtengesang. Frohe und dankbare Gefuhle nach dem Sturm: Allegretto 8:46

CD 4:

Symphony No. 7 in A major, Op. 92
1. Poco sostenuto - Vivace 11:23
2. Allegretto 7:57
3. Presto - Assai meno presto 7:48
4. Allegro con brio 6:36
Symphony No. 8 in F major, Op. 93
1. Allegro vivace e con brio 9:16
2. Allegretto scherzando 3:54
3. Tempo di menuetto 5:54
4. Allegro vivace 7:07

CD 5:

Symphony No.9 in D minor, Op.125 - "Choral"
1. Allegro ma non troppo, un poco maestoso 15:26
2. Molto vivace 10:58
3. Adagio molto e cantabile 16:25
4. Presto - 6:23
5. Presto- "O Freunde, nicht diese Tone!" -Allegro assai 17:35
Gundula Janowitz, Hilde Rossel Majdan, Waldemar Kmentt, Walter Berry, Wiener Singverein, Berliner Philharmoniker, Herbert von Karajan
CD 6-7: [ADD] 1962 Deutsche Grammophon GmbH, Hamburg (Wilhelm Kempff, pianoforte; Berliner Philharmoniker; Ferdinand Leitner)

CD 6:

Piano Concerto No.1 in C major, Op.15
Cadenza: Wilhelm Kempff
1. Allegro con brio - Cadenza: Beethoven/Wilhelm Kempff 14:30
2. Largo 12:05
3. Rondo. Allegro scherzando - Cadenza: Wilhelm Kempff 9:26
Piano Concerto No.2 in B flat major, Op.19
Cadenza: Wilhelm Kempff
1. Allegro con brio - Cadenza: Wilhelm Kempff 13:13
2. Adagio 9:01
3. Rondo (Molto allegro) 6:26

CD 7:

Piano Concerto No.3 in C minor, Op.37
1. Allegro con brio 16:12
2. Largo 8:59
3. Rondo. Allegro 3. Rondo. Allegro - Cadenza: Wilhelm Kempff 9:28
Piano Concerto No.4 in G, Op.58
1. Allegro moderato 17:14
2. Andante con moto 4:51
3. Rondo. Vivace 3. Rondo. Allegro - Cadenza: Wilhelm Kempff 10:28
CD 8-9: [ADD] 1961 (op. 56); 1962 Deutsche Grammophon GmbH, Hamburg (Wilhelm Kempff, pianoforte; Berliner Philharmoniker; Ferdinand Leitner / GezaAnda, pianoforte; Wolfgang Schneiderhan, violino; Pierre Foumier, violoncello; Radio-Symphonle-Orchester Berlin; Ferenc Fricsay / Wolfgang Schneiderhan, violino; Berliner Philharmoniker; Eugen Jochum / David Oistrakh, violino; Royal Philharmonic Orchestra; Sir Eugene Goosens)

CD 8:

Piano Concerto No.5 in E flat major Op.73 -"Emperor"
1. Allegro 20:16
2. Adagio un poco mosso 7:34
3. Rondo (Allegro) 10:37
Wilhelm Kempff, Berliner Philharmoniker, Ferdinand Leitner
Concerto for Piano, Violin, and Cello in C, Op.56
1. Allegro 18:15
2. Largo - attacca: 5:03
3. Rondo alla Polacca 13:38
Geza Anda, Wolfgang Schneiderhan, Pierre Fournier, Radio-Symphonie-Orchester Berlin, Ferenc Fricsay

CD 9:

Violin Concerto In D, Op.61
Cadenzas by Wolfgang Schneiderhan
1. Allegro ma non troppo 24:35
2. Larghetto 10:48
3. Rondo. Allegro 10:54
Wolfgang Schneiderhan, Berliner Philharmoniker, Eugen Jochum
Violin Romance No.1 in G major, Op.40 7:23
Violin Romance No.2 in F major, Op.50 8:46
David Oistrakh, Royal Philharmonic Orchestra, Eugene Goossens
CD 10: [ADD]/[DDD] 2009 Universal Music Italia srl (Gianluca Cascioli, pianoforte)

CD 10:

Piano Sonata No.14 in C sharp minor, Op.27 No.2 -"Moonlight" -
1. Adagio sostenuto 4:36
2. Allegretto 2:34
3. Presto agitato 8:06
Piano Sonata No.17 in D minor, Op.31 No.2 -"Tempest"
1. Largo - Allegro 8:43
2. Adagio 6:50
3. Allegretto 7:16
Piano Variations and Fugue in E flat, Op.35 -"Eroica Variations"
Introduction col basso del Tema 3:52
Variation 1 0:38
Variation 2 0:57
Variation 3 0:45
Variation 4 0:38
Variation 5 0:58
Variation 6 0:35
Variation 7 Canone all'Ottava 0:42
Variation 8 0:50
Variation 10 0:43
Variation 11 0:51
Variation 12 0:48
Variation 13 0:45
Variation 14 Minore 1:18
Variation 15 Maggiore. Largo 4:54
Finale. Alla Fuga. Allegro con brio 5:22
CD 11: [DDD] 1984 Deutsche Grammophon GmbH, Hamburg (Daniel Barenboim, pianoforte)

CD 11:

Piano Sonata No. 8 in C minor ("Pathétique"), Op. 13
1.Grave - Allegro di molto e con brio 9:29
2.Andante cantabile 5:20
3.Rondo, Allegro 4:48
Piano Sonata No. 21 in C major ("Waldstein"), Op. 53
1.Allegro con brio 11:31
2.Introduction, Adagio molto 4:38
3.Rondo, Allegretto moderato 11:21
Piano Sonata No. 23 in F minor ("Appassionata"), Op. 57
1.Allegro assai 10:39
2.Andante con moto 7:34
3.Allegro ma non troppo 8:19
CD 12: [DDD] 1988 Universal International Music B.V. (track 4-36){Philips 422 416-2}/ Sviatoslav Rlchter, pianoforte /; 2010 Universal Music Italia srl (track 1)/ Roberto Prosseda /; 1999 Deutsche Grammophon GmbH, Hamburg (track 2); 1997 Deutsche Grammophon GmbH, Hamburg (track 3) (Gianluca Cascioli, pianoforte)

CD 12:

Fur Elise 03:23
Roberto Prosseda
Andante in F major, WoO 57 "Andante favori" 9:04
Turkish March / The Ruins of Athens, Op.113
arr. for piano by Anton Rubinstein (1830 - 1894) 2:10

Gianluca Cascioli, pianoforte
Variations (33) on a waltz by Diabelli, for piano in C major ("Diabelli Variations"), Op. 120
Tema: Vivace - I. Alla marcia maestoso
II. Poco Allegro
III. L'istesso tempo
IV. Un poco piщ vivace
V. Allegro vivace
VI. Allegro ma non troppo e serioso
VII. Un poco piщ allegro
VIII. Poco vivace
IX. Allegro pesante e risoluto
X. Presto
XI. Allegretto
XII. Un poco piщ moto
XIII. Vivace
XIV. Grave e maestoso
XV. Presto scherzando
XVI. Allegro
XVII. --
XVIII. Poco moderato
XIX. Presto
XX. Andante
XXI. Allegro con brio - Meno Allegro
XXII. Allegro molto (alla 'Notte e giorno faticar' di Mozart)
XXIII. Allegro assai
XXIV. Fughetta (Andante)
XXV. Allegro
XXVI. --
XXVII. Vivace
XXVIII. Allegro
XXIX. Adagio ma non troppo
XXX. Andante sempre cantabile
XXXI. Largo, molto espressivo
XXXII. Fuga (Allegro - Poco adagio)
XXXIII. Tempo di minuetto moderato
Sviatoslav Richter (piano) - Amsterdam, June 17, 1986
CD 13: [DDD] 2009 Universal Music Italia s.r.l (Sonig Tchakerian, violino; Roberto Prosseda, pianoforte)

CD 13:

Sonata for Violin and Piano No.9 in A, Op.47 - "Kreutzer"
1. Adagio sostenuto - Presto 13:19
2. Andante con variazioni 14:57
3. Finale (Presto) 8:03
Sonata for Violin and Piano No.4 in A minor, Op.23
1. Presto 7:04
2. Andante scherzoso, più allegretto 7:35
3. Allegro molto 5:07
Sonata for Violin and Piano No.5 in F, Op.24 - "Spring"
1. Allegro 9:02
2. Adagio molto espressivo 5:35
3. Scherzo (Allegro molto) 1:06
4. Rondo (Allegro ma non troppo) 6:05
CD 14: [DDD] 2005 Universal Music Italia s.r.l. (Enrico Dindo, violoncello; Pietro De Maria, pianoforte)

CD 14:

Sonata for Piano and Violoncello op.5, No.1 in F major
1. Adagio sostenuto - allegro 16:59
2. Rondo. Allegro vivace 6:35
Sonata for Piano and Violoncello op.5, No.2 in G minor
1. Adagio sostenuto e espressivo - Allegro molto più tosto presto 15:30
2. Rondo. Allegro 8:24
Sonata for Cello and Piano No.3 in A, Op.69
1. Allegro ma non tanto 12:58
2. Scherzo (Allegro molto) 5:26
3. Adagio cantabile - Allegro vivace 8:18
CD 15: [ADD] 1962 (Op. 130,133), 1963 (Op. 1963) Deutsche Grammophon GmbH, Hamburg (Amadeus Quartet)

CD 15:

String Quartet No.13 in B flat, Op.130
1. Adagio ma non troppo - Allegro [08:31]
2. Presto [01:54]
3. Andante con moto ma non troppo. Poco scherzando [06:08]
4. Alla danza tedesca (Allegro assai) [02:41]
5. Cavatina ( Adagio molto espressivo) [06:32]
6. Finale (Allegro) [07:27]
Grosse Fuge in B flat, Op.133
1. Overtura (Allegro) - Meno mosso e moderato - Allegro - Fuga [04:41]
2. Meno mosso e moderato - Allegro molto e con brio [02:54]
3. Allegro molto e con brio - meno mosso e moderato [03:30]
4. Meno mosso e moderato [01:02]
5. Allegro molto e con brio [01:51]
6. Allegro [01:27]
String Quartet No.16 in F, Op.135
1. Allegretto [06:42]
2. Vivace [03:24]
3. Lento assai, cantante e tranquillo [08:10]
4. Der schwer gefaßte Entschluß (Grave - Allegro - Grave ma non troppo tratto - Allegro) [07:03]
CD 16: |ADD] 1979 Deutsche Grammophon GmbH, Hamburg (Edda Moser, soprano; Hanna Schwarz, contralto; Rene Hollo, tenore; Kurt Moll, basso; Radio Chorus of the N.O.S., Hilversum Meindert Boekl, maestro del coro Hemamm Krebbers, viollno solista; Bernard Bartelink, organo; Royal Concertgebouw Orchestra; Leonard Bernstein)

CD 16:

Mass in D, Op.123 "Missa Solemnis"
1.Kyrie: Kyrie eleison 3:53
2.Kyrie: Christe eleison 2:02
3.Kyrie: Kyrie eleison 4:21
4.Gloria: Gloria in excelsis Deo 4:48
5.Gloria: Qui tollis peccata mundi 6:28
6.Gloria: Quoniam tu solus sanctus 1:13
7. Gloria: In gloria Dei Patris, Amen 2:56
8. Gloria: Amen - Quoniam tu solus sanctus 2:22
9.Credo: Credo in unum Deum 4:08
10. Credo: Et incarnatus est 5:57
11. Credo: Et ascendit in coelum 5:21
12. Credo: Et vitam venturi saeculi 1:42
13. Credo: Amen 3:13
14. Sanctus: Sanctus Dominus Deus Sabaoth 2:58
15. Sanctus: Pleni sunt coeli 1:07
16. Sanctus: Praeludium 2:13
17. Sanctus: Benedictus 10:35
18. Agnus Dei: Agnus Dei 6:53
19. Agnus Dei: Dona nobis pacem 2:11
20. Agnus Dei: Agnus Dei 3:01
21. Agnus Dei: Presto 3:53
Edda Moser, Hanna Schwarz, Rene Kollo, Kurt Moll, Royal Concertgebouw Orchestra, Leonard Bernstein, Bernard Bartelink, Netherlands Broadcasting Foundation Chorus, Hilversum, Meindert Boekel

Лог создания рипа CD1

Exact Audio Copy V1.0 beta 3 from 29. August 2011
Отчёт EAC об извлечении, выполненном 22. мая 2013, 19:13
Beethoven Collection (16 CD) / Disc 1
Дисковод: Optiarc DVD RW AD-7170A Adapter: 3 ID: 0
Режим чтения : ДостоверностьИспользование точного потока : ДаОтключение кэша аудио : ДаИспользование указателей C2 : Нет
Коррекция смещения при чтении : 48Способность читать области Lead-in и Lead-out : НетЗаполнение пропущенных сэмплов тишиной : ДаУдаление блоков с тишиной в начале и конце : НетПри вычислениях CRC использовались нулевые сэмплы : ДаИнтерфейс : Встроенный Win32-интерфейс для Win NT/2000
Выходной формат : Пользовательский кодировщикВыбранный битрейт : 1024 kBit/sКачество : ВысокийДобавление ID3-тега : НетУтилита сжатия : C:\Program Files\Exact Audio Copy\FLAC\FLAC.EXEДополнительные параметры : -8 -V -T "ARTIST=%artist%" -T "TITLE=%title%" -T "ALBUM=%albumtitle%" -T "DATE=%year%" -T "TRACKNUMBER=%tracknr%" -T "GENRE=%genre%" -T "COMMENT=%comment%" -T "BAND=%albuminterpret%" -T "ALBUMARTIST=%albuminterpret%" -T "COMPOSER=%composer%" %haslyrics%--tag-from-file=LYRICS="%lyricsfile%"%haslyrics% -T "DISCNUMBER=%cdnumber%" -T "TOTALDISCS=%totalcds%" -T "TOTALTRACKS=%numtracks%" %hascover%--picture="%coverfile%"%hascover% %source% -o %dest%
TOC извлечённого CD
Трек | Старт | Длительность | Начальный сектор | Конечный сектор --------------------------------------------------------------------- 1 | 0:00.33 | 9:33.50 | 33 | 43057 2 | 9:34.08 | 5:53.50 | 43058 | 69582 3 | 15:27.58 | 3:57.50 | 69583 | 87407 4 | 19:25.33 | 5:51.25 | 87408 | 113757 5 | 25:16.58 | 14:48.50 | 113758 | 180407 6 | 40:05.33 | 17:10.25 | 180408 | 257682 7 | 57:15.58 | 5:48.00 | 257683 | 283782 8 | 63:03.58 | 12:20.00 | 283783 | 339282
Характеристики диапазона извлечения и сообщения об ошибках
Выбранный диапазон
Имя файла D:\EAC\rutracker\Beethoven Collection (16 CD)\CD01\Beethoven Collection (16 CD) - Disc 1.wav
Пиковый уровень 90.6 % Скорость извлечения 8.6 X Качество диапазона 100.0 % CRC копии 3EB8E070 Копирование... OK
Ошибок не произошло
AccurateRip: сводка
Трек 1 : извлечено точно (доверие 7) [DB6372F6] (AR v2)Трек 2 : извлечено точно (доверие 7) [7539DD35] (AR v2)Трек 3 : извлечено точно (доверие 7) [805A5EED] (AR v2)Трек 4 : извлечено точно (доверие 7) [3DF7A044] (AR v2)Трек 5 : извлечено точно (доверие 7) [DCA2FF45] (AR v2)Трек 6 : извлечено точно (доверие 7) [B91058C5] (AR v2)Трек 7 : извлечено точно (доверие 7) [0A5BBCDC] (AR v2)Трек 8 : извлечено точно (доверие 6) [DD59721A] (AR v2)
Все треки извлечены точно
Конец отче та

Лог создания рипа CD2

Exact Audio Copy V1.0 beta 3 from 29. August 2011
Отчёт EAC об извлечении, выполненном 22. мая 2013, 19:29
Beethoven Collection (16 CD) / Disc 2
Дисковод: Optiarc DVD RW AD-7170A Adapter: 3 ID: 0
Режим чтения : ДостоверностьИспользование точного потока : ДаОтключение кэша аудио : ДаИспользование указателей C2 : Нет
Коррекция смещения при чтении : 48Способность читать области Lead-in и Lead-out : НетЗаполнение пропущенных сэмплов тишиной : ДаУдаление блоков с тишиной в начале и конце : НетПри вычислениях CRC использовались нулевые сэмплы : ДаИнтерфейс : Встроенный Win32-интерфейс для Win NT/2000
Выходной формат : Пользовательский кодировщикВыбранный битрейт : 1024 kBit/sКачество : ВысокийДобавление ID3-тега : НетУтилита сжатия : C:\Program Files\Exact Audio Copy\FLAC\FLAC.EXEДополнительные параметры : -8 -V -T "ARTIST=%artist%" -T "TITLE=%title%" -T "ALBUM=%albumtitle%" -T "DATE=%year%" -T "TRACKNUMBER=%tracknr%" -T "GENRE=%genre%" -T "COMMENT=%comment%" -T "BAND=%albuminterpret%" -T "ALBUMARTIST=%albuminterpret%" -T "COMPOSER=%composer%" %haslyrics%--tag-from-file=LYRICS="%lyricsfile%"%haslyrics% -T "DISCNUMBER=%cdnumber%" -T "TOTALDISCS=%totalcds%" -T "TOTALTRACKS=%numtracks%" %hascover%--picture="%coverfile%"%hascover% %source% -o %dest%
TOC извлечённого CD
Трек | Старт | Длительность | Начальный сектор | Конечный сектор --------------------------------------------------------------------- 1 | 0:00.33 | 10:21.50 | 33 | 46657 2 | 10:22.08 | 10:36.62 | 46658 | 94419 3 | 20:58.70 | 3:53.38 | 94420 | 111932 4 | 24:52.33 | 6:28.00 | 111933 | 141032 5 | 31:20.33 | 9:54.37 | 141033 | 185619 6 | 41:14.70 | 9:58.63 | 185620 | 230532 7 | 51:13.58 | 5:45.50 | 230533 | 256457 8 | 56:59.33 | 5:23.00 | 256458 | 280682
Характеристики диапазона извлечения и сообщения об ошибках
Выбранный диапазон
Имя файла D:\EAC\rutracker\Beethoven Collection (16 CD)\CD02\Beethoven Collection (16 CD) - Disc 2.wav
Пиковый уровень 91.2 % Скорость извлечения 7.5 X Качество диапазона 99.9 % CRC копии C87D2919 Копирование... OK
Ошибок не произошло
AccurateRip: сводка
Трек 1 : извлечено точно (доверие 8) [B8076A14] (AR v2)Трек 2 : извлечено точно (доверие 8) [B80421F2] (AR v2)Трек 3 : извлечено точно (доверие 8) [562A85CD] (AR v2)Трек 4 : извлечено точно (доверие 7) [F585CC0E] (AR v2)Трек 5 : извлечено точно (доверие 8) [C43C1296] (AR v2)Трек 6 : извлечено точно (доверие 8) [7F2403E1] (AR v2)Трек 7 : извлечено точно (доверие 8) [9E83A506] (AR v2)Трек 8 : извлечено точно (доверие 7) [492AD05B] (AR v2)
Все треки извлечены точно
Конец отчёта

Лог создания рипа CD3

Exact Audio Copy V1.0 beta 3 from 29. August 2011
Отчёт EAC об извлечении, выполненном 22. мая 2013, 20:03
Beethoven Collection (16 CD) / Disc 3
Дисковод: Optiarc DVD RW AD-7170A Adapter: 3 ID: 0
Режим чтения : ДостоверностьИспользование точного потока : ДаОтключение кэша аудио : ДаИспользование указателей C2 : Нет
Коррекция смещения при чтении : 48Способность читать области Lead-in и Lead-out : НетЗаполнение пропущенных сэмплов тишиной : ДаУдаление блоков с тишиной в начале и конце : НетПри вычислениях CRC использовались нулевые сэмплы : ДаИнтерфейс : Встроенный Win32-интерфейс для Win NT/2000
Выходной формат : Пользовательский кодировщикВыбранный битрейт : 1024 kBit/sКачество : ВысокийДобавление ID3-тега : НетУтилита сжатия : C:\Program Files\Exact Audio Copy\FLAC\FLAC.EXEДополнительные параметры : -8 -V -T "ARTIST=%artist%" -T "TITLE=%title%" -T "ALBUM=%albumtitle%" -T "DATE=%year%" -T "TRACKNUMBER=%tracknr%" -T "GENRE=%genre%" -T "COMMENT=%comment%" -T "BAND=%albuminterpret%" -T "ALBUMARTIST=%albuminterpret%" -T "COMPOSER=%composer%" %haslyrics%--tag-from-file=LYRICS="%lyricsfile%"%haslyrics% -T "DISCNUMBER=%cdnumber%" -T "TOTALDISCS=%totalcds%" -T "TOTALTRACKS=%numtracks%" %hascover%--picture="%coverfile%"%hascover% %source% -o %dest%
TOC извлечённого CD
Трек | Старт | Длительность | Начальный сектор | Конечный сектор --------------------------------------------------------------------- 1 | 0:00.33 | 7:19.00 | 33 | 32957 2 | 7:19.33 | 10:05.00 | 32958 | 78332 3 | 17:24.33 | 4:54.65 | 78333 | 100447 4 | 22:19.23 | 9:07.10 | 100448 | 141482 5 | 31:26.33 | 9:01.00 | 141483 | 182057 6 | 40:27.33 | 11:36.00 | 182058 | 234257 7 | 52:03.33 | 3:02.27 | 234258 | 247934 8 | 55:05.60 | 3:25.35 | 247935 | 263344 9 | 58:31.20 | 8:46.13 | 263345 | 302807
Характеристики диапазона извлечения и сообщения об ошибках
Выбранный диапазон
Имя файла D:\EAC\rutracker\Beethoven Collection (16 CD)\CD03\Beethoven Collection (16 CD) - Disc 3.wav
Пиковый уровень 93.3 % Скорость извлечения 8.2 X Качество диапазона 99.9 % CRC копии 4CF363C7 Копирование... OK
Ошибок не произошло
AccurateRip: сводка
Трек 1 точность не определена (достоверность 91) [A0712AFC], AccurateRip вернул [AA9DE404] (AR v2)Трек 2 точность не определена (достоверность 89) [D670A74E], AccurateRip вернул [2BC0429B] (AR v2)Трек 3 точность не определена (достоверность 89) [848DF5F5], AccurateRip вернул [45E0E55D] (AR v2)Трек 4 точность не определена (достоверность 88) [A2526B28], AccurateRip вернул [E245678A] (AR v2)Трек 5 точность не определена (достоверность 90) [5242DEB7], AccurateRip вернул [52DED97F] (AR v2)Трек 6 точность не определена (достоверность 89) [97F01CBC], AccurateRip вернул [AAF655CC] (AR v2)Трек 7 точность не определена (достоверность 90) [2D94C6A3], AccurateRip вернул [2E9B0B02] (AR v2)Трек 8 точность не определена (достоверность 90) [858B3EB7], AccurateRip вернул [C0B4F054] (AR v2)Трек 9 точность не определена (достоверность 89) [D8804706], AccurateRip вернул [AC69CC36] (AR v2)
Ни один трек не прошёл проверки на точностьВ вашей базе может быть иной вариант штамповки диска
Конец отчёта

Лог создания рипа CD4

Exact Audio Copy V1.0 beta 3 from 29. August 2011
Отчёт EAC об извлечении, выполненном 22. мая 2013, 19:48
Beethoven Collection (16 CD) / Disc 4
Дисковод: Optiarc DVD RW AD-7170A Adapter: 3 ID: 0
Режим чтения : ДостоверностьИспользование точного потока : ДаОтключение кэша аудио : ДаИспользование указателей C2 : Нет
Коррекция смещения при чтении : 48Способность читать области Lead-in и Lead-out : НетЗаполнение пропущенных сэмплов тишиной : ДаУдаление блоков с тишиной в начале и конце : НетПри вычислениях CRC использовались нулевые сэмплы : ДаИнтерфейс : Встроенный Win32-интерфейс для Win NT/2000
Выходной формат : Пользовательский кодировщикВыбранный битрейт : 1024 kBit/sКачество : ВысокийДобавление ID3-тега : НетУтилита сжатия : C:\Program Files\Exact Audio Copy\FLAC\FLAC.EXEДополнительные параметры : -8 -V -T "ARTIST=%artist%" -T "TITLE=%title%" -T "ALBUM=%albumtitle%" -T "DATE=%year%" -T "TRACKNUMBER=%tracknr%" -T "GENRE=%genre%" -T "COMMENT=%comment%" -T "BAND=%albuminterpret%" -T "ALBUMARTIST=%albuminterpret%" -T "COMPOSER=%composer%" %haslyrics%--tag-from-file=LYRICS="%lyricsfile%"%haslyrics% -T "DISCNUMBER=%cdnumber%" -T "TOTALDISCS=%totalcds%" -T "TOTALTRACKS=%numtracks%" %hascover%--picture="%coverfile%"%hascover% %source% -o %dest%
TOC извлечённого CD
Трек | Старт | Длительность | Начальный сектор | Конечный сектор --------------------------------------------------------------------- 1 | 0:00.33 | 11:27.35 | 33 | 51592 2 | 11:27.68 | 8:01.32 | 51593 | 87699 3 | 19:29.25 | 7:50.20 | 87700 | 122969 4 | 27:19.45 | 6:46.38 | 122970 | 153457 5 | 34:06.08 | 9:20.42 | 153458 | 195499 6 | 43:26.50 | 3:58.35 | 195500 | 213384 7 | 47:25.10 | 5:58.15 | 213385 | 240249 8 | 53:23.25 | 7:06.48 | 240250 | 272247
Характеристики диапазона извлечения и сообщения об ошибках
Выбранный диапазон
Имя файла D:\EAC\rutracker\Beethoven Collection (16 CD)\CD04\Beethoven Collection (16 CD) - Disc 4.wav
Пиковый уровень 97.2 % Скорость извлечения 5.2 X Качество диапазона 100.0 % CRC копии A5D0110F Копирование... OK
Ошибок не произошло
AccurateRip: сводка
Трек 1 : извлечено точно (доверие 6) [6F06A3F0] (AR v2)Трек 2 : извлечено точно (доверие 6) [9AE9743F] (AR v2)Трек 3 : извлечено точно (доверие 6) [1924FD55] (AR v2)Трек 4 : извлечено точно (доверие 6) [CE723FFD] (AR v2)Трек 5 : извлечено точно (доверие 6) [3115B767] (AR v2)Трек 6 : извлечено точно (доверие 6) [1A4CB49F] (AR v2)Трек 7 : извлечено точно (доверие 6) [8117B16B] (AR v2)Трек 8 : извлечено точно (доверие 6) [F85AB90C] (AR v2)
Все треки извлечены точно
Конец отчёта

Лог создания рипа CD5

Exact Audio Copy V1.0 beta 3 from 29. August 2011
Отчёт EAC об извлечении, выполненном 23. мая 2013, 18:30
Beethoven Collection (16 CD) / Disc 5
Дисковод: Optiarc DVD RW AD-7170A Adapter: 3 ID: 0
Режим чтения : ДостоверностьИспользование точного потока : ДаОтключение кэша аудио : ДаИспользование указателей C2 : Нет
Коррекция смещения при чтении : 48Способность читать области Lead-in и Lead-out : НетЗаполнение пропущенных сэмплов тишиной : ДаУдаление блоков с тишиной в начале и конце : НетПри вычислениях CRC использовались нулевые сэмплы : ДаИнтерфейс : Встроенный Win32-интерфейс для Win NT/2000
Выходной формат : Пользовательский кодировщикВыбранный битрейт : 1024 kBit/sКачество : ВысокийДобавление ID3-тега : НетУтилита сжатия : C:\Program Files\Exact Audio Copy\FLAC\FLAC.EXEДополнительные параметры : -8 -V -T "ARTIST=%artist%" -T "TITLE=%title%" -T "ALBUM=%albumtitle%" -T "DATE=%year%" -T "TRACKNUMBER=%tracknr%" -T "GENRE=%genre%" -T "COMMENT=%comment%" -T "BAND=%albuminterpret%" -T "ALBUMARTIST=%albuminterpret%" -T "COMPOSER=%composer%" %haslyrics%--tag-from-file=LYRICS="%lyricsfile%"%haslyrics% -T "DISCNUMBER=%cdnumber%" -T "TOTALDISCS=%totalcds%" -T "TOTALTRACKS=%numtracks%" %hascover%--picture="%coverfile%"%hascover% %source% -o %dest%
TOC извлечённого CD
Трек | Старт | Длительность | Начальный сектор | Конечный сектор --------------------------------------------------------------------- 1 | 0:00.33 | 15:32.37 | 33 | 69969 2 | 15:32.70 | 11:03.00 | 69970 | 119694 3 | 26:35.70 | 16:28.00 | 119695 | 193794 4 | 43:03.70 | 6:22.50 | 193795 | 222494 5 | 49:26.45 | 17:34.63 | 222495 | 301607
Характеристики диапазона извлечения и сообщения об ошибках
Выбранный диапазон
Имя файла D:\EAC\rutracker\Beethoven Collection (16 CD)\CD05\Beethoven Collection (16 CD) - Disc 5.wav
Пиковый уровень 94.4 % Скорость извлечения 8.2 X Качество диапазона 99.9 % CRC копии 09C40810 Копирование... OK
Ошибок не произошло
AccurateRip: сводка
Трек 1 точность не определена (достоверность 53) [7BE867AB], AccurateRip вернул [C804587A] (AR v2)Трек 2 точность не определена (достоверность 53) [CAB553AC], AccurateRip вернул [A06D10BE] (AR v2)Трек 3 точность не определена (достоверность 53) [528A9B29], AccurateRip вернул [7FD6B812] (AR v2)Трек 4 точность не определена (достоверность 53) [D7B4BDFC], AccurateRip вернул [4A6A7F4D] (AR v2)Трек 5 точность не определена (достоверность 53) [CBD5F143], AccurateRip вернул [CF1D6B1D] (AR v2)
Ни один трек не прошёл проверки на точностьВ вашей базе может быть иной вариант штамповки диска
Конец отчёта

Лог создания рипа CD6

Exact Audio Copy V1.0 beta 3 from 29. August 2011
Отчёт EAC об извлечении, выполненном 23. мая 2013, 19:04
Beethoven Collection (16 CD) / Disc 6
Дисковод: Optiarc DVD RW AD-7170A Adapter: 3 ID: 0
Режим чтения : ДостоверностьИспользование точного потока : ДаОтключение кэша аудио : ДаИспользование указателей C2 : Нет
Коррекция смещения при чтении : 48Способность читать области Lead-in и Lead-out : НетЗаполнение пропущенных сэмплов тишиной : ДаУдаление блоков с тишиной в начале и конце : НетПри вычислениях CRC использовались нулевые сэмплы : ДаИнтерфейс : Встроенный Win32-интерфейс для Win NT/2000
Выходной формат : Пользовательский кодировщикВыбранный битрейт : 1024 kBit/sКачество : ВысокийДобавление ID3-тега : НетУтилита сжатия : C:\Program Files\Exact Audio Copy\FLAC\FLAC.EXEДополнительные параметры : -8 -V -T "ARTIST=%artist%" -T "TITLE=%title%" -T "ALBUM=%albumtitle%" -T "DATE=%year%" -T "TRACKNUMBER=%tracknr%" -T "GENRE=%genre%" -T "COMMENT=%comment%" -T "BAND=%albuminterpret%" -T "ALBUMARTIST=%albuminterpret%" -T "COMPOSER=%composer%" %haslyrics%--tag-from-file=LYRICS="%lyricsfile%"%haslyrics% -T "DISCNUMBER=%cdnumber%" -T "TOTALDISCS=%totalcds%" -T "TOTALTRACKS=%numtracks%" %hascover%--picture="%coverfile%"%hascover% %source% -o %dest%
TOC извлечённого CD
Трек | Старт | Длительность | Начальный сектор | Конечный сектор --------------------------------------------------------------------- 1 | 0:00.00 | 14:31.00 | 0 | 65324 2 | 14:31.00 | 12:05.00 | 65325 | 119699 3 | 26:36.00 | 9:37.00 | 119700 | 162974 4 | 36:13.00 | 13:13.00 | 162975 | 222449 5 | 49:26.00 | 9:01.00 | 222450 | 263024 6 | 58:27.00 | 6:26.00 | 263025 | 291974
Характеристики диапазона извлечения и сообщения об ошибках
Выбранный диапазон
Имя файла D:\EAC\rutracker\Beethoven Collection (16 CD)\CD06\Beethoven Collection (16 CD) - Disc 6.wav
Пиковый уровень 96.5 % Скорость извлечения 7.7 X Качество диапазона 99.9 % CRC копии A158DBEE Копирование... OK
Ошибок не произошло
AccurateRip: сводка
Трек 1 : извлечено точно (доверие 4) [8C20E868] (AR v1)Трек 2 : извлечено точно (доверие 5) [957C4A49] (AR v1)Трек 3 : извлечено точно (доверие 5) [9DEC7BC9] (AR v1)Трек 4 : извлечено точно (доверие 5) [0BCA4B2D] (AR v1)Трек 5 : извлечено точно (доверие 5) [3DD61FA3] (AR v1)Трек 6 : извлечено точно (доверие 5) [80867E49] (AR v1)
Все треки извлечены точно
Конец отчёта

Лог создания рипа CD7

Exact Audio Copy V1.0 beta 3 from 29. August 2011
Отчёт EAC об извлечении, выполненном 23. мая 2013, 19:22
Beethoven Collection (16 CD) / Disc 7
Дисковод: Optiarc DVD RW AD-7170A Adapter: 3 ID: 0
Режим чтения : ДостоверностьИспользование точного потока : ДаОтключение кэша аудио : ДаИспользование указателей C2 : Нет
Коррекция смещения при чтении : 48Способность читать области Lead-in и Lead-out : НетЗаполнение пропущенных сэмплов тишиной : ДаУдаление блоков с тишиной в начале и конце : НетПри вычислениях CRC использовались нулевые сэмплы : ДаИнтерфейс : Встроенный Win32-интерфейс для Win NT/2000
Выходной формат : Пользовательский кодировщикВыбранный битрейт : 1024 kBit/sКачество : ВысокийДобавление ID3-тега : НетУтилита сжатия : C:\Program Files\Exact Audio Copy\FLAC\FLAC.EXEДополнительные параметры : -8 -V -T "ARTIST=%artist%" -T "TITLE=%title%" -T "ALBUM=%albumtitle%" -T "DATE=%year%" -T "TRACKNUMBER=%tracknr%" -T "GENRE=%genre%" -T "COMMENT=%comment%" -T "BAND=%albuminterpret%" -T "ALBUMARTIST=%albuminterpret%" -T "COMPOSER=%composer%" %haslyrics%--tag-from-file=LYRICS="%lyricsfile%"%haslyrics% -T "DISCNUMBER=%cdnumber%" -T "TOTALDISCS=%totalcds%" -T "TOTALTRACKS=%numtracks%" %hascover%--picture="%coverfile%"%hascover% %source% -o %dest%
TOC извлечённого CD
Трек | Старт | Длительность | Начальный сектор | Конечный сектор --------------------------------------------------------------------- 1 | 0:00.00 | 16:12.00 | 0 | 72899 2 | 16:12.00 | 9:00.00 | 72900 | 113399 3 | 25:12.00 | 9:36.00 | 113400 | 156599 4 | 34:48.00 | 17:17.00 | 156600 | 234374 5 | 52:05.00 | 4:49.00 | 234375 | 256049 6 | 56:54.00 | 10:32.00 | 256050 | 303449
Характеристики диапазона извлечения и сообщения об ошибках
Выбранный диапазон
Имя файла D:\EAC\rutracker\Beethoven Collection (16 CD)\CD07\Beethoven Collection (16 CD) - Disc 7.wav
Пиковый уровень 99.9 % Скорость извлечения 8.1 X Качество диапазона 99.9 % CRC копии 66712932 Копирование... OK
Ошибок не произошло
AccurateRip: сводка
Трек 1 : извлечено точно (доверие 3) [A7E0832F] (AR v1)Трек 2 : извлечено точно (доверие 3) [2D4D3902] (AR v1)Трек 3 : извлечено точно (доверие 3) [EA036591] (AR v1)Трек 4 : извлечено точно (доверие 2) [2C65CBEA] (AR v1)Трек 5 : извлечено точно (доверие 2) [045D39C2] (AR v1)Трек 6 : извлечено точно (доверие 2) [9A3BEC78] (AR v1)
Все треки извлечены точно
Конец отчёта

Лог создания рипа CD8

Exact Audio Copy V1.0 beta 3 from 29. August 2011
Отчёт EAC об извлечении, выполненном 27. мая 2013, 19:04
Beethoven Collection (16 CD) / Disc 8
Дисковод: Optiarc DVD RW AD-7170A Adapter: 3 ID: 0
Режим чтения : ДостоверностьИспользование точного потока : ДаОтключение кэша аудио : ДаИспользование указателей C2 : Нет
Коррекция смещения при чтении : 48Способность читать области Lead-in и Lead-out : НетЗаполнение пропущенных сэмплов тишиной : ДаУдаление блоков с тишиной в начале и конце : НетПри вычислениях CRC использовались нулевые сэмплы : ДаИнтерфейс : Встроенный Win32-интерфейс для Win NT/2000
Выходной формат : Пользовательский кодировщикВыбранный битрейт : 1024 kBit/sКачество : ВысокийДобавление ID3-тега : НетУтилита сжатия : C:\Program Files\Exact Audio Copy\FLAC\FLAC.EXEДополнительные параметры : -8 -V -T "ARTIST=%artist%" -T "TITLE=%title%" -T "ALBUM=%albumtitle%" -T "DATE=%year%" -T "TRACKNUMBER=%tracknr%" -T "GENRE=%genre%" -T "COMMENT=%comment%" -T "BAND=%albuminterpret%" -T "ALBUMARTIST=%albuminterpret%" -T "COMPOSER=%composer%" %haslyrics%--tag-from-file=LYRICS="%lyricsfile%"%haslyrics% -T "DISCNUMBER=%cdnumber%" -T "TOTALDISCS=%totalcds%" -T "TOTALTRACKS=%numtracks%" %hascover%--picture="%coverfile%"%hascover% %source% -o %dest%
TOC извлечённого CD
Трек | Старт | Длительность | Начальный сектор | Конечный сектор --------------------------------------------------------------------- 1 | 0:00.00 | 20:16.00 | 0 | 91199 2 | 20:16.00 | 7:34.13 | 91200 | 125262 3 | 27:50.13 | 10:45.62 | 125263 | 173699 4 | 38:36.00 | 18:15.00 | 173700 | 255824 5 | 56:51.00 | 5:02.58 | 255825 | 278532 6 | 61:53.58 | 13:38.17 | 278533 | 339899
Характеристики диапазона извлечения и сообщения об ошибках
Выбранный диапазон
Имя файла D:\EAC\rutracker\Beethoven Collection (16 CD)\CD08\Beethoven Collection (16 CD) - Disc 8.wav
Пиковый уровень 99.6 % Скорость извлечения 5.9 X Качество диапазона 100.0 % CRC теста 11F6B283 CRC копии 11F6B283 Копирование... OK
Ошибок не произошло
AccurateRip: сводка
Трек 1 : извлечено точно (доверие 3) [FABCE290] (AR v1)Трек 2 : извлечено точно (доверие 4) [9C85B40D] (AR v1)Трек 3 : извлечено точно (доверие 4) [2E810102] (AR v1)Трек 4 : извлечено точно (доверие 5) [E9E83102] (AR v1)Трек 5 : извлечено точно (доверие 5) [9325ECBD] (AR v1)Трек 6 : извлечено точно (доверие 5) [0FA28D8A] (AR v1)
Все треки извлечены точно
Конец отчёта

Лог создания рипа CD9

Exact Audio Copy V1.0 beta 3 from 29. August 2011
Отчёт EAC об извлечении, выполненном 27. мая 2013, 19:30
Beethoven Collection (16 CD) / Disc 9
Дисковод: Optiarc DVD RW AD-7170A Adapter: 3 ID: 0
Режим чтения : ДостоверностьИспользование точного потока : ДаОтключение кэша аудио : ДаИспользование указателей C2 : Нет
Коррекция смещения при чтении : 48Способность читать области Lead-in и Lead-out : НетЗаполнение пропущенных сэмплов тишиной : ДаУдаление блоков с тишиной в начале и конце : НетПри вычислениях CRC использовались нулевые сэмплы : ДаИнтерфейс : Встроенный Win32-интерфейс для Win NT/2000
Выходной формат : Пользовательский кодировщикВыбранный битрейт : 1024 kBit/sКачество : ВысокийДобавление ID3-тега : НетУтилита сжатия : C:\Program Files\Exact Audio Copy\FLAC\FLAC.EXEДополнительные параметры : -8 -V -T "ARTIST=%artist%" -T "TITLE=%title%" -T "ALBUM=%albumtitle%" -T "DATE=%year%" -T "TRACKNUMBER=%tracknr%" -T "GENRE=%genre%" -T "COMMENT=%comment%" -T "BAND=%albuminterpret%" -T "ALBUMARTIST=%albuminterpret%" -T "COMPOSER=%composer%" %haslyrics%--tag-from-file=LYRICS="%lyricsfile%"%haslyrics% -T "DISCNUMBER=%cdnumber%" -T "TOTALDISCS=%totalcds%" -T "TOTALTRACKS=%numtracks%" %hascover%--picture="%coverfile%"%hascover% %source% -o %dest%
TOC извлечённого CD
Трек | Старт | Длительность | Начальный сектор | Конечный сектор --------------------------------------------------------------------- 1 | 0:00.33 | 24:35.00 | 33 | 110657 2 | 24:35.33 | 10:48.00 | 110658 | 159257 3 | 35:23.33 | 11:01.00 | 159258 | 208832 4 | 46:24.33 | 7:23.00 | 208833 | 242057 5 | 53:47.33 | 8:46.00 | 242058 | 281507
Характеристики диапазона извлечения и сообщения об ошибках
Выбранный диапазон
Имя файла D:\EAC\rutracker\Beethoven Collection (16 CD)\CD09\Beethoven Collection (16 CD) - Disc 9.wav
Пиковый уровень 99.3 % Скорость извлечения 7.4 X Качество диапазона 99.9 % CRC теста 224E2B3D CRC копии 224E2B3D Копирование... OK
Ошибок не произошло
AccurateRip: сводка
Трек 1 : извлечено точно (доверие 1) [1A56CC08] (AR v1)Трек 2 : извлечено точно (доверие 1) [985F2EE7] (AR v1)Трек 3 : извлечено точно (доверие 1) [3A06A29C] (AR v1)Трек 4 : извлечено точно (доверие 1) [26C2C51D] (AR v1)Трек 5 : извлечено точно (доверие 1) [35DCD353] (AR v1)
Все треки извлечены точно
Конец отчёта

Лог создания рипа CD10

Exact Audio Copy V1.0 beta 3 from 29. August 2011
Отчёт EAC об извлечении, выполненном 27. мая 2013, 21:04
Beethoven Collection (16 CD) / Disc10
Дисковод: Optiarc DVD RW AD-7170A Adapter: 3 ID: 0
Режим чтения : ДостоверностьИспользование точного потока : ДаОтключение кэша аудио : ДаИспользование указателей C2 : Нет
Коррекция смещения при чтении : 48Способность читать области Lead-in и Lead-out : НетЗаполнение пропущенных сэмплов тишиной : ДаУдаление блоков с тишиной в начале и конце : НетПри вычислениях CRC использовались нулевые сэмплы : ДаИнтерфейс : Встроенный Win32-интерфейс для Win NT/2000
Выходной формат : Пользовательский кодировщикВыбранный битрейт : 1024 kBit/sКачество : ВысокийДобавление ID3-тега : НетУтилита сжатия : C:\Program Files\Exact Audio Copy\FLAC\FLAC.EXEДополнительные параметры : -8 -V -T "ARTIST=%artist%" -T "TITLE=%title%" -T "ALBUM=%albumtitle%" -T "DATE=%year%" -T "TRACKNUMBER=%tracknr%" -T "GENRE=%genre%" -T "COMMENT=%comment%" -T "BAND=%albuminterpret%" -T "ALBUMARTIST=%albuminterpret%" -T "COMPOSER=%composer%" %haslyrics%--tag-from-file=LYRICS="%lyricsfile%"%haslyrics% -T "DISCNUMBER=%cdnumber%" -T "TOTALDISCS=%totalcds%" -T "TOTALTRACKS=%numtracks%" %hascover%--picture="%coverfile%"%hascover% %source% -o %dest%
TOC извлечённого CD
Трек | Старт | Длительность | Начальный сектор | Конечный сектор --------------------------------------------------------------------- 1 | 0:00.00 | 4:36.42 | 0 | 20741 2 | 4:36.42 | 2:34.15 | 20742 | 32306 3 | 7:10.57 | 8:06.10 | 32307 | 68766 4 | 15:16.67 | 8:43.43 | 68767 | 108034 5 | 24:00.35 | 6:50.66 | 108035 | 138850 6 | 30:51.26 | 7:16.05 | 138851 | 171555 7 | 38:07.31 | 3:52.45 | 171556 | 189000 8 | 42:00.01 | 0:38.67 | 189001 | 191917 9 | 42:38.68 | 0:57.26 | 191918 | 196218 10 | 43:36.19 | 0:45.19 | 196219 | 199612 11 | 44:21.38 | 0:37.72 | 199613 | 202459 12 | 44:59.35 | 0:58.42 | 202460 | 206851 13 | 45:58.02 | 0:35.42 | 206852 | 209518 14 | 46:33.44 | 0:42.59 | 209519 | 212727 15 | 47:16.28 | 0:50.28 | 212728 | 216505 16 | 48:06.56 | 0:40.03 | 216506 | 219508 17 | 48:46.59 | 0:43.33 | 219509 | 222766 18 | 49:30.17 | 0:51.70 | 222767 | 226661 19 | 50:22.12 | 0:48.60 | 226662 | 230321 20 | 51:10.72 | 0:45.13 | 230322 | 233709 21 | 51:56.10 | 1:18.50 | 233710 | 239609 22 | 53:14.60 | 4:54.37 | 239610 | 261696 23 | 58:09.22 | 5:22.50 | 261697 | 285896
Характеристики диапазона извлечения и сообщения об ошибках
Выбранный диапазон
Имя файла D:\EAC\rutracker\Beethoven Collection (16 CD)\CD10\Beethoven Collection (16 CD) - Disc10.wav
Пиковый уровень 97.3 % Скорость извлечения 7.3 X Качество диапазона 99.9 % CRC теста 60EE1361 CRC копии 60EE1361 Копирование... OK
Ошибок не произошло
AccurateRip: сводка
Трек 1 отсутствует в базе данныхТрек 2 отсутствует в базе данныхТрек 3 отсутствует в базе данныхТрек 4 отсутствует в базе данныхТрек 5 отсутствует в базе данныхТрек 6 отсутствует в базе данныхТрек 7 отсутствует в базе данныхТрек 8 отсутствует в базе данныхТрек 9 отсутствует в базе данныхТрек 10 отсутствует в базе данныхТрек 11 отсутствует в базе данныхТрек 12 отсутствует в базе данныхТрек 13 отсутствует в базе данныхТрек 14 отсутствует в базе данныхТрек 15 отсутствует в базе данныхТрек 16 отсутствует в базе данныхТрек 17 отсутствует в базе данныхТрек 18 отсутствует в базе данныхТрек 19 отсутствует в базе данныхТрек 20 отсутствует в базе данныхТрек 21 отсутствует в базе данныхТрек 22 отсутствует в базе данныхТрек 23 отсутствует в базе данных
Ни одного трека нет в базе AccurateRip
Конец отчёта

Лог создания рипа CD11

Exact Audio Copy V1.0 beta 3 from 29. August 2011
Отчёт EAC об извлечении, выполненном 27. мая 2013, 21:28
Beethoven Collection (16 CD) / Disc11
Дисковод: Optiarc DVD RW AD-7170A Adapter: 3 ID: 0
Режим чтения : ДостоверностьИспользование точного потока : ДаОтключение кэша аудио : ДаИспользование указателей C2 : Нет
Коррекция смещения при чтении : 48Способность читать области Lead-in и Lead-out : НетЗаполнение пропущенных сэмплов тишиной : ДаУдаление блоков с тишиной в начале и конце : НетПри вычислениях CRC использовались нулевые сэмплы : ДаИнтерфейс : Встроенный Win32-интерфейс для Win NT/2000
Выходной формат : Пользовательский кодировщикВыбранный битрейт : 1024 kBit/sКачество : ВысокийДобавление ID3-тега : НетУтилита сжатия : C:\Program Files\Exact Audio Copy\FLAC\FLAC.EXEДополнительные параметры : -8 -V -T "ARTIST=%artist%" -T "TITLE=%title%" -T "ALBUM=%albumtitle%" -T "DATE=%year%" -T "TRACKNUMBER=%tracknr%" -T "GENRE=%genre%" -T "COMMENT=%comment%" -T "BAND=%albuminterpret%" -T "ALBUMARTIST=%albuminterpret%" -T "COMPOSER=%composer%" %haslyrics%--tag-from-file=LYRICS="%lyricsfile%"%haslyrics% -T "DISCNUMBER=%cdnumber%" -T "TOTALDISCS=%totalcds%" -T "TOTALTRACKS=%numtracks%" %hascover%--picture="%coverfile%"%hascover% %source% -o %dest%
TOC извлечённого CD
Трек | Старт | Длительность | Начальный сектор | Конечный сектор --------------------------------------------------------------------- 1 | 0:00.00 | 9:29.30 | 0 | 42704 2 | 9:29.30 | 5:20.35 | 42705 | 66739 3 | 14:49.65 | 4:50.20 | 66740 | 88509 4 | 19:40.10 | 11:31.62 | 88510 | 140396 5 | 31:11.72 | 4:38.65 | 140397 | 161311 6 | 35:50.62 | 11:25.35 | 161312 | 212721 7 | 47:16.22 | 10:39.45 | 212722 | 260691 8 | 57:55.67 | 7:34.67 | 260692 | 294808 9 | 65:30.59 | 8:15.16 | 294809 | 331949
Характеристики диапазона извлечения и сообщения об ошибках
Выбранный диапазон
Имя файла D:\EAC\rutracker\Beethoven Collection (16 CD)\CD11\Beethoven Collection (16 CD) - Disc11.wav
Пиковый уровень 98.8 % Скорость извлечения 8.4 X Качество диапазона 99.9 % CRC теста BDAB7CC4 CRC копии BDAB7CC4 Копирование... OK
Ошибок не произошло
AccurateRip: сводка
Трек 1 отсутствует в базе данныхТрек 2 отсутствует в базе данныхТрек 3 отсутствует в базе данныхТрек 4 отсутствует в базе данныхТрек 5 отсутствует в базе данныхТрек 6 отсутствует в базе данныхТрек 7 отсутствует в базе данныхТрек 8 отсутствует в базе данныхТрек 9 отсутствует в базе данных
Ни одного трека нет в базе AccurateRip
Конец отчёта

Лог создания рипа CD12

Exact Audio Copy V1.0 beta 3 from 29. August 2011
Отчёт EAC об извлечении, выполненном 25. мая 2013, 16:35
Beethoven Collection (16 CD) / Disc 12
Дисковод: Optiarc DVD RW AD-7170A Adapter: 3 ID: 0
Режим чтения : ДостоверностьИспользование точного потока : ДаОтключение кэша аудио : ДаИспользование указателей C2 : Нет
Коррекция смещения при чтении : 48Способность читать области Lead-in и Lead-out : НетЗаполнение пропущенных сэмплов тишиной : ДаУдаление блоков с тишиной в начале и конце : НетПри вычислениях CRC использовались нулевые сэмплы : ДаИнтерфейс : Встроенный Win32-интерфейс для Win NT/2000
Выходной формат : Пользовательский кодировщикВыбранный битрейт : 1024 kBit/sКачество : ВысокийДобавление ID3-тега : НетУтилита сжатия : C:\Program Files\Exact Audio Copy\FLAC\FLAC.EXEДополнительные параметры : -8 -V -T "ARTIST=%artist%" -T "TITLE=%title%" -T "ALBUM=%albumtitle%" -T "DATE=%year%" -T "TRACKNUMBER=%tracknr%" -T "GENRE=%genre%" -T "COMMENT=%comment%" -T "BAND=%albuminterpret%" -T "ALBUMARTIST=%albuminterpret%" -T "COMPOSER=%composer%" %haslyrics%--tag-from-file=LYRICS="%lyricsfile%"%haslyrics% -T "DISCNUMBER=%cdnumber%" -T "TOTALDISCS=%totalcds%" -T "TOTALTRACKS=%numtracks%" %hascover%--picture="%coverfile%"%hascover% %source% -o %dest%
TOC извлечённого CD
Трек | Старт | Длительность | Начальный сектор | Конечный сектор --------------------------------------------------------------------- 1 | 0:00.00 | 3:25.07 | 0 | 15381 2 | 3:25.07 | 9:06.38 | 15382 | 56369 3 | 12:31.45 | 2:10.30 | 56370 | 66149 4 | 14:42.00 | 3:20.50 | 66150 | 81199 5 | 18:02.50 | 0:56.08 | 81200 | 85407 6 | 18:58.58 | 1:20.15 | 85408 | 91422 7 | 20:18.73 | 1:00.52 | 91423 | 95974 8 | 21:19.50 | 0:53.53 | 95975 | 100002 9 | 22:13.28 | 1:43.47 | 100003 | 107774 10 | 23:57.00 | 1:09.70 | 107775 | 113019 11 | 25:06.70 | 1:03.00 | 113020 | 117744 12 | 26:09.70 | 1:36.73 | 117745 | 125017 13 | 27:46.68 | 0:40.65 | 125018 | 128082 14 | 28:27.58 | 1:10.20 | 128083 | 133352 15 | 29:38.03 | 0:48.12 | 133353 | 136964 16 | 30:26.15 | 1:12.65 | 136965 | 142429 17 | 31:39.05 | 3:46.43 | 142430 | 159422 18 | 35:25.48 | 0:39.35 | 159423 | 162382 19 | 36:05.08 | 0:57.65 | 162383 | 166722 20 | 37:02.73 | 1:00.72 | 166723 | 171294 21 | 38:03.70 | 2:10.30 | 171295 | 181074 22 | 40:14.25 | 0:54.45 | 181075 | 185169 23 | 41:08.70 | 2:43.43 | 185170 | 197437 24 | 43:52.38 | 1:39.42 | 197438 | 204904 25 | 45:32.05 | 0:49.43 | 204905 | 208622 26 | 46:21.48 | 0:58.10 | 208623 | 212982 27 | 47:19.58 | 3:08.05 | 212983 | 227087 28 | 50:27.63 | 0:46.57 | 227088 | 230594 29 | 51:14.45 | 0:50.00 | 230595 | 234344 30 | 52:04.45 | 0:59.08 | 234345 | 238777 31 | 53:03.53 | 0:53.55 | 238778 | 242807 32 | 53:57.33 | 1:03.25 | 242808 | 247557 33 | 55:00.58 | 1:56.67 | 247558 | 256324 34 | 56:57.50 | 3:47.63 | 256325 | 273412 35 | 60:45.38 | 3:00.52 | 273413 | 286964 36 | 63:46.15 | 3:09.62 | 286965 | 301201
Характеристики диапазона извлечения и сообщения об ошибках
Выбранный диапазон
Имя файла D:\EAC\rutracker\Beethoven Collection (16 CD)\CD12\Beethoven Collection (16 CD) - Disc 12.wav
Пиковый уровень 98.8 % Скорость извлечения 7.9 X Качество диапазона 99.9 % CRC копии 3198F440 Копирование... OK
Ошибок не произошло
AccurateRip: сводка
Трек 1 отсутствует в базе данныхТрек 2 отсутствует в базе данныхТрек 3 отсутствует в базе данныхТрек 4 отсутствует в базе данныхТрек 5 отсутствует в базе данныхТрек 6 отсутствует в базе данныхТрек 7 отсутствует в базе данныхТрек 8 отсутствует в базе данныхТрек 9 отсутствует в базе данныхТрек 10 отсутствует в базе данныхТрек 11 отсутствует в базе данныхТрек 12 отсутствует в базе данныхТрек 13 отсутствует в базе данныхТрек 14 отсутствует в базе данныхТрек 15 отсутствует в базе данныхТрек 16 отсутствует в базе данныхТрек 17 отсутствует в базе данныхТрек 18 отсутствует в базе данныхТрек 19 отсутствует в базе данныхТрек 20 отсутствует в базе данныхТрек 21 отсутствует в базе данныхТрек 22 отсутствует в базе данныхТрек 23 отсутствует в базе данныхТрек 24 отсутствует в базе данныхТрек 25 отсутствует в базе данныхТрек 26 отсутствует в базе данныхТрек 27 отсутствует в базе данныхТрек 28 отсутствует в базе данныхТрек 29 отсутствует в базе данныхТрек 30 отсутствует в базе данныхТрек 31 отсутствует в базе данныхТрек 32 отсутствует в базе данныхТрек 33 отсутствует в базе данныхТрек 34 отсутствует в базе данныхТрек 35 отсутствует в базе данныхТрек 36 отсутствует в базе данных
Ни одного трека нет в базе AccurateRip
Конец отчёта

Лог создания рипа CD13

Exact Audio Copy V1.0 beta 3 from 29. August 2011
Отчёт EAC об извлечении, выполненном 26. мая 2013, 20:30
Beethoven Collection (16 CD) / Disc 13
Дисковод: Optiarc DVD RW AD-7170A Adapter: 3 ID: 0
Режим чтения : ДостоверностьИспользование точного потока : ДаОтключение кэша аудио : ДаИспользование указателей C2 : Нет
Коррекция смещения при чтении : 48Способность читать области Lead-in и Lead-out : НетЗаполнение пропущенных сэмплов тишиной : ДаУдаление блоков с тишиной в начале и конце : НетПри вычислениях CRC использовались нулевые сэмплы : ДаИнтерфейс : Встроенный Win32-интерфейс для Win NT/2000
Выходной формат : Пользовательский кодировщикВыбранный битрейт
[teatrix.ru].t9739.torrent 
Торрент: Зарегистрирован [ 2015-10-23 17:11 ] · 31C695DE0EEC25453F83BDA61F5E71579BC4C6D2

Скачать .torrent

Скачать

17 KB

Статус: проверено
Скачан: 0 раз
Размер: 4.61 GB
terms.php



Быстрый ответ

Имя:

      
Для отправки сообщений необходимо включить JavaScript
Показать сообщения:    

Текущее время: 09-Дек 12:46

Часовой пояс: UTC + 3


Вы можете начинать темы
Вы можете отвечать на сообщения
Вы не можете редактировать свои сообщения
Вы не можете удалять свои сообщения
Вы не можете голосовать в опросах
Вы не можете прикреплять файлы к сообщениям
Вы можете скачивать файлы