(Classical) Archives de l'Orchestre National de France: Beethoven, Brahms, Mahler, Mozart (Eugenia Zareska, Christian Ferras, Rafael Kubelik, Carl Schuricht, Leopold Stokowski, 1955-1958) - 2009 [2 CD], FLAC (tracks+.cue) lossless


Статистика раздачи [Обновить пиров]
Размер:  491 MB   |    Зарегистрирован:  1 год 1 месяц   |    Скачан:  1 раз

Полного источника не было: 1 месяц 1 день

Личеров:  3  [  0 KB/s  ]   Подробная статистика пиров
 
   
 
 
 

[Цитировать]

Archives de l'Orchestre National de France


Ludwig van BeethovenJohannes Brahms
Gustav MahlerWolfgang Amadeus Mozart



Eugenia Zareska mezzo-sopranoChristian Ferras violin
Orchestre national de la Radiodiffusion française
conducted by
Rafael KubelikCarl SchurichtLeopold Stokowski


Жанр: Classical / Symphony / Violin Concerto / Vocal
Даты и место записи: Théâtre des Champs Elysées de Paris, 1955–1958
Формат записи: ADD, Mono
Год издания диска: 2009
Издатель (лейбл): Tahra
Номер по каталогу: TAH 668-669
Аудиокодек: FLAC
Тип рипа: tracks+.cue
Битрейт аудио: lossless
Продолжительность: 2:17:51
Наличие сканов в содержимом раздачи: да
Источник: What.CD
Релизёр: PCzar
Дополнительная информация:
Национальный оркестр Франции (фр. Orchestre National de France) — французский симфонический оркестр, основанный в 1934 году под патронатом Радио Франции. Первоначально назывался Национальный оркестр французского радиовещания (фр. Orchestre National de la Radiodiffusion Française); затем, с 1964 г., — Национальный оркестр Французского радио и телевидения (фр. Orchestre National de l'Office de Radiodiffusion Télévision Française); с 1974 года носит нынешнее название.
На обложке изображён первый руководитель оркестра (1934–1944) — Дезире-Эмиль Энгельбрехт.


-
Tracklist / ТреклистCD 1: Beethoven • Mahler
Ludwig van Beethoven
Symphonie Nr. 3 Es-dur «Eroica», Op. 55 - 51:06
I. Allegro con brio - 15:52
  • II. Marcia funebre: Adagio assai - 17:02
  • III. Scherzo: Allegro vivace - 6:00
  • IV. Finale: Allegro molto - 12:12
    Rafael Kubelik, conductor
    Recorded: Théâtre des Champs Elysées de Paris, 29.II.1956
    Gustav Mahler
    Lieder eines fahrenden Gesellen - 16:46
    I. Wenn mein Schatz Hochzeit macht - 3:53
  • II. Ging heut' morgen übers Feld - 4:31
  • III. Ich hab' ein glühend Messer - 3:16
  • IV. Die zwei blauen Augen von meinem Schatz - 5:05
    Eugenia Zareska (mezzo-soprano) • Carl Schuricht, conductor
    Recorded: Théâtre des Champs Elysées de Paris, 20.II.1958
    CD 2: Mozart • Brahms
    Wolfgang Amadeus Mozart
    Violinkonzert Nr. 5 A-dur, KV 219 - 29:11
    I. Allegro aperto - 10:11
  • II. Adagio - 10:10
  • III. Rondeau: Tempo di Menuetto - 8:50
    Christian Ferras (violin) • Carl Schuricht, conductor
    Recorded: Théâtre des Champs Elysées de Paris, 3.II.1955
    Johannes Brahms
    Symphonie Nr. 1 c-moll, Op. 68 - 40:49
    I. Un poco sostenuto. — Allegro. — Meno Allegro - 12:48
  • II. Andante sostenuto - 8:37
  • III. Un poco Allegretto e grazioso - 4:10
  • IV. Adagio. — Più Andante. — Allegro non troppo, ma con brio - 15:13
    Leopold Stokowski, conductor
    Recorded: Théâtre des Champs Elysées de Paris, 13.V.1958

    -

    EAC logs / Отчёты EACCD 1: Beethoven • Mahler

    Exact Audio Copy V1.0 beta 3 from 29. August 2011
    EAC extraction logfile from 4. September 2012, 14:25
    Orchestre National de France / L'Orchestre National de France - Kubelik, Schuricht, Stokowski (Cd1)
    Used drive : TSSTcorpCDDVDW SH-222BB Adapter: 2 ID: 0
    Read mode : SecureUtilize accurate stream : YesDefeat audio cache : YesMake use of C2 pointers : No
    Read offset correction : 6Overread into Lead-In and Lead-Out : NoFill up missing offset samples with silence : YesDelete leading and trailing silent blocks : NoNull samples used in CRC calculations : YesUsed interface : Native Win32 interface for Win NT & 2000Gap handling : Appended to previous track
    Used output format : User Defined EncoderSelected bitrate : 192 kBit/sQuality : HighAdd ID3 tag : NoCommand line compressor : C:\Program Files (x86)\FLAC\flac.exeAdditional command line options : -T "artist=%artist%" -T "title=%title%" -T "album=%albumtitle%" -T "date=%year%" -T "tracknumber=%tracknr%" -T "genre=%genre%" -T "comment=%comment%" -T "composer=%composer%" -8 %source%
    TOC of the extracted CD
    Track | Start | Length | Start sector | End sector --------------------------------------------------------- 1 | 0:00.00 | 15:52.08 | 0 | 71407 2 | 15:52.08 | 17:01.64 | 71408 | 148046 3 | 32:53.72 | 5:59.61 | 148047 | 175032 4 | 38:53.58 | 12:11.63 | 175033 | 229920 5 | 51:05.46 | 3:52.72 | 229921 | 247392 6 | 54:58.43 | 4:31.13 | 247393 | 267730 7 | 59:29.56 | 3:16.29 | 267731 | 282459 8 | 62:46.10 | 5:05.29 | 282460 | 305363
    Track 1
    Filename H:\EAC NEW Rips\01 Beethoven, Symphony Nr. 3 in C minor op. 67 'Eroica' - I. Allegro con brio.wav
    Pre-gap length 0:00:02.00
    Peak level 94.4 % Extraction speed 5.3 X Track quality 100.0 % Test CRC E12DA3D8 Copy CRC E12DA3D8 Track not present in AccurateRip database Copy OK
    Track 2
    Filename H:\EAC NEW Rips\02 Beethoven, Symphony Nr. 3 in C minor op. 67 'Eroica' - II. Marcia funebre.wav
    Pre-gap length 0:00:06.82
    Peak level 92.2 % Extraction speed 6.7 X Track quality 100.0 % Test CRC 90374EDE Copy CRC 90374EDE Track not present in AccurateRip database Copy OK
    Track 3
    Filename H:\EAC NEW Rips\03 Beethoven, Symphony Nr. 3 in C minor op. 67 'Eroica' - III. Scherzo. Allegro vivace - Trio.wav
    Pre-gap length 0:00:06.58
    Peak level 94.4 % Extraction speed 7.1 X Track quality 100.0 % Test CRC 96569ABE Copy CRC 96569ABE Track not present in AccurateRip database Copy OK
    Track 4
    Filename H:\EAC NEW Rips\04 Beethoven, Symphony Nr. 3 in C minor op. 67 'Eroica' - IV. Finale. Allegro molto.wav
    Pre-gap length 0:00:02.58
    Peak level 91.3 % Extraction speed 7.9 X Track quality 100.0 % Test CRC 88E4938B Copy CRC 88E4938B Track not present in AccurateRip database Copy OK
    Track 5
    Filename H:\EAC NEW Rips\05 Mahler, Lieder eines fahrenden Gesellen - I. Wenn mein Schatz Hochzeit macht.wav
    Pre-gap length 0:00:07.60
    Peak level 94.2 % Extraction speed 7.5 X Track quality 100.0 % Test CRC 37E088D5 Copy CRC 37E088D5 Track not present in AccurateRip database Copy OK
    Track 6
    Filename H:\EAC NEW Rips\06 Mahler, Lieder eines fahrenden Gesellen - II. Ging heut' morgens ubers Feld.wav
    Pre-gap length 0:00:04.13
    Peak level 75.5 % Extraction speed 7.9 X Track quality 100.0 % Test CRC 7CC92D92 Copy CRC 7CC92D92 Track not present in AccurateRip database Copy OK
    Track 7
    Filename H:\EAC NEW Rips\07 Mahler, Lieder eines fahrenden Gesellen - III. Ich hab' ein gluhend Messer.wav
    Pre-gap length 0:00:11.64
    Peak level 94.4 % Extraction speed 7.7 X Track quality 100.0 % Test CRC C798362F Copy CRC C798362F Track not present in AccurateRip database Copy OK
    Track 8
    Filename H:\EAC NEW Rips\08 Mahler, Lieder eines fahrenden Gesellen - IV. Die zwei blauen Augen von meinem Schatz.wav
    Pre-gap length 0:00:03.98
    Peak level 72.4 % Extraction speed 5.1 X Track quality 100.0 % Test CRC 86710484 Copy CRC 86710484 Track not present in AccurateRip database Copy OK
    None of the tracks are present in the AccurateRip database
    No errors occurred
    End of status report
    ---- CUETools DB Plugin V2.1.3
    [CTDB TOCID: Viz4FHjuqtLO9uv8DU2NG7mQ6go-] disk not present in database, Submit result: Viz4FHjuqtLO9uv8DU2NG7mQ6go- has been uploaded
    ==== Log checksum 07B0A2CF3AA21EF16754243509F34707F0DC937C76ADBF121039FF64A9C2FD3D ====

    CD 2: Mozart • Brahms

    Exact Audio Copy V1.0 beta 3 from 29. August 2011
    EAC extraction logfile from 4. September 2012, 15:02
    Orchestre National de France / L'Orchestre National de France - Kubelik, Schuricht, Stokowski (Cd2)
    Used drive : TSSTcorpCDDVDW SH-222BB Adapter: 2 ID: 0
    Read mode : SecureUtilize accurate stream : YesDefeat audio cache : YesMake use of C2 pointers : No
    Read offset correction : 6Overread into Lead-In and Lead-Out : NoFill up missing offset samples with silence : YesDelete leading and trailing silent blocks : NoNull samples used in CRC calculations : YesUsed interface : Native Win32 interface for Win NT & 2000Gap handling : Appended to previous track
    Used output format : User Defined EncoderSelected bitrate : 192 kBit/sQuality : HighAdd ID3 tag : NoCommand line compressor : C:\Program Files (x86)\FLAC\flac.exeAdditional command line options : -T "artist=%artist%" -T "title=%title%" -T "album=%albumtitle%" -T "date=%year%" -T "tracknumber=%tracknr%" -T "genre=%genre%" -T "comment=%comment%" -T "composer=%composer%" -8 %source%
    TOC of the extracted CD
    Track | Start | Length | Start sector | End sector --------------------------------------------------------- 1 | 0:00.00 | 10:11.12 | 0 | 45836 2 | 10:11.12 | 10:09.38 | 45837 | 91549 3 | 20:20.50 | 8:50.09 | 91550 | 131308 4 | 29:10.59 | 12:48.14 | 131309 | 188922 5 | 41:58.73 | 8:37.02 | 188923 | 227699 6 | 50:36.00 | 4:10.32 | 227700 | 246481 7 | 54:46.32 | 15:13.35 | 246482 | 314991
    Track 1
    Filename H:\EAC NEW Rips\01 Mozart, Violin Concerto Nr. 5 KV219 - I. Allegro aperto.wav
    Pre-gap length 0:00:02.00
    Peak level 94.4 % Extraction speed 5.0 X Track quality 100.0 % Test CRC 6CD5050C Copy CRC 6CD5050C Track not present in AccurateRip database Copy OK
    Track 2
    Filename H:\EAC NEW Rips\02 Mozart, Violin Concerto Nr. 5 KV219 - II. Adagio.wav
    Pre-gap length 0:00:04.57
    Peak level 94.4 % Extraction speed 6.0 X Track quality 100.0 % Test CRC 8432FE1C Copy CRC 8432FE1C Track not present in AccurateRip database Copy OK
    Track 3
    Filename H:\EAC NEW Rips\03 Mozart, Violin Concerto Nr. 5 KV219 - III. Rondo.wav
    Pre-gap length 0:00:11.82
    Peak level 94.4 % Extraction speed 6.7 X Track quality 100.0 % Test CRC DE91577C Copy CRC DE91577C Track not present in AccurateRip database Copy OK
    Track 4
    Filename H:\EAC NEW Rips\04 Brahms, Symphony Nr. 1 in C minor op. 68 - I. Un poco sostenuto - Allegro.wav
    Pre-gap length 0:00:07.60
    Peak level 94.4 % Extraction speed 7.6 X Track quality 100.0 % Test CRC ACA83515 Copy CRC ACA83515 Track not present in AccurateRip database Copy OK
    Track 5
    Filename H:\EAC NEW Rips\05 Brahms, Symphony Nr. 1 in C minor op. 68 - II. Andante sostenuto.wav
    Pre-gap length 0:00:06.29
    Peak level 77.0 % Extraction speed 8.0 X Track quality 100.0 % Test CRC E6D54FA2 Copy CRC E6D54FA2 Track not present in AccurateRip database Copy OK
    Track 6
    Filename H:\EAC NEW Rips\06 Brahms, Symphony Nr. 1 in C minor op. 68 - III. Un poco allegretto e grazioso.wav
    Pre-gap length 0:00:09.44
    Peak level 62.3 % Extraction speed 7.8 X Track quality 100.0 % Test CRC 1B2C9BAC Copy CRC 1B2C9BAC Track not present in AccurateRip database Copy OK
    Track 7
    Filename H:\EAC NEW Rips\07 Brahms, Symphony Nr. 1 in C minor op. 68 - IV. Adagio, piu andante - Allegro ma non troppo.wav
    Pre-gap length 0:00:06.30
    Peak level 94.4 % Extraction speed 9.1 X Track quality 100.0 % Test CRC DA524B02 Copy CRC DA524B02 Track not present in AccurateRip database Copy OK
    None of the tracks are present in the AccurateRip database
    No errors occurred
    End of status report
    ---- CUETools DB Plugin V2.1.3
    [CTDB TOCID: VUe7BbqFPgw9gZ6qk2jOmQiw_3E-] disk not present in database, Submit result: VUe7BbqFPgw9gZ6qk2jOmQiw_3E- has been uploaded
    ==== Log checksum 8B1164C51AD3B908AD2FCE511884587FCE3E97652BFE4402444BDA88E171F41E ====

    auCDtect Task Manager logs / Отчёты auCDtect Task ManagerCD 1: Beethoven • Mahler

    -----------------------
    DON'T MODIFY THIS FILE
    -----------------------
    PERFORMER: auCDtect Task Manager, ver. 1.5.1RC3 build 1.5.1.4Copyright (c) 2008-2010 y-soft. All rights reserved
    ANALYZER: auCDtect: CD records authenticity detector, version 0.8.2Copyright (c) 2004 Oleg Berngardt. All rights reserved.Copyright (c) 2004 Alexander Djourik. All rights reserved.
    FILE: 08 - Lieder eines fahrenden Gesellen - IV. Die zwei blauen Augen von meinem Schatz.flac Size: 18345319 Hash: CD115CD32A82AC81B9314D04111164C3 Accuracy: -m0 Conclusion: CDDA 100% Signature: BAECD42B42019F2FC682D30FF660C991F9436627FILE: 07 - Lieder eines fahrenden Gesellen - III. Ich hab' ein gluehend Messer.flac Size: 12426918 Hash: BAF312E5D92DED788DC775C18FEA20B3 Accuracy: -m0 Conclusion: CDDA 100% Signature: D5D08AED948E5CF673B020BE5AF01A39EA0AE37AFILE: 06 - Lieder eines fahrenden Gesellen - II. Ging heut' morgen uebers Feld.flac Size: 16696223 Hash: EA06EA061149564F9944BE29D44E7D21 Accuracy: -m0 Conclusion: CDDA 92% Signature: 8DDB29A7FC68AA5A44CE31EDB6704E5DB6473C51FILE: 05 - Lieder eines fahrenden Gesellen - I. Wenn mein Schatz Hochzeit macht.flac Size: 14294228 Hash: E9FBCD145D136BE5E0050A37AC7FBCD2 Accuracy: -m0 Conclusion: MPEG 89% Signature: 048521C917F78BAC28F4EE07A7B58E8A43DD7A8AFILE: 04 - Symphonie Nr. 3 Es-dur ''Eroica'', Op. 55 - IV. Finale. Allegro molto.flac Size: 48582552 Hash: 65B9BD1E221E26DE3947ADAA22759345 Accuracy: -m0 Conclusion: CDDA 49% Signature: EAC48ADAEA303FD8DFD67A8BDAF5B76EBB946D88FILE: 03 - Symphonie Nr. 3 Es-dur ''Eroica'', Op. 55 - III. Scherzo. Allegro vivace.flac Size: 21900762 Hash: 7E1F97435F2B8D83CB8534144D191DDA Accuracy: -m0 Conclusion: CDDA 92% Signature: EE27430567C6793116226059F80452944B391E72FILE: 02 - Symphonie Nr. 3 Es-dur ''Eroica'', Op. 55 - II. Marcia funebre. Adagio assai.flac Size: 62058948 Hash: 0B2E5FE5263BDFA27923E7828EEB404C Accuracy: -m0 Conclusion: CDDA 86% Signature: 93AFE2335C2909B765498A290CC94F772CFF3479FILE: 01 - Symphonie Nr. 3 Es-dur ''Eroica'', Op. 55 - I. Allegro con brio.flac Size: 60103287 Hash: 5F34ED619E44059A49F7DA7EF8841D92 Accuracy: -m0 Conclusion: CDDA 43% Signature: 5B1C6F3359C5D2D2894363A114CE14AC1B7EDF2C

    CD 2: Mozart • Brahms

    -----------------------
    DON'T MODIFY THIS FILE
    -----------------------
    PERFORMER: auCDtect Task Manager, ver. 1.5.1RC3 build 1.5.1.4Copyright (c) 2008-2010 y-soft. All rights reserved
    ANALYZER: auCDtect: CD records authenticity detector, version 0.8.2Copyright (c) 2004 Oleg Berngardt. All rights reserved.Copyright (c) 2004 Alexander Djourik. All rights reserved.
    FILE: 07 - Symphonie Nr. 1 c-moll, Op. 68 - IV. Adagio. - Piu Andante. - Allegro non troppo, ma con brio.flac Size: 53549963 Hash: CAF082515AEF4E22B5C565962C756E38 Accuracy: -m0 Conclusion: MPEG 89% Signature: 73EDFE8C44E5AD22374A1C8DFB56CD23220A2173FILE: 06 - Symphonie Nr. 1 c-moll, Op. 68 - III. Un poco Allegretto e grazioso.flac Size: 14567319 Hash: 64DA86D51FDBA2675D6386956887D5D0 Accuracy: -m0 Conclusion: MPEG 99% Signature: 1C4CDBA7293424E1D952F1182146C5651E647DE3FILE: 05 - Symphonie Nr. 1 c-moll, Op. 68 - II. Andante sostenuto.flac Size: 30181699 Hash: B0E05BA9FD1D957294505D1C858DDD3D Accuracy: -m0 Conclusion: MPEG 97% Signature: E2E386B906BC64BE86E7B75D9D3E4B1A5B897A94FILE: 04 - Symphonie Nr. 1 c-moll, Op. 68 - I. Un poco sostenuto. - Allegro. - Meno Allegro.flac Size: 45728836 Hash: F3BE1812F6B7271DE25E4D9C4DBE142A Accuracy: -m0 Conclusion: MPEG 100% Signature: 73D42077D591526603D8BE1A389341EE685EED22FILE: 03 - Violinkonzert Nr. 5 A-dur, KV 219 - III. Rondeau. Tempo di Menuetto.flac Size: 31797843 Hash: 56DE6BAE5A40C3D4B98FD3642C2516AB Accuracy: -m0 Conclusion: MPEG 100% Signature: D68048166068021F1F25DDE97045397C42F06FEBFILE: 02 - Violinkonzert Nr. 5 A-dur, KV 219 - II. Adagio.flac Size: 38926353 Hash: 124C487726BD6136898707D75353A33A Accuracy: -m0 Conclusion: MPEG 100% Signature: 41C4127BC1A628E6F9C7DFC8BD2DCF2668C419B1FILE: 01 - Violinkonzert Nr. 5 A-dur, KV 219 - I. Allegro aperto.flac Size: 38573186 Hash: DE33BFD2E826772E766F3151C6D82638 Accuracy: -m0 Conclusion: MPEG 100% Signature: 4563D937C4E92F62C46E85582FC3B273AA4E766A

    CUETools logs / Отчёты CUEToolsCD 1: Beethoven • Mahler

    [CUETools log; Date: 23.05.2013 13:30:04; Version: 2.1.2a][AccurateRip ID: 001a5b7d-00a4d7b6-750fe708] disk not present in database.
    Track Peak [ CRC32 ] [W/O NULL] [ LOG ] -- 94,4 [5AE75224] [3E40A927] 01 94,4 [E12DA3D8] [87A57A84] CRC32 02 92,2 [90374EDE] [9C7CF18C] CRC32 03 94,4 [96569ABE] [357B4F57] CRC32 04 91,3 [88E4938B] [2D2DFF9E] CRC32 05 94,2 [37E088D5] [664A9A6E] CRC32 06 75,5 [7CC92D92] [B7592EF9] CRC32 07 94,4 [C798362F] [5C82CEF1] CRC32 08 72,4 [86710484] [734B6F9B] CRC32

    CD 2: Mozart • Brahms

    [CUETools log; Date: 23.05.2013 13:30:32; Version: 2.1.2a][AccurateRip ID: 00130649-0071a486-4e106707] disk not present in database.
    Track Peak [ CRC32 ] [W/O NULL] [ LOG ] -- 94,4 [73E729B1] [B22D2D92] 01 94,4 [6CD5050C] [013F9203] CRC32 02 94,4 [8432FE1C] [7EEB78C5] CRC32 03 94,4 [DE91577C] [8AF8069F] CRC32 04 94,4 [ACA83515] [33218930] CRC32 05 77,0 [E6D54FA2] [33532263] CRC32 06 62,3 [1B2C9BAC] [3B737EA6] CRC32 07 94,4 [DA524B02] [72723DA3] CRC32

    CUE sheetsCD 1: Beethoven • Mahler

    TITLE "Archives de l'Orchestre National de France: Beethoven, Brahms, Mahler, Mozart"PERFORMER "Orchestre national de la Radiodiffusion française"REM GENRE ClassicalREM DISCID 750FE708REM COMMENT "ExactAudioCopy v1.0b3"FILE "01 - Symphonie Nr. 3 Es-dur ''Eroica'', Op. 55 - I. Allegro con brio.flac" WAVE TRACK 01 AUDIO TITLE "Symphonie Nr. 3 Es-dur «Eroica», Op. 55: I. Allegro con brio" PERFORMER "Orchestre national de la Radiodiffusion française. Rafael Kubelik, conductor" REM DATE 1956 INDEX 01 00:00:00 TRACK 02 AUDIO TITLE "Symphonie Nr. 3 Es-dur «Eroica», Op. 55: II. Marcia funebre: Adagio assai" PERFORMER "Orchestre national de la Radiodiffusion française. Rafael Kubelik, conductor" REM DATE 1956 INDEX 00 15:45:21FILE "02 - Symphonie Nr. 3 Es-dur ''Eroica'', Op. 55 - II. Marcia funebre. Adagio assai.flac" WAVE INDEX 01 00:00:00 TRACK 03 AUDIO TITLE "Symphonie Nr. 3 Es-dur «Eroica», Op. 55: III. Scherzo: Allegro vivace" PERFORMER "Orchestre national de la Radiodiffusion française. Rafael Kubelik, conductor" REM DATE 1956 INDEX 00 16:55:20FILE "03 - Symphonie Nr. 3 Es-dur ''Eroica'', Op. 55 - III. Scherzo. Allegro vivace.flac" WAVE INDEX 01 00:00:00 TRACK 04 AUDIO TITLE "Symphonie Nr. 3 Es-dur «Eroica», Op. 55: IV. Finale: Allegro molto" PERFORMER "Orchestre national de la Radiodiffusion française. Rafael Kubelik, conductor" REM DATE 1956 INDEX 00 05:57:17FILE "04 - Symphonie Nr. 3 Es-dur ''Eroica'', Op. 55 - IV. Finale. Allegro molto.flac" WAVE INDEX 01 00:00:00 TRACK 05 AUDIO TITLE "Lieder eines fahrenden Gesellen: I. Wenn mein Schatz Hochzeit macht" PERFORMER "Eugenia Zareska, Orchestre national de la Radiodiffusion française. Carl Schuricht, conductor" REM DATE 1958 INDEX 00 12:04:18FILE "05 - Lieder eines fahrenden Gesellen - I. Wenn mein Schatz Hochzeit macht.flac" WAVE INDEX 01 00:00:00 TRACK 06 AUDIO TITLE "Lieder eines fahrenden Gesellen: II. Ging heut' morgen übers Feld" PERFORMER "Eugenia Zareska, Orchestre national de la Radiodiffusion française. Carl Schuricht, conductor" REM DATE 1958 INDEX 00 03:48:62FILE "06 - Lieder eines fahrenden Gesellen - II. Ging heut' morgen uebers Feld.flac" WAVE INDEX 01 00:00:00 TRACK 07 AUDIO TITLE "Lieder eines fahrenden Gesellen: III. Ich hab' ein glühend Messer" PERFORMER "Eugenia Zareska, Orchestre national de la Radiodiffusion française. Carl Schuricht, conductor" REM DATE 1958 INDEX 00 04:19:40FILE "07 - Lieder eines fahrenden Gesellen - III. Ich hab' ein gluehend Messer.flac" WAVE INDEX 01 00:00:00 TRACK 08 AUDIO TITLE "Lieder eines fahrenden Gesellen: IV. Die zwei blauen Augen von meinem Schatz" PERFORMER "Eugenia Zareska, Orchestre national de la Radiodiffusion française. Carl Schuricht, conductor" REM DATE 1958 INDEX 00 03:12:30FILE "08 - Lieder eines fahrenden Gesellen - IV. Die zwei blauen Augen von meinem Schatz.flac" WAVE INDEX 01 00:00:00

    CD 2: Mozart • Brahms

    TITLE "Archives de l'Orchestre National de France: Beethoven, Brahms, Mahler, Mozart"PERFORMER "Orchestre national de la Radiodiffusion française"REM GENRE ClassicalREM DISCID 4E106707REM COMMENT "ExactAudioCopy v1.0b3"FILE "01 - Violinkonzert Nr. 5 A-dur, KV 219 - I. Allegro aperto.flac" WAVE TRACK 01 AUDIO TITLE "Violinkonzert Nr. 5 A-dur, KV 219: I. Allegro aperto" PERFORMER "Christian Ferras, Orchestre national de la Radiodiffusion française. Carl Schuricht, conductor" REM DATE 1955 INDEX 01 00:00:00 TRACK 02 AUDIO TITLE "Violinkonzert Nr. 5 A-dur, KV 219: II. Adagio" PERFORMER "Christian Ferras, Orchestre national de la Radiodiffusion française. Carl Schuricht, conductor" REM DATE 1955 INDEX 00 10:06:44FILE "02 - Violinkonzert Nr. 5 A-dur, KV 219 - II. Adagio.flac" WAVE INDEX 01 00:00:00 TRACK 03 AUDIO TITLE "Violinkonzert Nr. 5 A-dur, KV 219: III. Rondeau: Tempo di Menuetto" PERFORMER "Christian Ferras, Orchestre national de la Radiodiffusion française. Carl Schuricht, conductor" REM DATE 1955 INDEX 00 09:57:51FILE "03 - Violinkonzert Nr. 5 A-dur, KV 219 - III. Rondeau. Tempo di Menuetto.flac" WAVE INDEX 01 00:00:00 TRACK 04 AUDIO TITLE "Symphonie Nr. 1 c-moll, Op. 68: I. Un poco sostenuto. — Allegro. — Meno Allegro" PERFORMER "Orchestre national de la Radiodiffusion française. Leopold Stokowski, conductor" REM DATE 1958 INDEX 00 08:42:39FILE "04 - Symphonie Nr. 1 c-moll, Op. 68 - I. Un poco sostenuto. - Allegro. - Meno Allegro.flac" WAVE INDEX 01 00:00:00 TRACK 05 AUDIO TITLE "Symphonie Nr. 1 c-moll, Op. 68: II. Andante sostenuto" PERFORMER "Orchestre national de la Radiodiffusion française. Leopold Stokowski, conductor" REM DATE 1958 INDEX 00 12:41:67FILE "05 - Symphonie Nr. 1 c-moll, Op. 68 - II. Andante sostenuto.flac" WAVE INDEX 01 00:00:00 TRACK 06 AUDIO TITLE "Symphonie Nr. 1 c-moll, Op. 68: III. Un poco Allegretto e grazioso" PERFORMER "Orchestre national de la Radiodiffusion française. Leopold Stokowski, conductor" REM DATE 1958 INDEX 00 08:27:44FILE "06 - Symphonie Nr. 1 c-moll, Op. 68 - III. Un poco Allegretto e grazioso.flac" WAVE INDEX 01 00:00:00 TRACK 07 AUDIO TITLE "Symphonie Nr. 1 c-moll, Op. 68: IV. Adagio. — Più Andante. — Allegro non troppo, ma con brio" PERFORMER "Orchestre national de la Radiodiffusion française. Leopold Stokowski, conductor" REM DATE 1958 INDEX 00 04:04:09FILE "07 - Symphonie Nr. 1 c-moll, Op. 68 - IV. Adagio. - Piu Andante. - Allegro non troppo, ma con brio.flac" WAVE INDEX 01 00:00:00
    [teatrix.ru].t9740.torrent 
    Торрент: Зарегистрирован [ 2015-10-23 17:11 ] · 0384B97BA5B292F56FC4C39982EFB2DE670FC1A0

    Скачать .torrent

    Скачать

    24 KB

    Статус: проверено
    Скачан: 1 раз
    Размер: 491 MB
    terms.php



  • Быстрый ответ

    Имя:

          
    Для отправки сообщений необходимо включить JavaScript
    Показать сообщения:    

    Текущее время: 03-Дек 20:46

    Часовой пояс: UTC + 3


    Вы можете начинать темы
    Вы можете отвечать на сообщения
    Вы не можете редактировать свои сообщения
    Вы не можете удалять свои сообщения
    Вы не можете голосовать в опросах
    Вы не можете прикреплять файлы к сообщениям
    Вы можете скачивать файлы