(20th Century, Classical, Mexican) Musica Mexicana - Works by Chavez, Ponce, Revueltas, Halffter, Garcia, Jimenez, Dimas, Villanueva (Batiz, Mexico City Phil Orch, Mexico State Sym Orch, Royal Phil Orch) - 2008, FLAC (tracks+.cue) lossless


Статистика раздачи [Обновить пиров]
Размер:  2.29 GB   |    Зарегистрирован:  1 год 2 месяца   |    Скачан:  4 раза

Полного источника не было: 1 месяц 22 дня

Личеров:  2  [  0 KB/s  ]   Подробная статистика пиров
 
   
 
 
 

[Цитировать]

Musica Mexicana - Works by Chavez, Ponce, Revueltas, Halffter, Garcia, Jimenez, Dimas, Villanueva (Batiz, Mexico City Phil Orch, Mexico State Sym Orch, Royal Phil Orch)
Жанр: 20th Century, Classical, Mexican
Страна-производитель диска: Netherlands
Год издания диска: 2008
Издатель (лейбл): Brilliant Classics
Номер по каталогу: 8771
Дата записи: 1990-1996
Аудиокодек: FLAC
Тип рипа: tracks+.cue
Битрейт аудио: lossless
Продолжительность: 8:34:47
Источник: собственный рип
сайт-источник/ник/другое: CD
Наличие сканов в содержимом раздачи: нет
Треклист:
Disc 01
Disc 01 (57:46)
1. Carlos Chávez Chapultepec, for orchestra or band ('Republican Overture') 6:332. Manuel María Ponce Ferial, divertimento sinfónico for orchestra 15:24
Manuel María Ponce Instantaneas Mexicanas for orchestra (11:34)3. Canto a la Malinche 1:284. Musica Indigena 1:335. Cancion Popular 3:516. Baile Del Brajo 1:027. Danza 1 1:318. Danza 2 2:09
9. Silvestre Revueltas Toccata (sin Fuga), for solo violin, 6 wind instruments & 3 perucssionists 4:02
Manuel María Ponce Estampas Nocturnas for orchestra (20:13)10. La Noche 8:1711. En tiempo del Rey Sol 5:1912. Arrulladora 3:2113. Scherzo de Puck 3:16

Disc 02

Disc 02 (1:11:43)
Manuel María Ponce Concerto for violin & orchestra (32:11)1. I. Allegro non troppo 16:152. II. Andante espressivo 7:263. III. Vivo giocoso 8:30
4. Carlos Chávez Symphony No. 2 ('Sinfonía india') 11:54
Silvestre Revueltas La Noche de los Mayas, film score (27:38)5. Noche de los Mayas 6:216. Noche de jaranas 5:077. Noche de Yucatán 7:018. Noche de encantamiento 9:09

Disc 03

Disc 03 (1:03:58)
Rodolfo Halffter Concerto for violin & orchestra (20:38)1. 1. Recitativo. Tranquillo (liberamente). Allegro 8:012. 2. Andante cantabile 6:513. 3. Allegro vivace 5:46
4. José Pablo Moncayo Garcia Huapango, for orchestra 8:065. Silvestre Revueltas Cuauhnáhuac, for orchestra 10:02
Manuel María Ponce Concierto del sur for guitar & orchestra (25:12)6. 1. Allegretto 12:557. 2. Andante 7:028. 3. Allegro moderato e festivo 5:15

Disc 04

Disc 04 (1:03:05)
Silvestre Revueltas Redes, suite for orchestra (compiled by Erich Kleiber from the film score) (26:48)1. 1. The Fisherman - The Child's Funeral 9:112. 2. Second part 6:383. 3. Homenaje a Garcia Lorca 10:59
Miguel Bernal Jiménez Tres Cartas de México, symphonic suite (10:42)4. 1. Allegro gais 3:235. 2. Allegretto 3:176. 3. Allegro 4:02
Blas Galindo Dimas Homenaje a Cervantes, suite for orchestra (10:06)7. Gavota - museta - gavota 2:488. Sarabanda 4:399. Giga 2:39
10. Ricardo Castro Vals Capricho, for piano (or piano & orchestra), Op. 1 9:2611. Carlos Chávez Zarabanda, for string orchestra 6:03

Disc 05

Disc 05 (1:08:56)
Rodolfo Halffter Tres Sonatas of Antonio Soler, arr. for orchestra (11:15)1. I. Allegro con garbo 2:232. II. Allegretto con grazia 4:063. III. Allegro moderato 4:46
4. Silvestre Revueltas Sensemaya (1938) 5:255. Blas Galindo Dimas Sones de Mariachi (1940) 7:086. Manuel María Ponce Estrellita 4:337. Rodolfo Halffter Obertura Festiva, Op. 21 (1952) 6:248. Silvestre Revueltas Janitzio (1933) 6:07
Rodolfo Halffter Tripartita, Op. 25 (1959) (12:29)9. I. Scherzo 3:0010. II. Romanza sin palabra 4:3711. III. Sonata 4:52
12. Silvestre Revueltas Ocho por Radio (1933) 4:5413. Felipe Villanueva Vals Poetico 2:5814. Carlos Chávez Chaconne in E minor, arr. for orchestra (after Buxtehude) 7:43

Disc 06

Disc 06 (1:02:32)
Manuel María Ponce Piano Concerto (1912) (20:19)1. I. Allegro non troppo 6:002. II. Andante espressivo 9:563. III. Vivo 4:23
4. Manuel María Ponce Gavota 6:195. Manuel María Ponce Poema Elegiaco (1935) 8:076. Manuel María Ponce Balada Mexicana (1914) 11:247. Manuel María Ponce Danse des Anciens Mexicains 1:45
Manuel María Ponce Chapultepec (Tres bocetos sinfónicos 1929) (14:38)8. I. Primavera (Allegretto affettuoso) 5:119. II. Nocturno (Andante molto espressivo) 5:5610. Canto y danza (Allegretto languido) 3:31

Disc 07

Disc 07 (55:37)
1. Carlos Chávez Toccata for orchestra (1947) 6:52
Carlos Chávez Paisajes Mexicanos (Variaciones sinfonicas) (16:21)2. Part I. Lentamente 8:503. Part II. Lento 7:31
4. Carlos Chávez La Hija de Colquide (Suite sinfonica - 1943) 23:105. Carlos Chávez Cantos de México (1933) 4:026. Carlos Chávez Baile, Symphonic Painting (1953) 5:12

Disc 08

Disc 08 (1:11:10)
1. Carlos Chávez Symphony No. 1 ('Sinfonía de Antígona') 14:04
Carlos Chávez Symphony No. 4 ('Sinfonía Romántica') (22:53)2. I. Allegro 7:163. II. Molto lento 7:114. III. Vivo non troppo mosso 8:26
5. Silvestre Revueltas Caminos, for orchestra 9:00
Silvestre Revueltas Música para charlar, concert version of film score for orchestra (14:56)6. 1. Construction of the Railroad- Sleepers and Rails - Home Land - Mexicali - Telegraph Poles 5:077. 2. The Desert- Cactus - Twillight - Sand and Water - Tractors - Htmn to the Home Land 9:49
8. Silvestre Revueltas Ventanas, for orchestra 10:17
Исполнители:
Enrique Bátiz Conductor, Primary Artist
Carlos Chávez Orchestration
Claudia Coonce Oboe
Rodolfo Halffter Orchestration
Cecilia Lopez Guitar
Mexico City Philharmonic Orchestra Orchestra
Mexico State Symphony Orchestra Orchestra
David Moncur Liner Design, Liner Notes
Alfonso Moreno Guitar
Jorge Federico Osorio Piano
Alfredo Sanchez Oviedo Guitar
Juan Reves Guitar
Royal Philharmonic Orchestra Orchestra
Jesús Ruiz Guitar
State of Mexico Symphony Orchestra Orchestra
Eva Suk Piano
Henryk Szeryng Revision, Violin

Лог создания рипа

Disc 01

Exact Audio Copy V1.0 beta 3 from 29. August 2011
EAC extraction logfile from 30. April 2013, 0:18
Various Artists / Musica Mexicana, D1
Used drive : HL-DT-STDVDRAM GE24NU30 Adapter: 1 ID: 0
Read mode : Secure
Utilize accurate stream : Yes
Defeat audio cache : Yes
Make use of C2 pointers : No
Read offset correction : 667
Overread into Lead-In and Lead-Out : No
Fill up missing offset samples with silence : Yes
Delete leading and trailing silent blocks : No
Null samples used in CRC calculations : Yes
Used interface : Native Win32 interface for Win NT & 2000
Gap handling : Appended to previous track
Used output format : User Defined Encoder
Selected bitrate : 320 kBit/s
Quality : High
Add ID3 tag : Yes
Command line compressor : C:\Program Files (x86)\FLAC\flac.exe
Additional command line options : -6 -V -T "ARTIST=%artist%" -T "TITLE=%title%" -T "ALBUM=%albumtitle%" -T "TRACKNUMBER=%tracknr%" %source% -o %dest%
TOC of the extracted CD
Track | Start | Length | Start sector | End sector
---------------------------------------------------------
1 | 0:00.00 | 6:33.22 | 0 | 29496
2 | 6:33.22 | 15:23.58 | 29497 | 98779
3 | 21:57.05 | 1:28.30 | 98780 | 105409
4 | 23:25.35 | 1:32.55 | 105410 | 112364
5 | 24:58.15 | 3:51.00 | 112365 | 129689
6 | 28:49.15 | 1:02.02 | 129690 | 134341
7 | 29:51.17 | 1:31.23 | 134342 | 141189
8 | 31:22.40 | 2:08.52 | 141190 | 150841
9 | 33:31.17 | 4:02.28 | 150842 | 169019
10 | 37:33.45 | 8:17.17 | 169020 | 206311
11 | 45:50.62 | 5:18.43 | 206312 | 230204
12 | 51:09.30 | 3:20.60 | 230205 | 245264
13 | 54:30.15 | 3:16.32 | 245265 | 259996
Track 1
Filename C:\Torrents\Musica Mexicana\D1\01-Carlos Chávez-Chapultepec, for orchestra or band (''Republican Overture'').wav
Pre-gap length 0:00:02.00
Peak level 81.8 %
Extraction speed 1.1 X
Track quality 100.0 %
Test CRC 5C5F2AAD
Copy CRC 5C5F2AAD
Accurately ripped (confidence 2) [F2277E75] (AR v2)
Copy OK
Track 2
Filename C:\Torrents\Musica Mexicana\D1\02-Manuel María Ponce-Ferial, divertimento sinfónico for orchestra.wav
Pre-gap length 0:00:06.10
Peak level 92.2 %
Extraction speed 1.5 X
Track quality 100.0 %
Test CRC 1F9E4550
Copy CRC 1F9E4550
Accurately ripped (confidence 2) [8879A39B] (AR v2)
Copy OK
Track 3
Filename C:\Torrents\Musica Mexicana\D1\03-Manuel María Ponce-Instantaneas Mexicanas for orchestra, Canto a la Malinche.wav
Pre-gap length 0:00:03.18
Peak level 34.5 %
Extraction speed 1.2 X
Track quality 100.0 %
Test CRC F772B74E
Copy CRC F772B74E
Accurately ripped (confidence 2) [EB852F44] (AR v2)
Copy OK
Track 4
Filename C:\Torrents\Musica Mexicana\D1\04-Manuel María Ponce-Instantaneas Mexicanas for orchestra, Musica Indigena.wav
Pre-gap length 0:00:06.08
Peak level 63.1 %
Extraction speed 1.3 X
Track quality 100.0 %
Test CRC 097771DA
Copy CRC 097771DA
Accurately ripped (confidence 2) [2223AF83] (AR v2)
Copy OK
Track 5
Filename C:\Torrents\Musica Mexicana\D1\05-Manuel María Ponce-Instantaneas Mexicanas for orchestra, Cancion Popular.wav
Pre-gap length 0:00:03.50
Peak level 37.8 %
Extraction speed 1.6 X
Track quality 100.0 %
Test CRC 203583BC
Copy CRC 203583BC
Accurately ripped (confidence 2) [A8135AC8] (AR v2)
Copy OK
Track 6
Filename C:\Torrents\Musica Mexicana\D1\06-Manuel María Ponce-Instantaneas Mexicanas for orchestra, Baile Del Brajo.wav
Pre-gap length 0:00:02.53
Peak level 63.5 %
Extraction speed 1.1 X
Track quality 100.0 %
Test CRC 33219288
Copy CRC 33219288
Accurately ripped (confidence 2) [31C66535] (AR v2)
Copy OK
Track 7
Filename C:\Torrents\Musica Mexicana\D1\07-Manuel María Ponce-Instantaneas Mexicanas for orchestra, Danza 1.wav
Pre-gap length 0:00:02.60
Peak level 66.1 %
Extraction speed 1.0 X
Track quality 99.8 %
Test CRC 5A24C7D0
Copy CRC 5A24C7D0
Accurately ripped (confidence 2) [3A0A8B09] (AR v2)
Copy OK
Track 8
Filename C:\Torrents\Musica Mexicana\D1\08-Manuel María Ponce-Instantaneas Mexicanas for orchestra, Danza 2.wav
Pre-gap length 0:00:03.28
Peak level 62.9 %
Extraction speed 1.5 X
Track quality 100.0 %
Test CRC FCC3CD80
Copy CRC FCC3CD80
Accurately ripped (confidence 2) [744150B9] (AR v2)
Copy OK
Track 9
Filename C:\Torrents\Musica Mexicana\D1\09-Silvestre Revueltas-Toccata (sin Fuga), for solo violin, 6 wind instruments & 3 perucssionists.wav
Pre-gap length 0:00:07.25
Peak level 94.1 %
Extraction speed 1.5 X
Track quality 99.9 %
Test CRC 55D33009
Copy CRC 55D33009
Accurately ripped (confidence 2) [858355A2] (AR v2)
Copy OK
Track 10
Filename C:\Torrents\Musica Mexicana\D1\10-Manuel María Ponce-Estampas Nocturnas - La Noche.wav
Pre-gap length 0:00:07.10
Peak level 43.4 %
Extraction speed 2.0 X
Track quality 100.0 %
Test CRC 6873FEB8
Copy CRC 6873FEB8
Accurately ripped (confidence 2) [CBB180A3] (AR v2)
Copy OK
Track 11
Filename C:\Torrents\Musica Mexicana\D1\11-Manuel María Ponce-Estampas Nocturnas for orchestra, En tiempo del Rey Sol.wav
Pre-gap length 0:00:02.45
Peak level 35.0 %
Extraction speed 2.0 X
Track quality 100.0 %
Test CRC 87E0CB71
Copy CRC 87E0CB71
Accurately ripped (confidence 2) [D1C1961B] (AR v2)
Copy OK
Track 12
Filename C:\Torrents\Musica Mexicana\D1\12-Manuel María Ponce-Estampas Nocturnas for orchestra, Arrulladora.wav
Pre-gap length 0:00:02.08
Peak level 23.9 %
Extraction speed 1.9 X
Track quality 100.0 %
Test CRC 63B71C54
Copy CRC 63B71C54
Accurately ripped (confidence 2) [F11CA05F] (AR v2)
Copy OK
Track 13
Filename C:\Torrents\Musica Mexicana\D1\13-Manuel María Ponce-Estampas Nocturnas for orchestra, Scherzo de Puck.wav
Pre-gap length 0:00:05.48
Peak level 89.5 %
Extraction speed 2.1 X
Track quality 100.0 %
Test CRC D41E5411
Copy CRC D41E5411
Accurately ripped (confidence 2) [D7513BA9] (AR v1)
Copy OK
All tracks accurately ripped
No errors occurred
End of status report
==== Log checksum 22EB27CB98E77C75E537D6098CAC4876C81BD5D9842BB7FDCDD653527615750B ====

Disc 02

Exact Audio Copy V1.0 beta 3 from 29. August 2011
EAC extraction logfile from 30. April 2013, 1:49
Various Artists / Musica Mexicana, D2
Used drive : HL-DT-STDVDRAM GE24NU30 Adapter: 1 ID: 0
Read mode : SecureUtilize accurate stream : YesDefeat audio cache : YesMake use of C2 pointers : No
Read offset correction : 667Overread into Lead-In and Lead-Out : NoFill up missing offset samples with silence : YesDelete leading and trailing silent blocks : NoNull samples used in CRC calculations : YesUsed interface : Native Win32 interface for Win NT & 2000Gap handling : Appended to previous track
Used output format : User Defined EncoderSelected bitrate : 320 kBit/sQuality : HighAdd ID3 tag : YesCommand line compressor : C:\Program Files (x86)\FLAC\flac.exeAdditional command line options : -6 -V -T "ARTIST=%artist%" -T "TITLE=%title%" -T "ALBUM=%albumtitle%" -T "TRACKNUMBER=%tracknr%" %source% -o %dest%
TOC of the extracted CD
Track | Start | Length | Start sector | End sector --------------------------------------------------------- 1 | 0:00.32 | 16:14.63 | 32 | 73144 2 | 16:15.20 | 7:25.45 | 73145 | 106564 3 | 23:40.65 | 8:29.52 | 106565 | 144791 4 | 32:10.42 | 11:54.08 | 144792 | 198349 5 | 44:04.50 | 6:21.07 | 198350 | 226931 6 | 50:25.57 | 5:07.23 | 226932 | 249979 7 | 55:33.05 | 7:00.45 | 249980 | 281524 8 | 62:33.50 | 9:08.45 | 281525 | 322669
Track 1
Filename C:\Torrents\Musica Mexicana\D2\01-Manuel María Ponce-Concerto for violin & orchestra, I. Allegro non troppo.wav
Pre-gap length 0:00:02.32
Peak level 71.2 % Extraction speed 1.4 X Track quality 100.0 % Test CRC AFB8F26D Copy CRC AFB8F26D Accurately ripped (confidence 2) [45B22F09] (AR v2) Copy OK
Track 2
Filename C:\Torrents\Musica Mexicana\D2\02-Manuel María Ponce-Concerto for violin & orchestra, II. Andante espressivo.wav
Pre-gap length 0:00:02.68
Peak level 55.3 % Extraction speed 1.6 X Track quality 100.0 % Test CRC 1B4AF302 Copy CRC 1B4AF302 Accurately ripped (confidence 2) [EF937889] (AR v2) Copy OK
Track 3
Filename C:\Torrents\Musica Mexicana\D2\03-Manuel María Ponce-Concerto for violin & orchestra, III. Vivo giocoso.wav
Pre-gap length 0:00:03.38
Peak level 72.7 % Extraction speed 1.8 X Track quality 100.0 % Test CRC 84647BB4 Copy CRC 84647BB4 Accurately ripped (confidence 2) [25AB7D39] (AR v2) Copy OK
Track 4
Filename C:\Torrents\Musica Mexicana\D2\04-Carlos Chávez-Symphony No. 2 (''Sinfonía india'').wav
Pre-gap length 0:00:10.52
Peak level 97.2 % Extraction speed 1.9 X Track quality 99.9 % Test CRC 8750E82F Copy CRC 8750E82F Accurately ripped (confidence 2) [1AC9543A] (AR v2) Copy OK
Track 5
Filename C:\Torrents\Musica Mexicana\D2\05-Silvestre Revueltas-La Noche de los Mayas, film score, Noche de los Mayas.wav
Pre-gap length 0:00:11.20
Peak level 100.0 % Extraction speed 1.9 X Track quality 99.9 % Test CRC F8488EB2 Copy CRC F8488EB2 Accurately ripped (confidence 2) [CCB80A27] (AR v2) Copy OK
Track 6
Filename C:\Torrents\Musica Mexicana\D2\06-Silvestre Revueltas-La Noche de los Mayas, film score, Noche de jaranas.wav
Pre-gap length 0:00:02.70
Peak level 91.9 % Extraction speed 2.1 X Track quality 100.0 % Test CRC 4E21867A Copy CRC 4E21867A Accurately ripped (confidence 2) [4DDC287B] (AR v2) Copy OK
Track 7
Filename C:\Torrents\Musica Mexicana\D2\07-Silvestre Revueltas-La Noche de los Mayas, film score, Noche de Yucatán.wav
Pre-gap length 0:00:02.68
Peak level 44.0 % Extraction speed 2.1 X Track quality 99.9 % Test CRC A8F1514A Copy CRC A8F1514A Accurately ripped (confidence 2) [2DD00CAD] (AR v2) Copy OK
Track 8
Filename C:\Torrents\Musica Mexicana\D2\08-Silvestre Revueltas-La Noche de los Mayas, film score, Noche de encantamiento.wav
Peak level 97.2 % Extraction speed 2.5 X Track quality 100.0 % Test CRC 22B2992D Copy CRC 22B2992D Accurately ripped (confidence 2) [C66E6B22] (AR v2) Copy OK
All tracks accurately ripped
No errors occurred
End of status report
==== Log checksum EFFC8343B70B5A6F7E87C9FB8B1FD3A869B9BCE838EBA2B295C26466B9CAB065 ====

Disc 03

Exact Audio Copy V1.0 beta 3 from 29. August 2011
EAC extraction logfile from 30. April 2013, 10:08
Various Artists / Musica Mexicana, D3
Used drive : HL-DT-STDVDRAM GE24NU30 Adapter: 1 ID: 0
Read mode : SecureUtilize accurate stream : YesDefeat audio cache : YesMake use of C2 pointers : No
Read offset correction : 667Overread into Lead-In and Lead-Out : NoFill up missing offset samples with silence : YesDelete leading and trailing silent blocks : NoNull samples used in CRC calculations : YesUsed interface : Native Win32 interface for Win NT & 2000Gap handling : Appended to previous track
Used output format : User Defined EncoderSelected bitrate : 320 kBit/sQuality : HighAdd ID3 tag : YesCommand line compressor : C:\Program Files (x86)\FLAC\flac.exeAdditional command line options : -6 -V -T "ARTIST=%artist%" -T "TITLE=%title%" -T "ALBUM=%albumtitle%" -T "TRACKNUMBER=%tracknr%" %source% -o %dest%
TOC of the extracted CD
Track | Start | Length | Start sector | End sector --------------------------------------------------------- 1 | 0:00.32 | 8:01.30 | 32 | 36136 2 | 8:01.62 | 6:50.53 | 36137 | 66939 3 | 14:52.40 | 5:46.07 | 66940 | 92896 4 | 20:38.47 | 8:05.43 | 92897 | 129314 5 | 28:44.15 | 10:02.02 | 129315 | 174466 6 | 38:46.17 | 12:55.30 | 174467 | 232621 7 | 51:41.47 | 7:02.23 | 232622 | 264294 8 | 58:43.70 | 5:14.52 | 264295 | 287896
Track 1
Filename C:\Torrents\Musica Mexicana\D3\01-Rodolfo Halffter-Concerto for violin & orchestra, 1. Recitativo. Tranquillo (liberamente). Allegro.wav
Pre-gap length 0:00:02.32
Peak level 77.7 % Extraction speed 1.3 X Track quality 99.9 % Test CRC CF99C4BF Copy CRC CF99C4BF Accurately ripped (confidence 2) [ACE2DD6D] (AR v2) Copy OK
Track 2
Filename C:\Torrents\Musica Mexicana\D3\02-Rodolfo Halffter-Concerto for violin & orchestra, 2. Andante cantabile.wav
Pre-gap length 0:00:02.50
Peak level 64.2 % Extraction speed 1.5 X Track quality 99.9 % Test CRC DD333FD7 Copy CRC DD333FD7 Accurately ripped (confidence 2) [A84A41F8] (AR v2) Copy OK
Track 3
Filename C:\Torrents\Musica Mexicana\D3\03-Rodolfo Halffter-Concerto for violin & orchestra, 3. Allegro vivace.wav
Pre-gap length 0:00:03.33
Peak level 91.3 % Extraction speed 1.8 X Track quality 100.0 % Test CRC 396D84C0 Copy CRC 396D84C0 Accurately ripped (confidence 2) [58673330] (AR v2) Copy OK
Track 4
Filename C:\Torrents\Musica Mexicana\D3\04-José Pablo Moncayo Garcia-Huapango, for orchestra.wav
Pre-gap length 0:00:05.60
Peak level 96.0 % Extraction speed 2.0 X Track quality 100.0 % Test CRC 293F84CD Copy CRC 293F84CD Accurately ripped (confidence 2) [3D18216B] (AR v2) Copy OK
Track 5
Filename C:\Torrents\Musica Mexicana\D3\05-Silvestre Revueltas-Cuauhnáhuac, for orchestra.wav
Pre-gap length 0:00:05.68
Peak level 94.6 % Extraction speed 2.3 X Track quality 100.0 % Test CRC 23ACF93F Copy CRC 23ACF93F Accurately ripped (confidence 2) [98D74857] (AR v2) Copy OK
Track 6
Filename C:\Torrents\Musica Mexicana\D3\06-Manuel María Ponce-Concierto del sur for guitar & orchestra, 1. Allegretto.wav
Pre-gap length 0:00:09.17
Peak level 47.8 % Extraction speed 2.5 X Track quality 100.0 % Test CRC EFF165FD Copy CRC EFF165FD Accurately ripped (confidence 2) [3734888A] (AR v2) Copy OK
Track 7
Filename C:\Torrents\Musica Mexicana\D3\07-Manuel María Ponce-Concierto del sur for guitar & orchestra, 2. Andante.wav
Peak level 42.0 % Extraction speed 2.4 X Track quality 99.9 % Test CRC 78382366 Copy CRC 78382366 Accurately ripped (confidence 2) [D3CF9FA5] (AR v2) Copy OK
Track 8
Filename C:\Torrents\Musica Mexicana\D3\08-Manuel María Ponce-Concierto del sur for guitar & orchestra, 3. Allegro moderato e festivo.wav
Pre-gap length 0:00:02.18
Peak level 47.8 % Extraction speed 2.7 X Track quality 100.0 % Test CRC D33AAD6A Copy CRC D33AAD6A Accurately ripped (confidence 2) [13D99167] (AR v2) Copy OK
All tracks accurately ripped
No errors occurred
End of status report
==== Log checksum AA83E569A1E4946315B1941E517B0D6D8F5AD5F5DE951852A4BC72F0ABDE6132 ====

Disc 04

Exact Audio Copy V1.0 beta 3 from 29. August 2011
EAC extraction logfile from 30. April 2013, 21:01
Various Artists / Musica Mexicana, Volume 4
Used drive : HL-DT-STDVDRAM GE24NU30 Adapter: 1 ID: 0
Read mode : SecureUtilize accurate stream : YesDefeat audio cache : YesMake use of C2 pointers : No
Read offset correction : 667Overread into Lead-In and Lead-Out : NoFill up missing offset samples with silence : YesDelete leading and trailing silent blocks : NoNull samples used in CRC calculations : YesUsed interface : Native Win32 interface for Win NT & 2000Gap handling : Appended to previous track
Used output format : User Defined EncoderSelected bitrate : 320 kBit/sQuality : HighAdd ID3 tag : YesCommand line compressor : C:\Program Files (x86)\FLAC\flac.exeAdditional command line options : -6 -V -T "ARTIST=%artist%" -T "TITLE=%title%" -T "ALBUM=%albumtitle%" -T "TRACKNUMBER=%tracknr%" %source% -o %dest%
TOC of the extracted CD
Track | Start | Length | Start sector | End sector --------------------------------------------------------- 1 | 0:00.32 | 9:10.50 | 32 | 41331 2 | 9:11.07 | 6:38.25 | 41332 | 71206 3 | 15:49.32 | 10:59.08 | 71207 | 120639 4 | 26:48.40 | 3:23.30 | 120640 | 135894 5 | 30:11.70 | 3:17.02 | 135895 | 150671 6 | 33:28.72 | 4:02.23 | 150672 | 168844 7 | 37:31.20 | 2:48.00 | 168845 | 181444 8 | 40:19.20 | 4:39.27 | 181445 | 202396 9 | 44:58.47 | 2:38.58 | 202397 | 214304 10 | 47:37.30 | 9:26.00 | 214305 | 256754 11 | 57:03.30 | 6:03.05 | 256755 | 283984
Track 1
Filename C:\Torrents\Musica Mexicana\D4\01-Silvestre Revueltas-Redes, suite for orchestra (compiled by Erich Kleiber from the film score), 1. The Fisherman - The Child's Funeral.wav
Pre-gap length 0:00:02.32
Peak level 72.0 % Extraction speed 1.2 X Track quality 100.0 % Test CRC 416596AC Copy CRC 416596AC Accurately ripped (confidence 2) [5BA0BF86] (AR v2) Copy OK
Track 2
Filename C:\Torrents\Musica Mexicana\D4\02-Silvestre Revueltas-Redes, suite for orchestra (compiled by Erich Kleiber from the film score), 2. Second part.wav
Peak level 70.3 % Extraction speed 1.4 X Track quality 100.0 % Test CRC 725D926C Copy CRC 725D926C Accurately ripped (confidence 2) [F3FA8317] (AR v2) Copy OK
Track 3
Filename C:\Torrents\Musica Mexicana\D4\03-Silvestre Revueltas-Redes, suite for orchestra (compiled by Erich Kleiber from the film score), 3..wav
Pre-gap length 0:00:07.47
Peak level 57.1 % Extraction speed 1.6 X Track quality 100.0 % Test CRC FFDCC9D6 Copy CRC FFDCC9D6 Accurately ripped (confidence 2) [30A2B517] (AR v2) Copy OK
Track 4
Filename C:\Torrents\Musica Mexicana\D4\04-Miguel Bernal Jiménez-Tres Cartas de México, symphonic suite, 1. Allegro gais.wav
Pre-gap length 0:00:06.30
Peak level 73.3 % Extraction speed 1.6 X Track quality 100.0 % Test CRC 52A283B7 Copy CRC 52A283B7 Accurately ripped (confidence 2) [A4B04C3B] (AR v2) Copy OK
Track 5
Filename C:\Torrents\Musica Mexicana\D4\05-Miguel Bernal Jiménez-Tres Cartas de México, symphonic suite, 2. Allegretto.wav
Pre-gap length 0:00:04.35
Peak level 39.3 % Extraction speed 1.7 X Track quality 100.0 % Test CRC 799128FB Copy CRC 799128FB Accurately ripped (confidence 2) [FC7CDAD6] (AR v2) Copy OK
Track 6
Filename C:\Torrents\Musica Mexicana\D4\06-Miguel Bernal Jiménez-Tres Cartas de México, symphonic suite, 3. Allegro.wav
Pre-gap length 0:00:03.45
Peak level 96.2 % Extraction speed 1.7 X Track quality 100.0 % Test CRC BCA0C809 Copy CRC BCA0C809 Accurately ripped (confidence 2) [CF239C52] (AR v2) Copy OK
Track 7
Filename C:\Torrents\Musica Mexicana\D4\07-Blas Galindo Dimas-Homenaje a Cervantes, suite for orchestra, Gavota - museta - gavota.wav
Pre-gap length 0:00:05.60
Peak level 82.1 % Extraction speed 1.4 X Track quality 99.9 % Test CRC 44F1B566 Copy CRC 44F1B566 Accurately ripped (confidence 2) [D319CF33] (AR v2) Copy OK
Track 8
Filename C:\Torrents\Musica Mexicana\D4\08-Blas Galindo Dimas-Homenaje a Cervantes, suite for orchestra, Sarabanda.wav
Copy aborted
Track 9
Filename C:\Torrents\Musica Mexicana\D4\09-Blas Galindo Dimas-Homenaje a Cervantes, suite for orchestra, Giga.wav
Pre-gap length 0:00:00.72
Peak level 91.5 % Extraction speed 1.8 X Track quality 100.0 % Test CRC 039A4CA6 Copy CRC 039A4CA6 Accurately ripped (confidence 2) [0A61A241] (AR v2) Copy OK
Track 10
Filename C:\Torrents\Musica Mexicana\D4\10-Ricardo Castro-Vals Capricho, for piano (or piano & orchestra), Op. 1.wav
Pre-gap length 0:00:06.20
Peak level 88.6 % Extraction speed 2.2 X Track quality 100.0 % Test CRC 7904877E Copy CRC 7904877E Accurately ripped (confidence 2) [1D51CC25] (AR v2) Copy OK
Track 11
Filename C:\Torrents\Musica Mexicana\D4\11-Carlos Chávez-Zarabanda, for string orchestra.wav
Pre-gap length 0:00:04.20
Peak level 65.0 % Extraction speed 2.3 X Track quality 100.0 % Test CRC 42B7ABED Copy CRC 42B7ABED Accurately ripped (confidence 2) [94CFAAAD] (AR v2) Copy OK
10 track(s) accurately ripped 1 track(s) canceled
Some tracks could not be verified as accurate
There were errors
End of status report
==== Log checksum 3968A50153290145325A9EBFAC81C236369F47DACE6182675E3876FAE591D48A ====Exact Audio Copy V1.0 beta 3 from 29. August 2011
EAC extraction logfile from 8. May 2013, 14:54
Various Artists / Musica Mexicana, Volume 4
Used drive : HL-DT-STDVDRAM GE24NU30 Adapter: 1 ID: 0
Read mode : SecureUtilize accurate stream : YesDefeat audio cache : YesMake use of C2 pointers : No
Read offset correction : 667Overread into Lead-In and Lead-Out : NoFill up missing offset samples with silence : YesDelete leading and trailing silent blocks : NoNull samples used in CRC calculations : YesUsed interface : Native Win32 interface for Win NT & 2000Gap handling : Appended to previous track
Used output format : User Defined EncoderSelected bitrate : 320 kBit/sQuality : HighAdd ID3 tag : YesCommand line compressor : C:\Program Files (x86)\FLAC\flac.exeAdditional command line options : -6 -V -T "ARTIST=%artist%" -T "TITLE=%title%" -T "ALBUM=%albumtitle%" -T "TRACKNUMBER=%tracknr%" %source% -o %dest%
TOC of the extracted CD
Track | Start | Length | Start sector | End sector --------------------------------------------------------- 1 | 0:00.32 | 9:10.50 | 32 | 41331 2 | 9:11.07 | 6:38.25 | 41332 | 71206 3 | 15:49.32 | 10:59.08 | 71207 | 120639 4 | 26:48.40 | 3:23.30 | 120640 | 135894 5 | 30:11.70 | 3:17.02 | 135895 | 150671 6 | 33:28.72 | 4:02.23 | 150672 | 168844 7 | 37:31.20 | 2:48.00 | 168845 | 181444 8 | 40:19.20 | 4:39.27 | 181445 | 202396 9 | 44:58.47 | 2:38.58 | 202397 | 214304 10 | 47:37.30 | 9:26.00 | 214305 | 256754 11 | 57:03.30 | 6:03.05 | 256755 | 283984
Track 8
Filename C:\Torrents\Musica Mexicana\D4\08-Blas Galindo Dimas-Homenaje a Cervantes, suite for orchestra, Sarabanda.wav
Peak level 77.7 % Extraction speed 2.2 X Track quality 100.0 % Test CRC 8C15DFAB Copy CRC 8C15DFAB Cannot be verified as accurate (confidence 2) [B8971B3A], AccurateRip returned [90BE61BB] (AR v2) Copy OK
No tracks could be verified as accurateYou may have a different pressing from the one(s) in the database
No errors occurred
End of status report
==== Log checksum 810D2F3CF51A2318E83B28BE7D851DACFDB52DCF02A7DCF416C10335E3A754B7 ====

Disc 05

Exact Audio Copy V1.0 beta 3 from 29. August 2011
EAC extraction logfile from 2. May 2013, 8:15
Various Artists / Musica Mexicana, Vol. 5
Used drive : HL-DT-STDVDRAM GE24NU30 Adapter: 1 ID: 0
Read mode : SecureUtilize accurate stream : YesDefeat audio cache : YesMake use of C2 pointers : No
Read offset correction : 667Overread into Lead-In and Lead-Out : NoFill up missing offset samples with silence : YesDelete leading and trailing silent blocks : NoNull samples used in CRC calculations : YesUsed interface : Native Win32 interface for Win NT & 2000Gap handling : Appended to previous track
Used output format : User Defined EncoderSelected bitrate : 320 kBit/sQuality : HighAdd ID3 tag : YesCommand line compressor : C:\Program Files (x86)\FLAC\flac.exeAdditional command line options : -6 -V -T "ARTIST=%artist%" -T "TITLE=%title%" -T "ALBUM=%albumtitle%" -T "TRACKNUMBER=%tracknr%" %source% -o %dest%
TOC of the extracted CD
Track | Start | Length | Start sector | End sector --------------------------------------------------------- 1 | 0:00.32 | 2:23.08 | 32 | 10764 2 | 2:23.40 | 4:06.05 | 10765 | 29219 3 | 6:29.45 | 4:45.60 | 29220 | 50654 4 | 11:15.30 | 5:24.67 | 50655 | 75021 5 | 16:40.22 | 7:08.35 | 75022 | 107156 6 | 23:48.57 | 4:32.45 | 107157 | 127601 7 | 28:21.27 | 6:24.05 | 127602 | 156406 8 | 34:45.32 | 6:06.73 | 156407 | 183929 9 | 40:52.30 | 3:00.15 | 183930 | 197444 10 | 43:52.45 | 4:36.72 | 197445 | 218216 11 | 48:29.42 | 4:52.03 | 218217 | 240119 12 | 53:21.45 | 4:53.72 | 240120 | 262166 13 | 58:15.42 | 2:57.50 | 262167 | 275491 14 | 61:13.17 | 7:43.23 | 275492 | 310239
Track 1
Filename C:\Torrents\Musica Mexicana\D5\01-Rodolfo Halffter-Tres Sonatas of Antonio Soler, arr. for orchestra, I. Allegro con garbo.wav
Pre-gap length 0:00:02.32
Peak level 55.0 % Extraction speed 0.7 X Track quality 99.9 % Test CRC 602F539B Copy CRC 602F539B Accurately ripped (confidence 2) [46E02ED6] (AR v2) Copy OK
Track 2
Filename C:\Torrents\Musica Mexicana\D5\02-Rodolfo Halffter-Tres Sonatas of Antonio Soler, arr. for orchestra, II. Allegretto con grazia.wav
Pre-gap length 0:00:00.55
Peak level 41.4 % Extraction speed 1.1 X Track quality 100.0 % Test CRC 31F9CB3A Copy CRC 31F9CB3A Accurately ripped (confidence 2) [6074E45B] (AR v2) Copy OK
Track 3
Filename C:\Torrents\Musica Mexicana\D5\03-Rodolfo Halffter-Tres Sonatas of Antonio Soler, arr. for orchestra, III. Allegro moderato.wav
Pre-gap length 0:00:01.03
Peak level 58.3 % Extraction speed 1.2 X Track quality 100.0 % Test CRC D7810A99 Copy CRC D7810A99 Accurately ripped (confidence 2) [D2D19C11] (AR v2) Copy OK
Track 4
Filename C:\Torrents\Musica Mexicana\D5\04-Silvestre Revueltas-Sensemaya (1938).wav
Pre-gap length 0:00:03.68
Peak level 98.8 % Extraction speed 1.4 X Track quality 100.0 % Test CRC 65422EA8 Copy CRC 65422EA8 Accurately ripped (confidence 2) [8222ACAF] (AR v2) Copy OK
Track 5
Filename C:\Torrents\Musica Mexicana\D5\05-Blas Galindo Dimas-Sones de Mariachi (1940).wav
Pre-gap length 0:00:03.70
Peak level 83.6 % Extraction speed 1.5 X Track quality 100.0 % Test CRC E8F632AB Copy CRC E8F632AB Accurately ripped (confidence 2) [80D4E9D0] (AR v2) Copy OK
Track 6
Filename C:\Torrents\Musica Mexicana\D5\06-Manuel María Ponce-Estrellita.wav
Pre-gap length 0:00:04.62
Peak level 34.5 % Extraction speed 1.4 X Track quality 99.9 % Test CRC E54334B2 Copy CRC E54334B2 Accurately ripped (confidence 2) [7085B455] (AR v2) Copy OK
Track 7
Filename C:\Torrents\Musica Mexicana\D5\07-Rodolfo Halffter-Obertura Festiva, Op. 21 (1952).wav
Pre-gap length 0:00:05.27
Peak level 95.0 % Extraction speed 1.8 X Track quality 100.0 % Test CRC 6C6870CE Copy CRC 6C6870CE Accurately ripped (confidence 2) [16662CA4] (AR v2) Copy OK
Track 8
Filename C:\Torrents\Musica Mexicana\D5\08-Silvestre Revueltas-Janitzio (1933).wav
Pre-gap length 0:00:03.25
Peak level 95.8 % Extraction speed 1.9 X Track quality 100.0 % Test CRC 82B4942C Copy CRC 82B4942C Accurately ripped (confidence 2) [AD2FF726] (AR v2) Copy OK
Track 9
Filename C:\Torrents\Musica Mexicana\D5\09-Rodolfo Halffter-Tripartita, Op. 25 (1959), I. Scherzo.wav
Pre-gap length 0:00:05.05
Peak level 61.3 % Extraction speed 1.7 X Track quality 100.0 % Test CRC EFF96762 Copy CRC EFF96762 Accurately ripped (confidence 2) [FBF87725] (AR v2) Copy OK
Track 10
Filename C:\Torrents\Musica Mexicana\D5\10-Rodolfo Halffter-Tripartita, Op. 25 (1959), II. Romanza sin palabra.wav
Pre-gap length 0:00:00.40
Peak level 59.6 % Extraction speed 2.0 X Track quality 100.0 % Test CRC 522BC1CD Copy CRC 522BC1CD Accurately ripped (confidence 2) [0DF4B923] (AR v2) Copy OK
Track 11
Filename C:\Torrents\Musica Mexicana\D5\11-Rodolfo Halffter-Tripartita, Op. 25 (1959), III. Sonata.wav
Pre-gap length 0:00:01.12
Peak level 71.2 % Extraction speed 2.0 X Track quality 100.0 % Test CRC 0E3CF75D Copy CRC 0E3CF75D Accurately ripped (confidence 2) [13D5A64E] (AR v2) Copy OK
Track 12
Filename C:\Torrents\Musica Mexicana\D5\12-Silvestre Revueltas-Ocho por Radio (1933).wav
Pre-gap length 0:00:05.35
Peak level 56.9 % Extraction speed 2.1 X Track quality 100.0 % Test CRC A510AE6D Copy CRC A510AE6D Accurately ripped (confidence 2) [F7DA4710] (AR v2) Copy OK
Track 13
Filename C:\Torrents\Musica Mexicana\D5\13-Felipe Villanueva-Vals Poetico.wav
Pre-gap length 0:00:02.67
Peak level 74.5 % Extraction speed 2.0 X Track quality 100.0 % Test CRC CD3DCA56 Copy CRC CD3DCA56 Accurately ripped (confidence 2) [2D9BFCC1] (AR v2) Copy OK
Track 14
Filename C:\Torrents\Musica Mexicana\D5\14-Carlos Chávez-Chaconne in E minor, arr. for orchestra (after Buxtehude).wav
Pre-gap length 0:00:03.45
Peak level 85.3 % Extraction speed 2.4 X Track quality 100.0 % Test CRC E617773F Copy CRC E617773F Accurately ripped (confidence 2) [4D81D8A0] (AR v2) Copy OK
All tracks accurately ripped
No errors occurred
End of status report
==== Log checksum 46DF69EBAAE217CDEEEB3BBAF6CF0EF07F2137DC2B4087B534E0F53F47D80BA6 ====

Disc 06

Exact Audio Copy V1.0 beta 3 from 29. August 2011
EAC extraction logfile from 2. May 2013, 19:17
Manuel María Ponce / Musica Mexicana, Vol. 6
Used drive : HL-DT-STDVDRAM GE24NU30 Adapter: 1 ID: 0
Read mode : SecureUtilize accurate stream : YesDefeat audio cache : YesMake use of C2 pointers : No
Read offset correction : 667Overread into Lead-In and Lead-Out : NoFill up missing offset samples with silence : YesDelete leading and trailing silent blocks : NoNull samples used in CRC calculations : YesUsed interface : Native Win32 interface for Win NT & 2000Gap handling : Appended to previous track
Used output format : User Defined EncoderSelected bitrate : 320 kBit/sQuality : HighAdd ID3 tag : YesCommand line compressor : C:\Program Files (x86)\FLAC\flac.exeAdditional command line options : -6 -V -T "ARTIST=%artist%" -T "TITLE=%title%" -T "ALBUM=%albumtitle%" -T "TRACKNUMBER=%tracknr%" %source% -o %dest%
TOC of the extracted CD
Track | Start | Length | Start sector | End sector --------------------------------------------------------- 1 | 0:00.32 | 5:59.65 | 32 | 27021 2 | 6:00.22 | 9:56.05 | 27022 | 71726 3 | 15:56.27 | 4:22.50 | 71727 | 91426 4 | 20:19.02 | 6:19.03 | 91427 | 119854 5 | 26:38.05 | 8:06.45 | 119855 | 156349 6 | 34:44.50 | 11:24.05 | 156350 | 207654 7 | 46:08.55 | 1:45.32 | 207655 | 215561 8 | 47:54.12 | 5:11.28 | 215562 | 238914 9 | 53:05.40 | 5:56.12 | 238915 | 265626 10 | 59:01.52 | 3:30.50 | 265627 | 281426
Track 1
Filename C:\Torrents\Musica Mexicana\D6\01-Manuel María Ponce-Piano Concerto (1912), I. Allegro non troppo.wav
Pre-gap length 0:00:02.32
Peak level 86.3 % Extraction speed 1.2 X Track quality 99.9 % Test CRC 61BC6D63 Copy CRC 61BC6D63 Accurately ripped (confidence 2) [A94FAF64] (AR v2) Copy OK
Track 2
Filename C:\Torrents\Musica Mexicana\D6\02-Manuel María Ponce-Piano Concerto (1912), II. Andante espressivo.wav
Peak level 82.3 % Extraction speed 1.6 X Track quality 100.0 % Test CRC D37EE59C Copy CRC D37EE59C Accurately ripped (confidence 2) [B83930C9] (AR v2) Copy OK
Track 3
Filename C:\Torrents\Musica Mexicana\D6\03-Manuel María Ponce-Piano Concerto (1912), III. Vivo.wav
Peak level 95.3 % Extraction speed 1.7 X Track quality 100.0 % Test CRC 9182BE98 Copy CRC 9182BE98 Accurately ripped (confidence 2) [9E241A80] (AR v2) Copy OK
Track 4
Filename C:\Torrents\Musica Mexicana\D6\04-Manuel María Ponce-Gavota.wav
Pre-gap length 0:00:05.67
Peak level 58.1 % Extraction speed 1.9 X Track quality 100.0 % Test CRC A8317A84 Copy CRC A8317A84 Accurately ripped (confidence 2) [F8E57CA2] (AR v2) Copy OK
Track 5
Filename C:\Torrents\Musica Mexicana\D6\05-Manuel María Ponce-Poema Elegiaco (1935).wav
Pre-gap length 0:00:06.23
Peak level 93.3 % Extraction speed 2.1 X Track quality 100.0 % Test CRC 9C74E73E Copy CRC 9C74E73E Accurately ripped (confidence 2) [7364BDB8] (AR v2) Copy OK
Track 6
Filename C:\Torrents\Musica Mexicana\D6\06-Manuel María Ponce-Balada Mexicana (1914).wav
Pre-gap length 0:00:08.18
Peak level 100.0 % Extraction speed 2.4 X Track quality 100.0 % Test CRC 324179FF Copy CRC 324179FF Accurately ripped (confidence 2) [344F785F] (AR v2) Copy OK
Track 7
Filename C:\Torrents\Musica Mexicana\D6\07-Manuel María Ponce-Danse des Anciens Mexicains.wav
Pre-gap length 0:00:06.35
Peak level 96.9 % Extraction speed 1.9 X Track quality 100.0 % Test CRC 160BA064 Copy CRC 160BA064 Accurately ripped (confidence 2) [70A99EB1] (AR v2) Copy OK
Track 8
Filename C:\Torrents\Musica Mexicana\D6\08-Manuel María Ponce-Chapultepec (Tres bocetos sinfónicos 1929), I. Primavera (Allegretto affettuoso).wav
Pre-gap length 0:00:06.40
Peak level 100.0 % Extraction speed 2.4 X Track quality 100.0 % Test CRC 75C68002 Copy CRC 75C68002 Accurately ripped (confidence 2) [E7F1FB1F] (AR v2) Copy OK
Track 9
Filename C:\Torrents\Musica Mexicana\D6\09-Manuel María Ponce-Chapultepec (Tres bocetos sinfónicos 1929), II. Nocturno (Andante molto espressivo).wav
Pre-gap length 0:00:02.38
Peak level 73.1 % Extraction speed 2.6 X Track quality 100.0 % Test CRC 59BAD463 Copy CRC 59BAD463 Accurately ripped (confidence 2) [02A2D9AD] (AR v2) Copy OK
Track 10
Filename C:\Torrents\Musica Mexicana\D6\10-Manuel María Ponce-Chapultepec (Tres bocetos sinfónicos 1929), Canto y danza (Allegretto languido).wav
Pre-gap length 0:00:01.37
Peak level 95.4 % Extraction speed 2.6 X Track quality 100.0 % Test CRC F2913D4C Copy CRC F2913D4C Accurately ripped (confidence 2) [C8F07675] (AR v2) Copy OK
All tracks accurately ripped
No errors occurred
End of status report
==== Log checksum ADDC5BC8607A1E553FB7C6E74841C4F21308523426782A337BEC053B81148EEC ====

Disc 07

Exact Audio Copy V1.0 beta 3 from 29. August 2011
EAC extraction logfile from 2. May 2013, 20:23
Carlos Chávez / Musica Mexicana, Vol. 7
Used drive : HL-DT-STDVDRAM GE24NU30 Adapter: 1 ID: 0
Read mode : SecureUtilize accurate stream : YesDefeat audio cache : YesMake use of C2 pointers : No
Read offset correction : 667Overread into Lead-In and Lead-Out : NoFill up missing offset samples with silence : YesDelete leading and trailing silent blocks : NoNull samples used in CRC calculations : YesUsed interface : Native Win32 interface for Win NT & 2000Gap handling : Appended to previous track
Used output format : User Defined EncoderSelected bitrate : 320 kBit/sQuality : HighAdd ID3 tag : YesCommand line compressor : C:\Program Files (x86)\FLAC\flac.exeAdditional command line options : -6 -V -T "ARTIST=%artist%" -T "TITLE=%title%" -T "ALBUM=%albumtitle%" -T "TRACKNUMBER=%tracknr%" %source% -o %dest%
TOC of the extracted CD
Track | Start | Length | Start sector | End sector --------------------------------------------------------- 1 | 0:00.00 | 6:52.10 | 0 | 30909 2 | 6:52.10 | 8:49.67 | 30910 | 70651 3 | 15:42.02 | 7:31.18 | 70652 | 104494 4 | 23:13.20 | 23:10.10 | 104495 | 208754 5 | 46:23.30 | 4:02.35 | 208755 | 226939 6 | 50:25.65 | 5:12.37 | 226940 | 250376
Track 1
Filename C:\Torrents\Musica Mexicana\D7\01-Carlos Chavez (1899-1978)-Toccata for orchestra (1947).wav
Pre-gap length 0:00:02.00
Peak level 87.4 % Extraction speed 1.3 X Track quality 100.0 % Test CRC 1F7DED6D Copy CRC 1F7DED6D Accurately ripped (confidence 2) [6978DF43] (AR v2) Copy OK
Track 2
Filename C:\Torrents\Musica Mexicana\D7\02-Carlos Chavez (1899-1978)-Paisajes Mexicanos (Variaciones sinfonicas) Part I. Lentamente.wav
Pre-gap length 0:00:06.55
Peak level 99.9 % Extraction speed 1.5 X Track quality 99.9 % Test CRC 19CCB6B8 Copy CRC 19CCB6B8 Accurately ripped (confidence 2) [A44F4E98] (AR v2) Copy OK
Track 3
Filename C:\Torrents\Musica Mexicana\D7\03-Carlos Chavez (1899-1978)-Paisajes Mexicanos (Variaciones sinfonicas) Part II. Lento.wav
Pre-gap length 0:00:06.55
Peak level 93.7 % Extraction speed 1.9 X Track quality 100.0 % Test CRC 29AA223B Copy CRC 29AA223B Accurately ripped (confidence 2) [17799FA6] (AR v2) Copy OK
Track 4
Filename C:\Torrents\Musica Mexicana\D7\04-Carlos Chavez (1899-1978)-La Hija de Colquide (Suite sinfonica - 1943).wav
Pre-gap length 0:00:06.55
Peak level 85.2 % Extraction speed 2.3 X Track quality 100.0 % Test CRC 2F5FF6BD Copy CRC 2F5FF6BD Accurately ripped (confidence 2) [026F3E9C] (AR v2) Copy OK
Track 5
Filename C:\Torrents\Musica Mexicana\D7\05-Carlos Chavez (1899-1978)-Cantos de México (1933).wav
Pre-gap length 0:00:06.55
Peak level 95.4 % Extraction speed 2.4 X Track quality 100.0 % Test CRC 90EC4BA3 Copy CRC 90EC4BA3 Accurately ripped (confidence 2) [E27BC083] (AR v2) Copy OK
Track 6
Filename C:\Torrents\Musica Mexicana\D7\06-Carlos Chavez (1899-1978)-Baile, Symphonic Painting (1953).wav
Pre-gap length 0:00:06.55
Peak level 89.2 % Extraction speed 2.5 X Track quality 100.0 % Test CRC 7187D9AE Copy CRC 7187D9AE Accurately ripped (confidence 2) [25D3AD6E] (AR v2) Copy OK
All tracks accurately ripped
No errors occurred
End of status report
==== Log checksum D5A7663E6CA29613A993EF1FF507A635F087213AD87B4C2C70708B207D1A2469 ====

Disc 08

Exact Audio Copy V1.0 beta 3 from 29. August 2011
EAC extraction logfile from 2. May 2013, 21:57
Various Artists / Musica Mexicana, Vol. 8
Used drive : HL-DT-STDVDRAM GE24NU30 Adapter: 1 ID: 0
Read mode : SecureUtilize accurate stream : YesDefeat audio cache : YesMake use of C2 pointers : No
Read offset correction : 667Overread into Lead-In and Lead-Out : NoFill up missing offset samples with silence : YesDelete leading and trailing silent blocks : NoNull samples used in CRC calculations : YesUsed interface : Native Win32 interface for Win NT & 2000Gap handling : Appended to previous track
Used output format : User Defined EncoderSelected bitrate : 320 kBit/sQuality : HighAdd ID3 tag : YesCommand line compressor : C:\Program Files (x86)\FLAC\flac.exeAdditional command line options : -6 -V -T "ARTIST=%artist%" -T "TITLE=%title%" -T "ALBUM=%albumtitle%" -T "TRACKNUMBER=%tracknr%" %source% -o %dest%
TOC of the extracted CD
Track | Start | Length | Start sector | End sector --------------------------------------------------------- 1 | 0:00.32 | 14:03.40 | 32 | 63296 2 | 14:03.72 | 7:16.20 | 63297 | 96016 3 | 21:20.17 | 7:11.08 | 96017 | 128349 4 | 28:31.25 | 8:25.50 | 128350 | 166274 5 | 36:57.00 | 8:59.60 | 166275 | 206759 6 | 45:56.60 | 5:07.15 | 206760 | 229799 7 | 51:04.00 | 9:48.60 | 229800 | 273959 8 | 60:52.60 | 10:16.40 | 273960 | 320199
Track 1
Filename C:\Torrents\Musica Mexicana\D8\01-Carlos Chávez-Symphony No. 1 (''Sinfonía de Antígona'').wav
Pre-gap length 0:00:02.32
Peak level 91.2 % Extraction speed 1.3 X Track quality 100.0 % Test CRC A792E459 Copy CRC A792E459 Accurately ripped (confidence 2) [2A3EF2AF] (AR v2) Copy OK
Track 2
Filename C:\Torrents\Musica Mexicana\D8\02-Carlos Chávez-Symphony No. 4 (''Sinfonía Romántica''), I. Allegro.wav
Pre-gap length 0:00:07.67
Peak level 81.2 % Extraction speed 1.4 X Track quality 99.9 % Test CRC 55537A67 Copy CRC 55537A67 Accurately ripped (confidence 2) [BDC5EB8D] (AR v2) Copy OK
Track 3
Filename C:\Torrents\Musica Mexicana\D8\03-Carlos Chávez-Symphony No. 4 (''Sinfonía Romántica''), II. Molto lento.wav
Peak level 44.4 % Extraction speed 1.7 X Track quality 100.0 % Test CRC DC1A6B40 Copy CRC DC1A6B40 Accurately ripped (confidence 2) [16B42217] (AR v2) Copy OK
Track 4
Filename C:\Torrents\Musica Mexicana\D8\04-Carlos Chávez-Symphony No. 4 (''Sinfonía Romántica''), III. Vivo non troppo mosso.wav
Pre-gap length 0:00:02.00
Peak level 95.5 % Extraction speed 1.9 X Track quality 100.0 % Test CRC 19BE1B70 Copy CRC 19BE1B70 Accurately ripped (confidence 2) [D72D0584] (AR v2) Copy OK
Track 5
Filename C:\Torrents\Musica Mexicana\D8\05-Silvestre Revueltas-Caminos, for orchestra.wav
Pre-gap length 0:00:07.43
Peak level 95.5 % Extraction speed 1.9 X Track quality 99.9 % Test CRC EE906BA0 Copy CRC EE906BA0 Accurately ripped (confidence 2) [AC4B50F3] (AR v2) Copy OK
Track 6
Filename C:\Torrents\Musica Mexicana\D8\06-Silvestre Revueltas-Música para charlar, concert version of film score for orchestra, 1. Construction of the Railroad- Sleepers and Rails - Home Land - Mexicali - Telegraph Poles.wav
Pre-gap length 0:00:05.48
Peak level 95.5 % Extraction speed 2.1 X Track quality 100.0 % Test CRC D410B7C9 Copy CRC D410B7C9 Accurately ripped (confidence 2) [4950CE53] (AR v2) Copy OK
Track 7
Filename C:\Torrents\Musica Mexicana\D8\07-Silvestre Revueltas-Música para charlar, concert version of film score for orchestra, 2. The Desert- Cactus - Twillight - Sand and Water - Tractors - Htmn to the Home Land.wav
Pre-gap length 0:00:02.38
Peak level 91.7 % Extraction speed 2.3 X Track quality 100.0 % Test CRC A0F91383 Copy CRC A0F91383 Accurately ripped (confidence 2) [61704DBB] (AR v2) Copy OK
Track 8
Filename C:\Torrents\Musica Mexicana\D8\08-Silvestre Revueltas-Ventanas, for orchestra.wav
Pre-gap length 0:00:04.68
Peak level 95.5 % Extraction speed 2.3 X Track quality 99.9 % Test CRC 19F91C48 Copy CRC 19F91C48 Accurately ripped (confidence 2) [1B6D5BC2] (AR v2) Copy OK
All tracks accurately ripped
No errors occurred
End of status report
==== Log checksum BDB780F9DCDB3E8F405AA45D0CBAE1C53CEC806C192DEB433369667B8E7AB1E9 ====
[pre][/pre]

Содержание индексной карты (.CUE)

Disc 01

[pre]REM GENRE "20th Century"
REM DATE 2008
REM DISCID A50D8A0D
REM COMMENT "ExactAudioCopy v1.0b3"
PERFORMER "Various Artists"
TITLE "Musica Mexicana, D1"
FILE "01-Carlos Chávez-Chapultepec, for orchestra or band (''Republican Overture'').wav" WAVE
TRACK 01 AUDIO
TITLE "Chapultepec, for orchestra or band ('Republican Overture')"
PERFORMER "Carlos Chávez"
INDEX 01 00:00:00
TRACK 02 AUDIO
TITLE "Ferial, divertimento sinfónico for orchestra"
PERFORMER "Manuel María Ponce"
INDEX 00 06:27:12
FILE "02-Manuel María Ponce-Ferial, divertimento sinfónico for orchestra.wav" WAVE
INDEX 01 00:00:00
TRACK 03 AUDIO
TITLE "Instantaneas Mexicanas for orchestra: Canto a la Malinche"
PERFORMER "Manuel María Ponce"
INDEX 00 15:20:40
FILE "03-Manuel María Ponce-Instantaneas Mexicanas for orchestra, Canto a la Malinche.wav" WAVE
INDEX 01 00:00:00
TRACK 04 AUDIO
TITLE "Instantaneas Mexicanas for orchestra: Musica Indigena"
PERFORMER "Manuel María Ponce"
INDEX 00 01:22:22
FILE "04-Manuel María Ponce-Instantaneas Mexicanas for orchestra, Musica Indigena.wav" WAVE
INDEX 01 00:00:00
TRACK 05 AUDIO
TITLE "Instantaneas Mexicanas for orchestra: Cancion Popular"
PERFORMER "Manuel María Ponce"
INDEX 00 01:29:05
FILE "05-Manuel María Ponce-Instantaneas Mexicanas for orchestra, Cancion Popular.wav" WAVE
INDEX 01 00:00:00
TRACK 06 AUDIO
TITLE "Instantaneas Mexicanas for orchestra: Baile Del Brajo"
PERFORMER "Manuel María Ponce"
INDEX 00 03:48:22
FILE "06-Manuel María Ponce-Instantaneas Mexicanas for orchestra, Baile Del Brajo.wav" WAVE
INDEX 01 00:00:00
TRACK 07 AUDIO
TITLE "Instantaneas Mexicanas for orchestra: Danza 1"
PERFORMER "Manuel María Ponce"
INDEX 00 00:59:17
FILE "07-Manuel María Ponce-Instantaneas Mexicanas for orchestra, Danza 1.wav" WAVE
INDEX 01 00:00:00
TRACK 08 AUDIO
TITLE "Instantaneas Mexicanas for orchestra: Danza 2"
PERFORMER "Manuel María Ponce"
INDEX 00 01:27:70
FILE "08-Manuel María Ponce-Instantaneas Mexicanas for orchestra, Danza 2.wav" WAVE
INDEX 01 00:00:00
TRACK 09 AUDIO
TITLE "Toccata (sin Fuga), for solo violin, 6 wind instruments & 3 perucssionists"
PERFORMER "Silvestre Revueltas"
INDEX 00 02:01:27
FILE "09-Silvestre Revueltas-Toccata (sin Fuga), for solo violin, 6 wind instruments & 3 perucssionists.wav" WAVE
INDEX 01 00:00:00
TRACK 10 AUDIO
TITLE "Estampas Nocturnas - La Noche"
PERFORMER "Manuel María Ponce"
INDEX 00 03:55:18
FILE "10-Manuel María Ponce-Estampas Nocturnas - La Noche.wav" WAVE
INDEX 01 00:00:00
TRACK 11 AUDIO
TITLE "Estampas Nocturnas for orchestra: En tiempo del Rey Sol"
PERFORMER "Manuel María Ponce"
INDEX 00 08:14:47
FILE "11-Manuel María Ponce-Estampas Nocturnas for orchestra, En tiempo del Rey Sol.wav" WAVE
INDEX 01 00:00:00
TRACK 12 AUDIO
TITLE "Estampas Nocturnas for orchestra: Arrulladora"
PERFORMER "Manuel María Ponce"
INDEX 00 05:16:35
FILE "12-Manuel María Ponce-Estampas Nocturnas for orchestra, Arrulladora.wav" WAVE
INDEX 01 00:00:00
TRACK 13 AUDIO
TITLE "Estampas Nocturnas for orchestra: Scherzo de Puck"
PERFORMER "Manuel María Ponce"
INDEX 00 03:15:12
FILE "13-Manuel María Ponce-Estampas Nocturnas for orchestra, Scherzo de Puck.wav" WAVE
INDEX 01 00:00:00

Disc 02

REM GENRE "20th Century"REM DATE 2008REM DISCID 7110CE08REM COMMENT "ExactAudioCopy v1.0b3"PERFORMER "Various Artists"TITLE "Musica Mexicana, D2"FILE "01-Manuel María Ponce-Concerto for violin & orchestra, I. Allegro non troppo.wav" WAVE TRACK 01 AUDIO TITLE "Concerto for violin & orchestra: I. Allegro non troppo" PERFORMER "Manuel María Ponce" PREGAP 00:00:32 INDEX 01 00:00:00 TRACK 02 AUDIO TITLE "Concerto for violin & orchestra: II. Andante espressivo" PERFORMER "Manuel María Ponce" INDEX 00 16:11:70FILE "02-Manuel María Ponce-Concerto for violin & orchestra, II. Andante espressivo.wav" WAVE INDEX 01 00:00:00 TRACK 03 AUDIO TITLE "Concerto for violin & orchestra: III. Vivo giocoso" PERFORMER "Manuel María Ponce" INDEX 00 07:22:07FILE "03-Manuel María Ponce-Concerto for violin & orchestra, III. Vivo giocoso.wav" WAVE INDEX 01 00:00:00 TRACK 04 AUDIO TITLE "Symphony No. 2 ('Sinfonía india')" PERFORMER "Carlos Chávez" INDEX 00 08:19:00FILE "04-Carlos Chávez-Symphony No. 2 (''Sinfonía india'').wav" WAVE INDEX 01 00:00:00 TRACK 05 AUDIO TITLE "La Noche de los Mayas, film score: Noche de los Mayas" PERFORMER "Silvestre Revueltas" INDEX 00 11:42:63FILE "05-Silvestre Revueltas-La Noche de los Mayas, film score, Noche de los Mayas.wav" WAVE INDEX 01 00:00:00 TRACK 06 AUDIO TITLE "La Noche de los Mayas, film score: Noche de jaranas" PERFORMER "Silvestre Revueltas" INDEX 00 06:18:12FILE "06-Silvestre Revueltas-La Noche de los Mayas, film score, Noche de jaranas.wav" WAVE INDEX 01 00:00:00 TRACK 07 AUDIO TITLE "La Noche de los Mayas, film score: Noche de Yucatán" PERFORMER "Silvestre Revueltas" INDEX 00 05:04:30FILE "07-Silvestre Revueltas-La Noche de los Mayas, film score, Noche de Yucatán.wav" WAVE INDEX 01 00:00:00FILE "08-Silvestre Revueltas-La Noche de los Mayas, film score, Noche de encantamiento.wav" WAVE TRACK 08 AUDIO TITLE "La Noche de los Mayas, film score: Noche de encantamiento" PERFORMER "Silvestre Revueltas" INDEX 01 00:00:00

Disc 03

REM GENRE "20th Century"REM DATE 2008REM DISCID 620EFE08REM COMMENT "ExactAudioCopy v1.0b3"PERFORMER "Various Artists"TITLE "Musica Mexicana, D3"FILE "01-Rodolfo Halffter-Concerto for violin & orchestra, 1. Recitativo. Tranquillo (liberamente). Allegro.wav" WAVE TRACK 01 AUDIO TITLE "Concerto for violin & orchestra: 1. Recitativo. Tranquillo (liberamente). All..." PERFORMER "Rodolfo Halffter" PREGAP 00:00:32 INDEX 01 00:00:00 TRACK 02 AUDIO TITLE "Concerto for violin & orchestra: 2. Andante cantabile" PERFORMER "Rodolfo Halffter" INDEX 00 07:58:55FILE "02-Rodolfo Halffter-Concerto for violin & orchestra, 2. Andante cantabile.wav" WAVE INDEX 01 00:00:00 TRACK 03 AUDIO TITLE "Concerto for violin & orchestra: 3. Allegro vivace" PERFORMER "Rodolfo Halffter" INDEX 00 06:47:20FILE "03-Rodolfo Halffter-Concerto for violin & orchestra, 3. Allegro vivace.wav" WAVE INDEX 01 00:00:00 TRACK 04 AUDIO TITLE "Huapango, for orchestra" PERFORMER "José Pablo Moncayo Garcia" INDEX 00 05:40:22FILE "04-José Pablo Moncayo Garcia-Huapango, for orchestra.wav" WAVE INDEX 01 00:00:00 TRACK 05 AUDIO TITLE "Cuauhnáhuac, for orchestra" PERFORMER "Silvestre Revueltas" INDEX 00 07:59:50FILE "05-Silvestre Revueltas-Cuauhnáhuac, for orchestra.wav" WAVE INDEX 01 00:00:00 TRACK 06 AUDIO TITLE "Concierto del sur for guitar & orchestra: 1. Allegretto" PERFORMER "Manuel María Ponce" INDEX 00 09:52:60FILE "06-Manuel María Ponce-Concierto del sur for guitar & orchestra, 1. Allegretto.wav" WAVE INDEX 01 00:00:00FILE "07-Manuel María Ponce-Concierto del sur for guitar & orchestra, 2. Andante.wav" WAVE TRACK 07 AUDIO TITLE "Concierto del sur for guitar & orchestra: 2. Andante" PERFORMER "Manuel María Ponce" INDEX 01 00:00:00 TRACK 08 AUDIO TITLE "Concierto del sur for guitar & orchestra: 3. Allegro moderato e festivo" PERFORMER "Manuel María Ponce" INDEX 00 07:00:05FILE "08-Manuel María Ponce-Concierto del sur for guitar & orchestra, 3. Allegro moderato e festivo.wav" WAVE INDEX 01 00:00:00

Disc 04

REM GENRE "20th Century"REM DATE 2008REM DISCID 7A0ECA0BREM COMMENT "ExactAudioCopy v1.0b3"PERFORMER "Various Artists"TITLE "Musica Mexicana, Volume 4"FILE "01-Silvestre Revueltas-Redes, suite for orchestra (compiled by Erich Kleiber from the film score), 1. The Fisherman - The Child's Funeral.wav" WAVE TRACK 01 AUDIO TITLE "Redes, suite for orchestra (compiled by Erich Kleiber from the film score): 1..." PERFORMER "Silvestre Revueltas" PREGAP 00:00:32 INDEX 01 00:00:00FILE "02-Silvestre Revueltas-Redes, suite for orchestra (compiled by Erich Kleiber from the film score), 2. Second part.wav" WAVE TRACK 02 AUDIO TITLE "Redes, suite for orchestra (compiled by Erich Kleiber from the film score): 2..." PERFORMER "Silvestre Revueltas" INDEX 01 00:00:00 TRACK 03 AUDIO TITLE "Redes, suite for orchestra (compiled by Erich Kleiber from the film score): 3. " PERFORMER "Silvestre Revueltas" INDEX 00 06:30:53FILE "03-Silvestre Revueltas-Redes, suite for orchestra (compiled by Erich Kleiber from the film score), 3..wav" WAVE INDEX 01 00:00:00 TRACK 04 AUDIO TITLE "Tres Cartas de México, symphonic suite: 1. Allegro gais" PERFORMER "Miguel Bernal Jiménez" INDEX 00 10:52:53FILE "04-Miguel Bernal Jiménez-Tres Cartas de México, symphonic suite, 1. Allegro gais.wav" WAVE INDEX 01 00:00:00 TRACK 05 AUDIO TITLE "Tres Cartas de México, symphonic suite: 2. Allegretto" PERFORMER "Miguel Bernal Jiménez" INDEX 00 03:18:70FILE "05-Miguel Bernal Jiménez-Tres Cartas de México, symphonic suite, 2. Allegretto.wav" WAVE INDEX 01 00:00:00 TRACK 06 AUDIO TITLE "Tres Cartas de México, symphonic suite: 3. Allegro" PERFORMER "Miguel Bernal Jiménez" INDEX 00 03:13:32FILE "06-Miguel Bernal Jiménez-Tres Cartas de México, symphonic suite, 3. Allegro.wav" WAVE INDEX 01 00:00:00 TRACK 07 AUDIO TITLE "Homenaje a Cervantes, suite for orchestra: Gavota - museta - gavota" PERFORMER "Blas Galindo Dimas" INDEX 00 03:56:38FILE "07-Blas Galindo Dimas-Homenaje a Cervantes, suite for orchestra, Gavota - museta - gavota.wav" WAVE INDEX 01 00:00:00FILE "08-Blas Galindo Dimas-Homenaje a Cervantes, suite for orchestra, Sarabanda.wav" WAVE TRACK 08 AUDIO TITLE "Homenaje a Cervantes, suite for orchestra: Sarabanda" PERFORMER "Blas Galindo Dimas" INDEX 01 00:00:00 TRACK 09 AUDIO TITLE "Homenaje a Cervantes, suite for orchestra: Giga" PERFORMER "Blas Galindo Dimas" INDEX 00 04:38:30FILE "09-Blas Galindo Dimas-Homenaje a Cervantes, suite for orchestra, Giga.wav" WAVE INDEX 01 00:00:00 TRACK 10 AUDIO TITLE "Vals Capricho, for piano (or piano & orchestra), Op. 1" PERFORMER "Ricardo Castro" INDEX 00 02:32:38FILE "10-Ricardo Castro-Vals Capricho, for piano (or piano & orchestra), Op. 1.wav" WAVE INDEX 01 00:00:00 TRACK 11 AUDIO TITLE "Zarabanda, for string orchestra" PERFORMER "Carlos Chávez" INDEX 00 09:21:55FILE "11-Carlos Chávez-Zarabanda, for string orchestra.wav" WAVE INDEX 01 00:00:00

Disc 05

REM GENRE "20th Century"REM DATE 2008REM DISCID B310280EREM COMMENT "ExactAudioCopy v1.0b3"PERFORMER "Various Artists"TITLE "Musica Mexicana, Vol. 5"FILE "01-Rodolfo Halffter-Tres Sonatas of Antonio Soler, arr. for orchestra, I. Allegro con garbo.wav" WAVE TRACK 01 AUDIO TITLE "Tres Sonatas of Antonio Soler, arr. for orchestra: I. Allegro con garbo" PERFORMER "Rodolfo Halffter" PREGAP 00:00:32 INDEX 01 00:00:00 TRACK 02 AUDIO TITLE "Tres Sonatas of Antonio Soler, arr. for orchestra: II. Allegretto con grazia" PERFORMER "Rodolfo Halffter" INDEX 00 02:22:28FILE "02-Rodolfo Halffter-Tres Sonatas of Antonio Soler, arr. for orchestra, II. Allegretto con grazia.wav" WAVE INDEX 01 00:00:00 TRACK 03 AUDIO TITLE "Tres Sonatas of Antonio Soler, arr. for orchestra: III. Allegro moderato" PERFORMER "Rodolfo Halffter" INDEX 00 04:05:02FILE "03-Rodolfo Halffter-Tres Sonatas of Antonio Soler, arr. for orchestra, III. Allegro moderato.wav" WAVE INDEX 01 00:00:00 TRACK 04 AUDIO TITLE "Sensemaya (1938)" PERFORMER "Silvestre Revueltas" INDEX 00 04:41:67FILE "04-Silvestre Revueltas-Sensemaya (1938).wav" WAVE INDEX 01 00:00:00 TRACK 05 AUDIO TITLE "Sones de Mariachi (1940)" PERFORMER "Blas Galindo Dimas" INDEX 00 05:20:72FILE "05-Blas Galindo Dimas-Sones de Mariachi (1940).wav" WAVE INDEX 01 00:00:00 TRACK 06 AUDIO TITLE "Estrellita" PERFORMER "Manuel María Ponce" INDEX 00 07:03:48FILE "06-Manuel María Ponce-Estrellita.wav" WAVE INDEX 01 00:00:00 TRACK 07 AUDIO TITLE "Obertura Festiva, Op. 21 (1952)" PERFORMER "Rodolfo Halffter" INDEX 00 04:27:18FILE "07-Rodolfo Halffter-Obertura Festiva, Op. 21 (1952).wav" WAVE INDEX 01 00:00:00 TRACK 08 AUDIO TITLE "Janitzio (1933)" PERFORMER "Silvestre Revueltas" INDEX 00 06:20:55FILE "08-Silvestre Revueltas-Janitzio (1933).wav" WAVE INDEX 01 00:00:00 TRACK 09 AUDIO TITLE "Tripartita, Op. 25 (1959): I. Scherzo" PERFORMER "Rodolfo Halffter" INDEX 00 06:01:68FILE "09-Rodolfo Halffter-Tripartita, Op. 25 (1959), I. Scherzo.wav" WAVE INDEX 01 00:00:00 TRACK 10 AUDIO TITLE "Tripartita, Op. 25 (1959): II. Romanza sin palabra" PERFORMER "Rodolfo Halffter" INDEX 00 02:59:50FILE "10-Rodolfo Halffter-Tripartita, Op. 25 (1959), II. Romanza sin palabra.wav" WAVE INDEX 01 00:00:00 TRACK 11 AUDIO TITLE "Tripartita, Op. 25 (1959): III. Sonata" PERFORMER "Rodolfo Halffter" INDEX 00 04:35:60FILE "11-Rodolfo Halffter-Tripartita, Op. 25 (1959), III. Sonata.wav" WAVE INDEX 01 00:00:00 TRACK 12 AUDIO TITLE "Ocho por Radio (1933)" PERFORMER "Silvestre Revueltas" INDEX 00 04:46:43FILE "12-Silvestre Revueltas-Ocho por Radio (1933).wav" WAVE INDEX 01 00:00:00 TRACK 13 AUDIO TITLE "Vals Poetico" PERFORMER "Felipe Villanueva" INDEX 00 04:51:05FILE "13-Felipe Villanueva-Vals Poetico.wav" WAVE INDEX 01 00:00:00 TRACK 14 AUDIO TITLE "Chaconne in E minor, arr. for orchestra (after Buxtehude)" PERFORMER "Carlos Chávez" INDEX 00 02:54:05FILE "14-Carlos Chávez-Chaconne in E minor, arr. for orchestra (after Buxtehude).wav" WAVE INDEX 01 00:00:00
[teatrix.ru].t9741.torrent 
Торрент: Зарегистрирован [ 2015-10-23 17:11 ] · 38DE9A2E2D1FDCF016FBB6462FDF72F1B7FCB48E

Скачать .torrent

Скачать

23 KB

Статус: проверено
Скачан: 4 раз
Размер: 2.29 GB
terms.php



Быстрый ответ

Имя:

      
Для отправки сообщений необходимо включить JavaScript
Показать сообщения:    

Текущее время: 20-Янв 14:59

Часовой пояс: UTC + 3


Вы можете начинать темы
Вы можете отвечать на сообщения
Вы не можете редактировать свои сообщения
Вы не можете удалять свои сообщения
Вы не можете голосовать в опросах
Вы не можете прикреплять файлы к сообщениям
Вы можете скачивать файлы