(Classical) VA Classic Gold - Orff,Bizet,Mozart,Vivaldi,Beethoven,Bach,Brahms,Mascagni,Liszt,Smetana, Boccherini,Чайковский,Paganini,Albeniz,Wagner,Satie,Verdi 3CD - 2004, FLAC (tracks+.cue) lossless


Статистика раздачи [Обновить пиров]
Размер:  983 MB   |    Зарегистрирован:  1 год 1 месяц   |    Скачан:  1 раз

Полного источника не было: 7 месяцев 10 дней

Личеров:  2  [  0 KB/s  ]   Подробная статистика пиров
 
   
 
 
 

[Цитировать]

VA Classic Gold - Orff,Bizet,Mozart,Vivaldi,Beethoven,Bach,Brahms,Mascagni,Liszt,Smetana,
Boccherini,Tchaikovsky,Paganini,Albeniz,Wagner,Satie,Verdi
3CD (2004)
Жанр: Classical
Страна-производитель диска: Made in E.U.
Год издания диска: 2004
Издатель (лейбл): Deutche Grammophon
Номер по каталогу: 476 7042
Дата записи: см по каждому диску
Аудиокодек: FLAC
Тип рипа: tracks+.cue
Битрейт аудио: lossless
Продолжительность: 1:11:40 + 1:11:54 + 1:14:04
Источник: NetLab, Pr3ss
Наличие сканов в содержимом раздачи: да
Треклист:

CD 1 476 7045

01. ORFF: О Fortuna da Carmina Burana (2:39)
Chorus of the Deutsche Oper Berlin, Walter Hagen-Groll
Deutsche Oper Orchestra Berlin, Eugcn Jochum

02. BIZET: Toreador da Carmen Suite* (2:09)
Orchestre de l'Opera de la Bastille, Myung-Whun Chung
03. MOZART: Eine kleine Nachtmusik K525 - Allegro (6:13)
Wiener Philharmoniker, Karl Bohm
04. VIVALDI: "La primavera" Concerto per violino e archi, R269 - Allegro* (3:27)
Isaac Stern, Israel Philharmonic Orchestra, Zubin Mehta
05. BEETHOVEN: "Al chiaro di luna" (6:05)
Sonata per pianoforte n.14, op.27 n.2 - Adagio sostenuto
Wilhelm Kempff
06. BACH: Aria sulla IV corda dalla Suite a.3, BWV1068 (5:47)
Wiener Philharmoniker, Karl Bohm
07. BRAHMS: Danza ungherese n.5 in sol minore (2:30)
Berliner Philharmoniker, Paul van Kempen
08. MASCAGNI: Intermezzo sinfonico da Cavalleria rusticana (3:31)
Berliner Philharmoniker, Herbert von Karajan
09. LISZT: Sogno d'amore, Notturno n.3 in la bemolle maggiore* (5:03)
Poco allegro, con affetto
Anatol Ugorski
10. SMETANA: La Moldava da La mia patria (excerpt) (3:51)
Boston Symphony Orchestra, Rafael Kubelik
11. BOCCHERINI: Minuetto dai Quintetto per archi op.ll, n.5* (3:24)
Orpheus Chamber Orchestra
12. TCHAIKOVSKY: Valzer dei fiori da Lo schiaccianoci, Suite op. 71a (7:05)
Berliner Philharmoniker, Herbert von Karajan
13. PAGANINI: "La campanella" Concerto per violino n.2, op.7 - Rondo (excerpt) (1:36)
Salvatore Accardo, London Philharmonic Orchestra, Charles Dutoit
14. BEETHOVEN: "Per Elisa" Bagatella in la minore, Wo059* (4:01)
Anatol Ugorski
15. ALBENIZ: Asturias da Suite spagnola, op.47 (trascr. A. Segovia) (excerpt) (2:30)
Narciso Yepes
16. WAGNER: La cavalcata delle valchirie* (3:06)
Wiener Philharmoniker, Sir Georg Solti
17. SATIE: Gymnopedie n.1 (3:56)
Jean-Marc Luisada
18. VERDI: Va' pensiero da Nabucco* (4:56)
Orchestra of the Deutsche Oper Berlin and Chorus, Giuseppe Sinopoli
ADD/DDD*
℗1952 (7). 1961 (6), 1965 (5), 1967 (12), 1968 (1,8), 1971 (10,15), 1976 (3), 1983 (4,18), 1991 (2, 14)
1993 (11), 1994 (17), 1995 (9), 2002 (13) Deutsche Grammophon GmbH, Hamburg
℗ 1983 (16) Decca Music Group Ltd., London, England

CD 2 476 7044

01. R. STRAUSS: Cosi parlo Zarathustra, Introduzione* (1:59)
Wiener Philharmoniker, Lorin Maazel
02. ALBINONI: Adagio per archi e organo (arr. R. Giazotto) (4:16)
Lucerne Festival Strings, Rudolf Baumgartner
03. MOZART: Sinfonia n.40 in sol minore K550 (8:55)
Molto allegro
Wiener Philharmoniker, Karl Bohm
04. TCHAIKOVSKY: Il lago dei cigni, Suite: Atto II (2:37)
Wiener Philharmoniker, Herbert von Karajan
05. PACHELBEL: Canone e giga in re maggiore* (5:51)
The English Concert, Trevor Pinnock
06. RODRIGO: Concierto de Aranjuez per chitarra e orchestra - Adagio (5:45)
Narciso Yepez, Philharmonia Orchestra, Luis-Antonio Garcia Navarro
07. CHOPIN: Notturno n.2 in mi bemolle, op.9 n.2 (4:02)
Tamas Vasary
08. BACH: Badinerie da Suite n.2 in si minore, BWV1067 (1:30)
Aurele Nicolet, Munich Bach Orchestra, Karl Richter
09. CHARPENTIER: Preludio da Те Deum (rev. W. Kolneder)* (1:23)
Orchestra dell'Accademia di Santa Cecilia, Myung-Whun Chung
10. BEETHOVEN: Sinfonia n.5 in do minore (7:13)
Allegro con brio
Berliner Philharmoniker, Herbert von Karajan
11. SAINT-SAENS: Il cigno da Il carnevale degli animali (2:50)
Alfons e Aloys Kontarsky, Wolfgang Herzer
Wiener Philharmoniker, Karl Bohm

12. SCHUBERT: Momento musicale n.3 D780 in fa minore (2:07)
Wilhelm Kempff
13. KHACHATURIAN: Danza delle spade da Gayaneh (2:18)
Leningrad Philharmonic Orchestra, Gennadi Rozhdestvensky
14. MASSENET: Meditation da Thais* (4:51)
Christer Thorvaldsson, Goteborgs Symfoniker, Neeme Jarvi
15. DEBUSSY: Clair de lune da Suite bergamasca (5:17)
Tamas Vasary
16. DE FALLA: Danza rituale del fuoco da El amor brujo (arr M. Sierra) (4:09)
London Symphony Orchestra, Luis-Antonio Garcia Navarro
17. SCHUMANN: Sogno da Kinderszenen op. 15* (2:58)
Martha Argerich
18. HANDEL: Halleluja da Messia (4:01)
John Alldis Choir, John Alldis
London Philharmonic Orchestra

ADD/DDD*
℗ 1961 (8,13), 1963 (10), 1965 (7), 1968 (2,12), 1970 (15), 1973 (18), 1975 (11), 1977 (3), 1978 (16) 1980 (6), 1983 (1), 1984 (17), 1985 (5), 1990 (14), 2000 (9) Deutsche Grammophon GmbH, Hamburg
℗ 1965 (4) Decca Music Group Ltd., London. England

CD 3 476 7043

01. BACH: Toccata e fuga in re minore, BWV565 - Adagio (2:38)
Helmut Walcha
02. MOZART: Concerto per pianoforte n.21, K467 "Elvira Madigan" - Andante (7:14)
Camerata Academica del Mozarteum di Salisburgo, Geza Anda
03. RIMSKY-KORSAKOV: Il volo del calabrone (1:12)
da La favola dello Zar Saltan (arr. G. Feygin)
Ensemble of the Bolshoi Theatre Moscow, Julij Rejentowitsch
04. OFFENBACH: Barcarolle da Les Contes d'Hoffmann (4:01)
L'Orchestre de la Suisse Romande, Richard Bonynge
05. FAURE: Pavane* (2:35)
Tanglewood Festival Chorus, John Oliver Boston Symphony Orchestra, Seiji Ozawa
06. MUSSORGSKY: Promenade da Quadri di un'esposizione (orch. M. Ravel) (1:51)
Chicago Symphony Orchestra, Carlo Maria Giulini
07. VERDI: Dies irae da Messa da Requiem* (2:44)
Ernst-Senff-Chor, Ernst Senff
Berliner Philharmoniker, Carlo Maria Giulini

08. J. STRAUSS: Sul bel Danubio blu (9:56)
Berliner Philharmoniker, Herbert von Karajan
09. DVORAK: Danza slava, op.46 n.1 (3:41)
Bavarian Radio Symphony Orchestra, Rafael Kubelik
10. BACH: Minuetto in sol maggiore BWVApp.114 (1:25)
Carl Seemann
11. ANONIMO: Giochi proibiti (Romanza)* (2:29)
Narciso Yepes
12. CHOPIN: Valzer "Minuto" n.6, op.64 n.1 (1:38)
Tamas Vasary
13. HANDEL: Largo da Serse* (2:56)
Edward Brewer, Randall Wolfgang, Orpheus Chamber Orchestra
14. GRIEG: Il mattino da Peer Gynt, Suite n.1* (4:13)
Goteborgs Symfoniker, Neeme Jarvi
15. MOZART: Allegretto "Alla turca" dalla Sonata per pianoforte K331 (3:33)
Christoph Eschenbach
16. BEETHOVEN: Romanza per violino n.2 in fa maggiore, op.50 (excerpt) (1:42)
David Oistrakh, Royal Philharmonic Orchestra, Eugene Goosens
17. PROKOFIEV: Danza dei cavalieri da Romeo e Giulietta, op.64* (5:23)
Boston Symphony Orchestra, Seiji Ozawa
18. RAVEL: Bolero (15:00)
Boston Symphony Orchestra, Seiji Ozawa
ADD/DDD*
℗ 1958 (10), 1959 (1), 1962 (2,16), 1965 (12), 1967 (8), 1968 (15), 1973 (3), 1974 (18), 1975 (9), 1977 (6)
1987 (5,14,17), 1989 (7,11), 1990 (13) Deutsche Grammophon GmbH, Hamburg
℗ 1972 (4) Decca Music Group Ltd., London, England
Исполнители:
Указаны в каждом диске

Лог создания рипаCD 1

EAC extraction logfile from 17. October 2007, 22:17 for CDVarious / Deutsche Grammophon Classic Gold Cd1
Used drive : PLEXTOR DVDR PX-716A Adapter: 1 ID: 0Read mode : Secure with NO C2, accurate stream, disable cacheRead offset correction : 30Overread into Lead-In and Lead-Out : No
Used output format : C:\Programmi\Exact Audio Copy\flac-1.1.2-win\bin\flac.exe (User Defined Encoder) 32 kBit/s Additional command line options : -8 -V -T "artist=%a" -T "title=%t" -T "album=%g" -T "date=%y" -T "tracknumber=%n" -T "genre=%m" -T "comment=Exact Audio Copy 0.95 b3 Secure Mode / FLAC q8 v. 1.1.2" %s
Other options : Fill up missing offset samples with silence : Yes Delete leading and trailing silent blocks : No Installed external ASPI interface
Track 1 Filename F:\[MyRip]\01 - Orff - Carmina Burana-O Fortuna.wav
Pre-gap length 0:00:02.00
Peak level 100.0 % Track quality 100.0 % Test CRC 1BD0E886 Copy CRC 1BD0E886 Copy OK
Track 2 Filename F:\[MyRip]\02 - Bizet - Carmen Suite-Toreador.wav
Peak level 99.9 % Track quality 99.9 % Test CRC 342CBCC1 Copy CRC 342CBCC1 Copy OK
Track 3 Filename F:\[MyRip]\03 - Mozart - Eine Kleine Nachtmusik.wav
Peak level 68.6 % Track quality 100.0 % Test CRC 52537D51 Copy CRC 52537D51 Copy OK
Track 4 Filename F:\[MyRip]\04 - Vivaldi - La Primavera.wav
Peak level 50.7 % Track quality 100.0 % Test CRC B8803DCF Copy CRC B8803DCF Copy OK
Track 5 Filename F:\[MyRip]\05 - Beethoven - Al Chiaro Di Luna.wav
Peak level 46.2 % Track quality 100.0 % Test CRC A4943224 Copy CRC A4943224 Copy OK
Track 6 Filename F:\[MyRip]\06 - Bach - Aria Sulla IV Corda.wav
Peak level 53.4 % Track quality 100.0 % Test CRC 2462910A Copy CRC 2462910A Copy OK
Track 7 Filename F:\[MyRip]\07 - Brahms - Danza Ungherese N 5.wav
Peak level 99.9 % Track quality 100.0 % Test CRC 86590F3C Copy CRC 86590F3C Copy OK
Track 8 Filename F:\[MyRip]\08 - Mascagni - Cavalleria Rusticana-Intermezzo.wav
Peak level 77.4 % Track quality 100.0 % Test CRC 02829C70 Copy CRC 02829C70 Copy OK
Track 9 Filename F:\[MyRip]\09 - Liszt - Sogno D'amore.wav
Peak level 76.1 % Track quality 99.9 % Test CRC 2E6AFA6E Copy CRC 2E6AFA6E Copy OK
Track 10 Filename F:\[MyRip]\10 - Smetana - La Moldava.wav
Peak level 80.1 % Track quality 100.0 % Test CRC 33B73521 Copy CRC 33B73521 Copy OK
Track 11 Filename F:\[MyRip]\11 - Boccherini - Minuetto.wav
Peak level 41.8 % Track quality 99.9 % Test CRC 0AAC5BD9 Copy CRC 0AAC5BD9 Copy OK
Track 12 Filename F:\[MyRip]\12 - Tchaikovsky - Valzer Dei Fiori.wav
Peak level 83.1 % Track quality 99.9 % Test CRC 5ABCDC4E Copy CRC 5ABCDC4E Copy OK
Track 13 Filename F:\[MyRip]\13 - Paganini - La Campanella.wav
Peak level 100.0 % Track quality 100.0 % Test CRC AA4F4B21 Copy CRC AA4F4B21 Copy OK
Track 14 Filename F:\[MyRip]\14 - Beethoven - Per Elisa.wav
Peak level 58.7 % Track quality 100.0 % Test CRC 5942088E Copy CRC 5942088E Copy OK
Track 15 Filename F:\[MyRip]\15 - Albeniz - Asturias.wav
Peak level 60.6 % Track quality 100.0 % Test CRC 30577404 Copy CRC 30577404 Copy OK
Track 16 Filename F:\[MyRip]\16 - Wagner - La Cavalcata Delle Valchirie.wav
Peak level 99.9 % Track quality 99.9 % Test CRC FDE762BF Copy CRC FDE762BF Copy OK
Track 17 Filename F:\[MyRip]\17 - Satie - Gymnopedie N 1.wav
Peak level 44.6 % Track quality 100.0 % Test CRC 30EF126F Copy CRC 30EF126F Copy OK
Track 18 Filename F:\[MyRip]\18 - Verdi - Va' Pensiero.wav
Peak level 99.9 % Track quality 100.0 % Test CRC C13B9135 Copy CRC C13B9135 Copy OK
No errors occured
End of status report

CD 2

EAC extraction logfile from 17. October 2007, 23:00 for CDVarious / Deutsche Grammophon Classic Gold Cd2
Used drive : PLEXTOR DVDR PX-716A Adapter: 1 ID: 0Read mode : Secure with NO C2, accurate stream, disable cacheRead offset correction : 30Overread into Lead-In and Lead-Out : No
Used output format : C:\Programmi\Exact Audio Copy\flac-1.1.2-win\bin\flac.exe (User Defined Encoder) 32 kBit/s Additional command line options : -8 -V -T "artist=%a" -T "title=%t" -T "album=%g" -T "date=%y" -T "tracknumber=%n" -T "genre=%m" -T "comment=Exact Audio Copy 0.95 b3 Secure Mode / FLAC q8 v. 1.1.2" %s
Other options : Fill up missing offset samples with silence : Yes Delete leading and trailing silent blocks : No Installed external ASPI interface
Track 1 Filename F:\[MyRip]\01 - Strauss - Cosi' Parlo' Zarathustra.wav
Pre-gap length 0:00:02.00
Peak level 99.9 % Track quality 100.0 % Test CRC 51E9D116 Copy CRC 51E9D116 Copy OK
Track 2 Filename F:\[MyRip]\02 - Albinoni - Adagio.wav
Peak level 35.0 % Track quality 99.9 % Test CRC E0475D1C Copy CRC E0475D1C Copy OK
Track 3 Filename F:\[MyRip]\03 - Mozart - Sinfonia N 40 K550.wav
Peak level 99.9 % Track quality 100.0 % Test CRC ADA1CB83 Copy CRC ADA1CB83 Copy OK
Track 4 Filename F:\[MyRip]\04 - Tchaikovsky - Il Lago Dei Cigni.wav
Peak level 83.8 % Track quality 99.9 % Test CRC E7F9541E Copy CRC E7F9541E Copy OK
Track 5 Filename F:\[MyRip]\05 - Pachelbel - Canone E Giga.wav
Peak level 58.6 % Track quality 100.0 % Test CRC 623CB964 Copy CRC 623CB964 Copy OK
Track 6 Filename F:\[MyRip]\06 - Rodrigo - Concierto De Aranjuez.wav
Peak level 77.4 % Track quality 100.0 % Test CRC 31CCCDA3 Copy CRC 31CCCDA3 Copy OK
Track 7 Filename F:\[MyRip]\07 - Chopin - Notturno N 2.wav
Peak level 85.3 % Track quality 100.0 % Test CRC E5EC8D50 Copy CRC E5EC8D50 Copy OK
Track 8 Filename F:\[MyRip]\08 - Bach - Badinerie BWV1067.wav
Peak level 77.1 % Track quality 100.0 % Test CRC 5C85E3C7 Copy CRC 5C85E3C7 Copy OK
Track 9 Filename F:\[MyRip]\09 - Charpentier - Preludio.wav
Peak level 99.9 % Track quality 100.0 % Test CRC 407C98FB Copy CRC 407C98FB Copy OK
Track 10 Filename F:\[MyRip]\10 - Beethoven - Sinfonia N 5.wav
Peak level 99.9 % Track quality 100.0 % Test CRC 3294FAC1 Copy CRC 3294FAC1 Copy OK
Track 11 Filename F:\[MyRip]\11 - Saint-Saens - Il Cigno.wav
Peak level 56.3 % Track quality 99.9 % Test CRC 498D8003 Copy CRC 498D8003 Copy OK
Track 12 Filename F:\[MyRip]\12 - Schubert - Momento Musicale N 3.wav
Peak level 100.0 % Track quality 99.9 % Test CRC BC406F7D Copy CRC BC406F7D Copy OK
Track 13 Filename F:\[MyRip]\13 - Khachaturian - Danza Delle Spade.wav
Peak level 70.3 % Track quality 100.0 % Test CRC DC65031E Copy CRC DC65031E Copy OK
Track 14 Filename F:\[MyRip]\14 - Massenet - Meditation.wav
Peak level 91.7 % Track quality 100.0 % Test CRC C81B2887 Copy CRC C81B2887 Copy OK
Track 15 Filename F:\[MyRip]\15 - Debussy - Clair De Lune.wav
Peak level 100.0 % Track quality 100.0 % Test CRC 40E9D9EC Copy CRC 40E9D9EC Copy OK
Track 16 Filename F:\[MyRip]\16 - De Falla - Danza Rituale Del Fuoco.wav
Peak level 96.6 % Track quality 99.9 % Test CRC B20EA14A Copy CRC B20EA14A Copy OK
Track 17 Filename F:\[MyRip]\17 - Schumann - Sogno.wav
Peak level 30.8 % Track quality 99.9 % Test CRC DAA9BA03 Copy CRC DAA9BA03 Copy OK
Track 18 Filename F:\[MyRip]\18 - Handel - Halleluja.wav
Peak level 99.9 % Track quality 100.0 % Test CRC 87414E14 Copy CRC 87414E14 Copy OK
No errors occured
End of status report

CD 3

EAC extraction logfile from 17. October 2007, 23:32 for CDVarious / Various - Deutsche Grammophon Classic Gold Cd3
Used drive : PLEXTOR DVDR PX-716A Adapter: 1 ID: 0Read mode : Secure with NO C2, accurate stream, disable cacheRead offset correction : 30Overread into Lead-In and Lead-Out : No
Used output format : C:\Programmi\Exact Audio Copy\flac-1.1.2-win\bin\flac.exe (User Defined Encoder) 32 kBit/s Additional command line options : -8 -V -T "artist=%a" -T "title=%t" -T "album=%g" -T "date=%y" -T "tracknumber=%n" -T "genre=%m" -T "comment=Exact Audio Copy 0.95 b3 Secure Mode / FLAC q8 v. 1.1.2" %s
Other options : Fill up missing offset samples with silence : Yes Delete leading and trailing silent blocks : No Installed external ASPI interface
Track 1 Filename F:\[MyRip]\01 - Bach - Toccata E Fuga In Re Minore.wav
Pre-gap length 0:00:02.00
Peak level 99.9 % Track quality 100.0 % Test CRC 8C5F16C7 Copy CRC 8C5F16C7 Copy OK
Track 2 Filename F:\[MyRip]\02 - Mozart - Concerto Per Pianoforte N 21 K467.wav
Peak level 48.9 % Track quality 99.9 % Test CRC B535A6AD Copy CRC B535A6AD Copy OK
Track 3 Filename F:\[MyRip]\03 - Rimsky-Korsakov - Il Volo Del Calabrone.wav
Peak level 63.7 % Track quality 100.0 % Test CRC 11D3FC4D Copy CRC 11D3FC4D Copy OK
Track 4 Filename F:\[MyRip]\04 - Offenbach - Barcarolle.wav
Peak level 99.9 % Track quality 100.0 % Test CRC D7E7B90D Copy CRC D7E7B90D Copy OK
Track 5 Filename F:\[MyRip]\05 - Faure - Pavane.wav
Peak level 51.4 % Track quality 100.0 % Test CRC FA79CB90 Copy CRC FA79CB90 Copy OK
Track 6 Filename F:\[MyRip]\06 - Mussorgsky - Quadri Di Un'esposizione-Promenade.wav
Peak level 99.9 % Track quality 100.0 % Test CRC 03B26308 Copy CRC 03B26308 Copy OK
Track 7 Filename F:\[MyRip]\07 - Verdi - Dies Irae.wav
Peak level 99.9 % Track quality 100.0 % Test CRC 85C861D0 Copy CRC 85C861D0 Copy OK
Track 8 Filename F:\[MyRip]\08 - Strauss - Sul Bel Danubio Blu.wav
Peak level 99.9 % Track quality 100.0 % Test CRC BD30A6EB Copy CRC BD30A6EB Copy OK
Track 9 Filename F:\[MyRip]\09 - Dvorak - Danza Slava Op 46 N 1.wav
Peak level 99.9 % Track quality 100.0 % Test CRC F01E7D36 Copy CRC F01E7D36 Copy OK
Track 10 Filename F:\[MyRip]\10 - Bach - Minuetto BWV App 114.wav
Peak level 51.0 % Track quality 100.0 % Test CRC 9189F2A0 Copy CRC 9189F2A0 Copy OK
Track 11 Filename F:\[MyRip]\11 - Anonimo - Giochi Proibiti.wav
Peak level 30.4 % Track quality 100.0 % Test CRC C6C74171 Copy CRC C6C74171 Copy OK
Track 12 Filename F:\[MyRip]\12 - Chopin - Valzer 'Minuto'.wav
Peak level 99.9 % Track quality 100.0 % Test CRC 64610EAE Copy CRC 64610EAE Copy OK
Track 13 Filename F:\[MyRip]\13 - Handel - Largo.wav
Peak level 44.9 % Track quality 100.0 % Test CRC CECB0E4C Copy CRC CECB0E4C Copy OK
Track 14 Filename F:\[MyRip]\14 - Grieg - Il Mattino.wav
Peak level 82.7 % Track quality 100.0 % Test CRC CF20C317 Copy CRC CF20C317 Copy OK
Track 15 Filename F:\[MyRip]\15 - Mozart - Allegretto 'Alla Turca' K331.wav
Peak level 59.5 % Track quality 100.0 % Test CRC EF828793 Copy CRC EF828793 Copy OK
Track 16 Filename F:\[MyRip]\16 - Beethoven - Romanza Per Violino N 2.wav
Peak level 46.0 % Track quality 99.8 % Test CRC 4E0F2670 Copy CRC 4E0F2670 Copy OK
Track 17 Filename F:\[MyRip]\17 - Prokofiev - Danza Dei Cavalieri.wav
Peak level 99.9 % Track quality 100.0 % Test CRC 1207E4B6 Copy CRC 1207E4B6 Copy OK
Track 18 Filename F:\[MyRip]\18 - Ravel - Bolero.wav
Peak level 100.0 % Track quality 100.0 % Test CRC F6C4D80A Copy CRC F6C4D80A Copy OK
No errors occured
End of status report

Содержание индексной карты (.CUE)CD 1

REM GENRE ClassicalREM DATE 2004REM DISCID F610D512REM COMMENT "ExactAudioCopy v0.95b3"PERFORMER "Various"TITLE "Deutsche Grammophon Classic Gold Cd1"FILE "01 - Orff - Carmina Burana-O Fortuna.flac" WAVE TRACK 01 AUDIO TITLE "Orff - Carmina Burana-O Fortuna" PERFORMER "Orff - Carmina Burana-O Fortuna" INDEX 01 00:00:00FILE "02 - Bizet - Carmen Suite-Toreador.flac" WAVE TRACK 02 AUDIO TITLE "Bizet - Carmen Suite-Toreador" PERFORMER "Bizet - Carmen Suite-Toreador" INDEX 01 00:00:00FILE "03 - Mozart - Eine Kleine Nachtmusik.flac" WAVE TRACK 03 AUDIO TITLE "Mozart - Eine Kleine Nachtmusik" PERFORMER "Mozart - Eine Kleine Nachtmusik" INDEX 01 00:00:00FILE "04 - Vivaldi - La Primavera.flac" WAVE TRACK 04 AUDIO TITLE "Vivaldi - La Primavera" PERFORMER "Vivaldi - La Primavera" INDEX 01 00:00:00FILE "05 - Beethoven - Al Chiaro Di Luna.flac" WAVE TRACK 05 AUDIO TITLE "Beethoven - Al Chiaro Di Luna" PERFORMER "Beethoven - Al Chiaro Di Luna" INDEX 01 00:00:00FILE "06 - Bach - Aria Sulla IV Corda.flac" WAVE TRACK 06 AUDIO TITLE "Bach - Aria Sulla IV Corda" PERFORMER "Bach - Aria Sulla IV Corda" INDEX 01 00:00:00FILE "07 - Brahms - Danza Ungherese N 5.flac" WAVE TRACK 07 AUDIO TITLE "Brahms - Danza Ungherese N 5" PERFORMER "Brahms - Danza Ungherese N 5" INDEX 01 00:00:00FILE "08 - Mascagni - Cavalleria Rusticana-Intermezzo.flac" WAVE TRACK 08 AUDIO TITLE "Mascagni - Cavalleria Rusticana-Intermezzo" PERFORMER "Mascagni - Cavalleria Rusticana-Intermezzo" INDEX 01 00:00:00FILE "09 - Liszt - Sogno D'amore.flac" WAVE TRACK 09 AUDIO TITLE "Liszt - Sogno D'amore" PERFORMER "Liszt - Sogno D'amore" INDEX 01 00:00:00FILE "10 - Smetana - La Moldava.flac" WAVE TRACK 10 AUDIO TITLE "Smetana - La Moldava" PERFORMER "Smetana - La Moldava" INDEX 01 00:00:00FILE "11 - Boccherini - Minuetto.flac" WAVE TRACK 11 AUDIO TITLE "Boccherini - Minuetto" PERFORMER "Boccherini - Minuetto" INDEX 01 00:00:00FILE "12 - Tchaikovsky - Valzer Dei Fiori.flac" WAVE TRACK 12 AUDIO TITLE "Tchaikovsky - Valzer Dei Fiori" PERFORMER "Tchaikovsky - Valzer Dei Fiori" INDEX 01 00:00:00FILE "13 - Paganini - La Campanella.flac" WAVE TRACK 13 AUDIO TITLE "Paganini - La Campanella" PERFORMER "Paganini - La Campanella" INDEX 01 00:00:00FILE "14 - Beethoven - Per Elisa.flac" WAVE TRACK 14 AUDIO TITLE "Beethoven - Per Elisa" PERFORMER "Beethoven - Per Elisa" INDEX 01 00:00:00FILE "15 - Albeniz - Asturias.flac" WAVE TRACK 15 AUDIO TITLE "Albeniz - Asturias" PERFORMER "Albeniz - Asturias" INDEX 01 00:00:00FILE "16 - Wagner - La Cavalcata Delle Valchirie.flac" WAVE TRACK 16 AUDIO TITLE "Wagner - La Cavalcata Delle Valchirie" PERFORMER "Wagner - La Cavalcata Delle Valchirie" INDEX 01 00:00:00FILE "17 - Satie - Gymnopedie N 1.flac" WAVE TRACK 17 AUDIO TITLE "Satie - Gymnopedie N 1" PERFORMER "Satie - Gymnopedie N 1" INDEX 01 00:00:00FILE "18 - Verdi - Va' Pensiero.flac" WAVE TRACK 18 AUDIO TITLE "Verdi - Va' Pensiero" PERFORMER "Verdi - Va' Pensiero" INDEX 01 00:00:00

CD 2

REM GENRE ClassicalREM DATE 2003REM DISCID F710E312REM COMMENT "ExactAudioCopy v0.95b3"PERFORMER "Various"TITLE "Deutsche Grammophon Classic Gold Cd2"FILE "01 - Strauss - Cosi' Parlo' Zarathustra.flac" WAVE TRACK 01 AUDIO TITLE "Strauss - Cosi' Parlo' Zarathustra" PERFORMER "Strauss - Cosi' Parlo' Zarathustra" INDEX 01 00:00:00FILE "02 - Albinoni - Adagio.flac" WAVE TRACK 02 AUDIO TITLE "Albinoni - Adagio" PERFORMER "Albinoni - Adagio" INDEX 01 00:00:00FILE "03 - Mozart - Sinfonia N 40 K550.flac" WAVE TRACK 03 AUDIO TITLE "Mozart - Sinfonia N 40 K550" PERFORMER "Mozart - Sinfonia N 40 K550" INDEX 01 00:00:00FILE "04 - Tchaikovsky - Il Lago Dei Cigni.flac" WAVE TRACK 04 AUDIO TITLE "Tchaikovsky - Il Lago Dei Cigni" PERFORMER "Tchaikovsky - Il Lago Dei Cigni" INDEX 01 00:00:00FILE "05 - Pachelbel - Canone E Giga.flac" WAVE TRACK 05 AUDIO TITLE "Pachelbel - Canone E Giga" PERFORMER "Pachelbel - Canone E Giga" INDEX 01 00:00:00FILE "06 - Rodrigo - Concierto De Aranjuez.flac" WAVE TRACK 06 AUDIO TITLE "Rodrigo - Concierto De Aranjuez" PERFORMER "Rodrigo - Concierto De Aranjuez" INDEX 01 00:00:00FILE "07 - Chopin - Notturno N 2.flac" WAVE TRACK 07 AUDIO TITLE "Chopin - Notturno N 2" PERFORMER "Chopin - Notturno N 2" INDEX 01 00:00:00FILE "08 - Bach - Badinerie BWV1067.flac" WAVE TRACK 08 AUDIO TITLE "Bach - Badinerie BWV1067" PERFORMER "Bach - Badinerie BWV1067" INDEX 01 00:00:00FILE "09 - Charpentier - Preludio.flac" WAVE TRACK 09 AUDIO TITLE "Charpentier - Preludio" PERFORMER "Charpentier - Preludio" INDEX 01 00:00:00FILE "10 - Beethoven - Sinfonia N 5.flac" WAVE TRACK 10 AUDIO TITLE "Beethoven - Sinfonia N 5" PERFORMER "Beethoven - Sinfonia N 5" INDEX 01 00:00:00FILE "11 - Saint-Saens - Il Cigno.flac" WAVE TRACK 11 AUDIO TITLE "Saint-Saens - Il Cigno" PERFORMER "Saint-Saens - Il Cigno" INDEX 01 00:00:00FILE "12 - Schubert - Momento Musicale N 3.flac" WAVE TRACK 12 AUDIO TITLE "Schubert - Momento Musicale N 3" PERFORMER "Schubert - Momento Musicale N 3" INDEX 01 00:00:00FILE "13 - Khachaturian - Danza Delle Spade.flac" WAVE TRACK 13 AUDIO TITLE "Khachaturian - Danza Delle Spade" PERFORMER "Khachaturian - Danza Delle Spade" INDEX 01 00:00:00FILE "14 - Massenet - Meditation.flac" WAVE TRACK 14 AUDIO TITLE "Massenet - Meditation" PERFORMER "Massenet - Meditation" INDEX 01 00:00:00FILE "15 - Debussy - Clair De Lune.flac" WAVE TRACK 15 AUDIO TITLE "Debussy - Clair De Lune" PERFORMER "Debussy - Clair De Lune" INDEX 01 00:00:00FILE "16 - De Falla - Danza Rituale Del Fuoco.flac" WAVE TRACK 16 AUDIO TITLE "De Falla - Danza Rituale Del Fuoco" PERFORMER "De Falla - Danza Rituale Del Fuoco" INDEX 01 00:00:00FILE "17 - Schumann - Sogno.flac" WAVE TRACK 17 AUDIO TITLE "Schumann - Sogno" PERFORMER "Schumann - Sogno" INDEX 01 00:00:00FILE "18 - Handel - Halleluja.flac" WAVE TRACK 18 AUDIO TITLE "Handel - Halleluja" PERFORMER "Handel - Halleluja" INDEX 01 00:00:00

CD 3

REM GENRE ClassicalREM DATE 2004REM DISCID FC116312REM COMMENT "ExactAudioCopy v0.95b3"PERFORMER "Various"TITLE "Various - Deutsche Grammophon Classic Gold Cd3"FILE "01 - Bach - Toccata E Fuga In Re Minore.flac" WAVE TRACK 01 AUDIO TITLE "Bach - Toccata E Fuga In Re Minore" PERFORMER "Bach - Toccata E Fuga In Re Minore" INDEX 01 00:00:00FILE "02 - Mozart - Concerto Per Pianoforte N 21 K467.flac" WAVE TRACK 02 AUDIO TITLE "Mozart - Concerto Per Pianoforte N 21 K467" PERFORMER "Mozart - Concerto Per Pianoforte N 21 K467" INDEX 01 00:00:00FILE "03 - Rimsky-Korsakov - Il Volo Del Calabrone.flac" WAVE TRACK 03 AUDIO TITLE "Rimsky-Korsakov - Il Volo Del Calabrone" PERFORMER "Rimsky-Korsakov - Il Volo Del Calabrone" INDEX 01 00:00:00FILE "04 - Offenbach - Barcarolle.flac" WAVE TRACK 04 AUDIO TITLE "Offenbach - Barcarolle" PERFORMER "Offenbach - Barcarolle" INDEX 01 00:00:00FILE "05 - Faure - Pavane.flac" WAVE TRACK 05 AUDIO TITLE "Faure - Pavane" PERFORMER "Faure - Pavane" INDEX 01 00:00:00FILE "06 - Mussorgsky - Quadri Di Un'esposizione-Promenade.flac" WAVE TRACK 06 AUDIO TITLE "Mussorgsky - Quadri Di Un'esposizione-Promenade" PERFORMER "Mussorgsky - Quadri Di Un'esposizione-Promenade" INDEX 01 00:00:00FILE "07 - Verdi - Dies Irae.flac" WAVE TRACK 07 AUDIO TITLE "Verdi - Dies Irae" PERFORMER "Verdi - Dies Irae" INDEX 01 00:00:00FILE "08 - Strauss - Sul Bel Danubio Blu.flac" WAVE TRACK 08 AUDIO TITLE "Strauss - Sul Bel Danubio Blu" PERFORMER "Strauss - Sul Bel Danubio Blu" INDEX 01 00:00:00FILE "09 - Dvorak - Danza Slava Op 46 N 1.flac" WAVE TRACK 09 AUDIO TITLE "Dvorak - Danza Slava Op 46 N 1" PERFORMER "Dvorak - Danza Slava Op 46 N 1" INDEX 01 00:00:00FILE "10 - Bach - Minuetto BWV App 114.flac" WAVE TRACK 10 AUDIO TITLE "Bach - Minuetto BWV App 114" PERFORMER "Bach - Minuetto BWV App 114" INDEX 01 00:00:00FILE "11 - Anonimo - Giochi Proibiti.flac" WAVE TRACK 11 AUDIO TITLE "Anonimo - Giochi Proibiti" PERFORMER "Anonimo - Giochi Proibiti" INDEX 01 00:00:00FILE "12 - Chopin - Valzer 'Minuto'.flac" WAVE TRACK 12 AUDIO TITLE "Chopin - Valzer 'Minuto'" PERFORMER "Chopin - Valzer 'Minuto'" INDEX 01 00:00:00FILE "13 - Handel - Largo.flac" WAVE TRACK 13 AUDIO TITLE "Handel - Largo" PERFORMER "Handel - Largo" INDEX 01 00:00:00FILE "14 - Grieg - Il Mattino.flac" WAVE TRACK 14 AUDIO TITLE "Grieg - Il Mattino" PERFORMER "Grieg - Il Mattino" INDEX 01 00:00:00FILE "15 - Mozart - Allegretto 'Alla Turca' K331.flac" WAVE TRACK 15 AUDIO TITLE "Mozart - Allegretto 'Alla Turca' K331" PERFORMER "Mozart - Allegretto 'Alla Turca' K331" INDEX 01 00:00:00FILE "16 - Beethoven - Romanza Per Violino N 2.flac" WAVE TRACK 16 AUDIO TITLE "Beethoven - Romanza Per Violino N 2" PERFORMER "Beethoven - Romanza Per Violino N 2" INDEX 01 00:00:00FILE "17 - Prokofiev - Danza Dei Cavalieri.flac" WAVE TRACK 17 AUDIO TITLE "Prokofiev - Danza Dei Cavalieri" PERFORMER "Prokofiev - Danza Dei Cavalieri" INDEX 01 00:00:00FILE "18 - Ravel - Bolero.flac" WAVE TRACK 18 AUDIO TITLE "Ravel - Bolero" PERFORMER "Ravel - Bolero" INDEX 01 00:00:00

Лог проверки качества

Скриншот спектра частот

[teatrix.ru].t9742.torrent 
Торрент: Зарегистрирован [ 2015-10-23 17:11 ] · F96FCDDBBC15AF5F4E0C49F61B4593F2172DC55B

Скачать .torrent

Скачать

24 KB

Статус: проверено
Скачан: 1 раз
Размер: 983 MB
terms.php



Быстрый ответ

Имя:

      
Для отправки сообщений необходимо включить JavaScript
Показать сообщения:    

Текущее время: 05-Дек 01:21

Часовой пояс: UTC + 3


Вы можете начинать темы
Вы можете отвечать на сообщения
Вы не можете редактировать свои сообщения
Вы не можете удалять свои сообщения
Вы не можете голосовать в опросах
Вы не можете прикреплять файлы к сообщениям
Вы можете скачивать файлы