(Classical/Piano) Chopin Piano Concertos, Ballades, Barcarolle, Fantaisie (Jorge Bolet, Charles Dutoit) - 2010, FLAC (image+.cue) lossless


Статистика раздачи [Обновить пиров]
Размер:  435 MB   |    Зарегистрирован:  1 год 1 месяц   |    Скачан:  0 раз

Полного источника не было: Никогда

Личеров:  2  [  0 KB/s  ]   Подробная статистика пиров
 
   
 
 
 

[Цитировать]

Frederic Chopin Piano Concertos, Ballades, Barcarolle, Fantaisie (Jorge Bolet, Charles Dutoit)
Жанр: Classical/Piano
Страна-производитель диска: EU
Год издания диска: 2010
Издатель (лейбл): Newton Classics
Дата записи: 1986,1989
Аудиокодек: FLAC
Тип рипа: image+.cue
Битрейт аудио: lossless
Продолжительность: 136.50
Источник: internet
Наличие сканов в содержимом раздачи: нет
Треклист:

скрытый текст

CD1:
1-Piano Concerto No.1 in E minor Op.11 - I.Allegro maestoso risoluto
2-II.Romance: Larghetto
3-III.Rondo: Vivace
4-Piano Concerto No.2 in F minor Op.21 - I.Maestoso
5-II.Larghetto
6-III.Allegro vivace
CD2:
1-Ballade No.1 in G minor Op.23
2-Ballade No.2 in F Op.38
3-Ballade No.3 in A flat Op.47
4-Ballade No.4 in F minor Op.52
5-Barcarolle in F sharp Op.60
6-Fantaisie in F minor Op.49
Исполнители:
Jorge Bolet - piano, Orchestre Symphonique de Montreal - Charles Dutoit

Лог создания рипа

Exact Audio Copy V1.0 beta 3 from 29. August 2011
EAC extraction logfile from 5. February 2013, 12:52
Jorge Bolet / Chopin Piano Concertos 1&2, Ballades, Barcarolle, Fantaisie CD1
Used drive : TSSTcorpDVD+-RW TS-T633C Adapter: 0 ID: 1
Read mode : SecureUtilize accurate stream : YesDefeat audio cache : YesMake use of C2 pointers : No
Read offset correction : 6Overread into Lead-In and Lead-Out : NoFill up missing offset samples with silence : YesDelete leading and trailing silent blocks : NoNull samples used in CRC calculations : YesUsed interface : Native Win32 interface for Win NT & 2000
Used output format : User Defined EncoderSelected bitrate : 1024 kBit/sQuality : HighAdd ID3 tag : NoCommand line compressor : E:\Misc\EAC\Exact Audio Copy\FLAC\FLAC.EXEAdditional command line options : -6 -V -T "ARTIST=%artist%" -T "TITLE=%title%" -T "ALBUM=%albumtitle%" -T "DATE=%year%" -T "TRACKNUMBER=%tracknr%" -T "GENRE=%genre%" -T "COMMENT=%comment%" -T "BAND=%albuminterpret%" -T "ALBUMARTIST=%albuminterpret%" -T "COMPOSER=%composer%" %haslyrics%--tag-from-file=LYRICS="%lyricsfile%"%haslyrics% -T "DISCNUMBER=%cdnumber%" -T "TOTALDISCS=%totalcds%" -T "TOTALTRACKS=%numtracks%" %hascover%--picture="%coverfile%"%hascover% %source% -o %dest%
TOC of the extracted CD
Track | Start | Length | Start sector | End sector --------------------------------------------------------- 1 | 0:00.33 | 21:44.37 | 33 | 97869 2 | 21:44.70 | 10:02.08 | 97870 | 143027 3 | 31:47.03 | 11:11.17 | 143028 | 193369 4 | 42:58.20 | 14:28.50 | 193370 | 258519 5 | 57:26.70 | 9:08.05 | 258520 | 299624 6 | 66:35.00 | 9:34.08 | 299625 | 342682
Range status and errors
Selected range
Filename E:\Misc\EAC\Jorge Bolet - Chopin Piano Concertos 1&2, Ballades, Barcarolle, Fantaisie CD1.wav
Peak level 85.0 % Extraction speed 5.0 X Range quality 100.0 % Copy CRC 2ED22D86 Copy OK
No errors occurred
AccurateRip summary
Track 1 not present in databaseTrack 2 not present in databaseTrack 3 not present in databaseTrack 4 not present in databaseTrack 5 not present in databaseTrack 6 not present in database
None of the tracks are present in the AccurateRip database
End of status report
==== Log checksum 4A8AC2264C1C54B26BC0B0BEEA295E15F7F27B7D966B5298A5F7263064AE1130 ====
Exact Audio Copy V1.0 beta 3 from 29. August 2011
EAC extraction logfile from 5. February 2013, 13:12
Jorge Bolet / Chopin Piano Concertos 1&2, Ballades, Barcarolle, Fantaisie CD2
Used drive : TSSTcorpDVD+-RW TS-T633C Adapter: 0 ID: 1
Read mode : SecureUtilize accurate stream : YesDefeat audio cache : YesMake use of C2 pointers : No
Read offset correction : 6Overread into Lead-In and Lead-Out : NoFill up missing offset samples with silence : YesDelete leading and trailing silent blocks : NoNull samples used in CRC calculations : YesUsed interface : Native Win32 interface for Win NT & 2000
Used output format : User Defined EncoderSelected bitrate : 1024 kBit/sQuality : HighAdd ID3 tag : NoCommand line compressor : E:\Misc\EAC\Exact Audio Copy\FLAC\FLAC.EXEAdditional command line options : -6 -V -T "ARTIST=%artist%" -T "TITLE=%title%" -T "ALBUM=%albumtitle%" -T "DATE=%year%" -T "TRACKNUMBER=%tracknr%" -T "GENRE=%genre%" -T "COMMENT=%comment%" -T "BAND=%albuminterpret%" -T "ALBUMARTIST=%albuminterpret%" -T "COMPOSER=%composer%" %haslyrics%--tag-from-file=LYRICS="%lyricsfile%"%haslyrics% -T "DISCNUMBER=%cdnumber%" -T "TOTALDISCS=%totalcds%" -T "TOTALTRACKS=%numtracks%" %hascover%--picture="%coverfile%"%hascover% %source% -o %dest%
TOC of the extracted CD
Track | Start | Length | Start sector | End sector --------------------------------------------------------- 1 | 0:00.33 | 10:03.07 | 33 | 45264 2 | 10:03.40 | 8:13.10 | 45265 | 82249 3 | 18:16.50 | 8:28.08 | 82250 | 120357 4 | 26:44.58 | 11:53.32 | 120358 | 173864 5 | 38:38.15 | 9:50.20 | 173865 | 218134 6 | 48:28.35 | 13:10.20 | 218135 | 277404
Range status and errors
Selected range
Filename E:\Misc\EAC\Jorge Bolet - Chopin Piano Concertos 1&2, Ballades, Barcarolle, Fantaisie CD2.wav
Peak level 82.2 % Extraction speed 4.5 X Range quality 100.0 % Copy CRC FC958D62 Copy OK
No errors occurred
AccurateRip summary
Track 1 cannot be verified as accurate (confidence 4) [1FB3FEF6], AccurateRip returned [58EB24A1] (AR v2)Track 2 cannot be verified as accurate (confidence 4) [65AD1A7B], AccurateRip returned [889B0121] (AR v2)Track 3 cannot be verified as accurate (confidence 4) [1F710EBE], AccurateRip returned [73401E7E] (AR v2)Track 4 cannot be verified as accurate (confidence 4) [62EA30CD], AccurateRip returned [5F5FF137] (AR v2)Track 5 cannot be verified as accurate (confidence 4) [DDED6F52], AccurateRip returned [FED72F6E] (AR v2)Track 6 cannot be verified as accurate (confidence 4) [137D9CD7], AccurateRip returned [83B97F1F] (AR v2)
No tracks could be verified as accurateYou may have a different pressing from the one(s) in the database
End of status report
==== Log checksum 293BF84BB18B44FAFE4A20055BAF5359926B5E6D33D04AF668A2F86D8DE3CAB0 ====
Доп. информация:
Из википедии:
Throughout his career, Bolet bucked the system by endorsing and performing on Baldwin and C. Bechstein pianos worldwide. When other pianists aligned with the Steinway piano, he chose a different approach and a unique broadly varied tone through non-standard instruments. Bolet's best Decca/London recordings were made using the Baldwin SD-10 concert grand. Some of the most celebrated, near the end of his career, were made with Charles Dutoit and the Montreal Symphony Orchestra.
(http://en.wikipedia.org/wiki/Jorge_Bolet)
Теперь мне становится понятно, почему Болет предпочитал Baldwin piano - на этой записи рояль звучит просто отлично и притом по-своему (имхо конечно). Жалко, что их уже не делают.
[teatrix.ru].t9744.torrent 
Торрент: Зарегистрирован [ 2015-10-23 17:11 ] · 4DDC0CBFF65E808D7069F61DC7CE330EDC027F87

Скачать .torrent

Скачать

18 KB

Статус: проверено
Скачан: 0 раз
Размер: 435 MB
terms.php



Быстрый ответ

Имя:

      
Для отправки сообщений необходимо включить JavaScript
Показать сообщения:    

Текущее время: 11-Дек 12:58

Часовой пояс: UTC + 3


Вы можете начинать темы
Вы можете отвечать на сообщения
Вы не можете редактировать свои сообщения
Вы не можете удалять свои сообщения
Вы не можете голосовать в опросах
Вы не можете прикреплять файлы к сообщениям
Вы можете скачивать файлы