(Classical) Joseph-Maurice Ravel: complete piano music of Ravel (Sonatine, Miroirs, Le Tombeau de Couperin, Gaspard de la nuit, Piano Concerto for the Left Hand, etc.), Robert and Gaby Casadesus, Eugene Ormandy, 1998, FLAC (tracks+.cue) lossless


Статистика раздачи [Обновить пиров]
Размер:  390 MB   |    Зарегистрирован:  1 год 1 месяц   |    Скачан:  0 раз

Полного источника не было: Никогда

Личеров:  2  [  0 KB/s  ]   Подробная статистика пиров
 
   
 
 
 

[Цитировать]

Joseph-Maurice Ravel / complete piano music of Ravel
Жанр: classical
Страна-производитель диска: USA
Год издания диска: 1998
Издатель (лейбл): Sony Classical
Номер по каталогу: MH2K 63316
Дата записи: 1946–51
Аудиокодек: FLAC
Тип рипа: tracks+.cue
Битрейт аудио: lossless
Продолжительность: 02:29:48
Источник: скачано с what.cd
Наличие сканов в содержимом раздачи: нет
Исполнители: Robert Casadesus (piano)
Gaby Casadesus (piano) — №№12–16, Disc 1
Zino Francescatti (violin) — №21, Disc 1
Eugene Ormandy (conductor), Philadelphia Orchestra — №12, Disc 2
Треклист:

Disc 1:

01. Pavane pour une infante défunte (5:37)
02. À la manière de Chabrier (2:15)
03. À la manière de Borodine (1:35)
Sonatine:
04. I. Modéré (3:49)
05. II. Mouvement de Menuet (2:37)
06. III. Animé (3:20)
Miroirs:
07. I. Noctuelles (4:18)
08. II. Oiseaux tristes (3:50)
09. III. Une Barque sur l'océan (6:47)
10. IV. Alborada del gracioso (6:06)
11. V. La Vallée des cloches (5:09)
Ma Mère l'Oye:
12. I. Pavane de la Belle au bois dormant (1:13)
13. II. Petit Poucet (2:48)
14. III. Laideronette, Impératrice des Pagodes (3:09)
15. IV. Les Entretiens de la Belle et de la Bête (3:31)
16. V. Le Jardin féerique (2:53)
17. Habanera (2:34)
18. Jeux d'eau (4:38)
19. Prélude in A minor (1:23)
20. Menuet sur le nom d'Haydn (1:48)
21. Berceuse sur le nom de Gabriel Fauré (2:11)

Лог создания рипа:

Exact Audio Copy V0.99 prebeta 4 from 23. January 2008
EAC extraction logfile from 1. May 2009, 23:13
Robert Casadesus / Complete Piano Music of Maurice Ravel - Disc 1
Used drive : HL-DT-STRW/DVD GCC-4522B Adapter: 1 ID: 1
Read mode : SecureUtilize accurate stream : YesDefeat audio cache : YesMake use of C2 pointers : No
Read offset correction : 6Overread into Lead-In and Lead-Out : NoFill up missing offset samples with silence : YesDelete leading and trailing silent blocks : NoNull samples used in CRC calculations : YesUsed interface : Native Win32 interface for Win NT & 2000Gap handling : Appended to previous track
Used output format : User Defined EncoderSelected bitrate : 512 kBit/sQuality : HighAdd ID3 tag : NoCommand line compressor : C:\Program Files\FLAC\flac.exeAdditional command line options : -V -8 -T "artist=%a" -T "title=%t" -T "album=%g" -T "date=%y" -T "tracknumber=%n" -T "genre=%m" %s
TOC of the extracted CD
Track | Start | Length | Start sector | End sector --------------------------------------------------------- 1 | 0:00.00 | 5:36.55 | 0 | 25254 2 | 5:36.55 | 2:14.70 | 25255 | 35374 3 | 7:51.50 | 1:34.47 | 35375 | 42471 4 | 9:26.22 | 3:49.00 | 42472 | 59646 5 | 13:15.22 | 2:37.13 | 59647 | 71434 6 | 15:52.35 | 3:20.05 | 71435 | 86439 7 | 19:12.40 | 4:17.65 | 86440 | 105779 8 | 23:30.30 | 3:49.70 | 105780 | 123024 9 | 27:20.25 | 6:47.12 | 123025 | 153561 10 | 34:07.37 | 6:06.25 | 153562 | 181036 11 | 40:13.62 | 5:08.40 | 181037 | 204176 12 | 45:22.27 | 1:12.65 | 204177 | 209641 13 | 46:35.17 | 2:48.05 | 209642 | 222246 14 | 49:23.22 | 3:08.73 | 222247 | 236419 15 | 52:32.20 | 3:30.72 | 236420 | 252241 16 | 56:03.17 | 2:53.20 | 252242 | 265236 17 | 58:56.37 | 2:33.70 | 265237 | 276781 18 | 61:30.32 | 4:37.45 | 276782 | 297601 19 | 66:08.02 | 1:22.50 | 297602 | 303801 20 | 67:30.52 | 1:48.23 | 303802 | 311924 21 | 69:19.00 | 2:11.00 | 311925 | 321749
Track 1
Filename F:\downloads\Music\ЕхЅ¦ѕо\Complete Piano Music of Maurice Ravel - Robert Casadesus\cd1\01 - Pavane pour une infante defunte.wav
Pre-gap length 0:00:02.00
Peak level 92.5 % Track quality 100.0 % Test CRC CC3E5BA3 Copy CRC CC3E5BA3 Track not present in AccurateRip database Copy OK
Track 2
Filename F:\downloads\Music\ЕхЅ¦ѕо\Complete Piano Music of Maurice Ravel - Robert Casadesus\cd1\02 - A la maniere de Chabrier.wav
Pre-gap length 0:00:04.26
Peak level 50.5 % Track quality 100.0 % Test CRC 8759B738 Copy CRC 8759B738 Track not present in AccurateRip database Copy OK
Track 3
Filename F:\downloads\Music\ЕхЅ¦ѕо\Complete Piano Music of Maurice Ravel - Robert Casadesus\cd1\03 - A la maniere de Borodine.wav
Pre-gap length 0:00:02.50
Peak level 83.8 % Track quality 99.8 % Test CRC 86362A28 Copy CRC 86362A28 Track not present in AccurateRip database Copy OK
Track 4
Filename F:\downloads\Music\ЕхЅ¦ѕо\Complete Piano Music of Maurice Ravel - Robert Casadesus\cd1\04 - Sonatine - I. Modere.wav
Pre-gap length 0:00:04.16
Peak level 66.0 % Track quality 100.0 % Test CRC E4E13B6F Copy CRC E4E13B6F Track not present in AccurateRip database Copy OK
Track 5
Filename F:\downloads\Music\ЕхЅ¦ѕо\Complete Piano Music of Maurice Ravel - Robert Casadesus\cd1\05 - Sonatine - II. Mouvement de Menuet.wav
Peak level 59.9 % Track quality 100.0 % Test CRC 1359861D Copy CRC 1359861D Track not present in AccurateRip database Copy OK
Track 6
Filename F:\downloads\Music\ЕхЅ¦ѕо\Complete Piano Music of Maurice Ravel - Robert Casadesus\cd1\06 - Sonatine - III. Anime.wav
Peak level 71.0 % Track quality 100.0 % Test CRC 1598BB56 Copy CRC 1598BB56 Track not present in AccurateRip database Copy OK
Track 7
Filename F:\downloads\Music\ЕхЅ¦ѕо\Complete Piano Music of Maurice Ravel - Robert Casadesus\cd1\07 - Miroirs - I. Noctuelles.wav
Pre-gap length 0:00:05.50
Peak level 63.2 % Track quality 100.0 % Test CRC F359338B Copy CRC F359338B Track not present in AccurateRip database Copy OK
Track 8
Filename F:\downloads\Music\ЕхЅ¦ѕо\Complete Piano Music of Maurice Ravel - Robert Casadesus\cd1\08 - Miroirs - II. Oiseaux tristes.wav
Peak level 63.4 % Track quality 100.0 % Test CRC FAA4625E Copy CRC FAA4625E Track not present in AccurateRip database Copy OK
Track 9
Filename F:\downloads\Music\ЕхЅ¦ѕо\Complete Piano Music of Maurice Ravel - Robert Casadesus\cd1\09 - Miroirs - III. Une Barque sur l'ocean.wav
Pre-gap length 0:00:01.33
Peak level 81.1 % Track quality 100.0 % Test CRC 48FC72FB Copy CRC 48FC72FB Track not present in AccurateRip database Copy OK
Track 10
Filename F:\downloads\Music\ЕхЅ¦ѕо\Complete Piano Music of Maurice Ravel - Robert Casadesus\cd1\10 - Miroirs - IV. Alborada del gracioso.wav
Pre-gap length 0:00:02.16
Peak level 91.5 % Track quality 100.0 % Test CRC B02C29AC Copy CRC B02C29AC Track not present in AccurateRip database Copy OK
Track 11
Filename F:\downloads\Music\ЕхЅ¦ѕо\Complete Piano Music of Maurice Ravel - Robert Casadesus\cd1\11 - Miroirs - V. La Vallee des cloches.wav
Pre-gap length 0:00:03.82
Peak level 43.6 % Track quality 100.0 % Test CRC CF96A3A6 Copy CRC CF96A3A6 Track not present in AccurateRip database Copy OK
Track 12
Filename F:\downloads\Music\ЕхЅ¦ѕо\Complete Piano Music of Maurice Ravel - Robert Casadesus\cd1\12 - Ma Mere l'Oye - I. Pavane de la Belle au bois dormant.wav
Pre-gap length 0:00:07.36
Peak level 21.5 % Track quality 100.0 % Test CRC B27DBAA3 Copy CRC B27DBAA3 Track not present in AccurateRip database Copy OK
Track 13
Filename F:\downloads\Music\ЕхЅ¦ѕо\Complete Piano Music of Maurice Ravel - Robert Casadesus\cd1\13 - Ma Mere l'Oye - II. Petit Poucet.wav
Pre-gap length 0:00:00.80
Peak level 86.0 % Track quality 100.0 % Test CRC A3A71283 Copy CRC A3A71283 Track not present in AccurateRip database Copy OK
Track 14
Filename F:\downloads\Music\ЕхЅ¦ѕо\Complete Piano Music of Maurice Ravel - Robert Casadesus\cd1\14 - Ma Mere l'Oye - III. Laideronette, Imperatrice des Pagodes.wav
Peak level 94.4 % Track quality 100.0 % Test CRC D20655F1 Copy CRC D20655F1 Track not present in AccurateRip database Copy OK
Track 15
Filename F:\downloads\Music\ЕхЅ¦ѕо\Complete Piano Music of Maurice Ravel - Robert Casadesus\cd1\15 - Ma Mere l'Oye - IV. Les Entretiens de la Belle et de la Bete.wav
Peak level 94.4 % Track quality 100.0 % Test CRC 53805F2B Copy CRC 53805F2B Track not present in AccurateRip database Copy OK
Track 16
Filename F:\downloads\Music\ЕхЅ¦ѕо\Complete Piano Music of Maurice Ravel - Robert Casadesus\cd1\16 - Ma Mere l'Oye - V. Le Jardin feerique.wav
Peak level 93.5 % Track quality 100.0 % Test CRC E2C004E0 Copy CRC E2C004E0 Track not present in AccurateRip database Copy OK
Track 17
Filename F:\downloads\Music\ЕхЅ¦ѕо\Complete Piano Music of Maurice Ravel - Robert Casadesus\cd1\17 - Habanera.wav
Pre-gap length 0:00:06.49
Peak level 62.6 % Track quality 100.0 % Test CRC 84AED036 Copy CRC 84AED036 Track not present in AccurateRip database Copy OK
Track 18
Filename F:\downloads\Music\ЕхЅ¦ѕо\Complete Piano Music of Maurice Ravel - Robert Casadesus\cd1\18 - Jeux d'eau.wav
Pre-gap length 0:00:04.42
Peak level 61.5 % Track quality 99.9 % Test CRC 4D819A41 Copy CRC 4D819A41 Track not present in AccurateRip database Copy OK
Track 19
Filename F:\downloads\Music\ЕхЅ¦ѕо\Complete Piano Music of Maurice Ravel - Robert Casadesus\cd1\19 - Prelude in A minor.wav
Pre-gap length 0:00:04.02
Peak level 17.8 % Track quality 99.8 % Test CRC 0482EA6A Copy CRC 0482EA6A Track not present in AccurateRip database Copy OK
Track 20
Filename F:\downloads\Music\ЕхЅ¦ѕо\Complete Piano Music of Maurice Ravel - Robert Casadesus\cd1\20 - Menuet sur le nom d'Haydn.wav
Pre-gap length 0:00:04.02
Peak level 36.8 % Track quality 100.0 % Test CRC E294138E Copy CRC E294138E Track not present in AccurateRip database Copy OK
Track 21
Filename F:\downloads\Music\ЕхЅ¦ѕо\Complete Piano Music of Maurice Ravel - Robert Casadesus\cd1\21 - Berceuse sur le nom de Gabriel Faure.wav
Pre-gap length 0:00:09.00
Peak level 36.6 % Track quality 100.0 % Test CRC 05627034 Copy CRC 05627034 Track not present in AccurateRip database Copy OK
None of the tracks are present in the AccurateRip database
No errors occurred
End of status report

Содержание индексной карты (.CUE):

REM GENRE ClassicalREM DATE 1998REM DISCID 4310C215REM COMMENT "ExactAudioCopy v0.99pb4"PERFORMER "Robert Casadesus"TITLE "complete piano music of Ravel"FILE "01. Pavane pour une infante défunte.wav" WAVE TRACK 01 AUDIO TITLE "Pavane pour une infante défunte" PERFORMER "Robert Casadesus" INDEX 01 00:00:00 TRACK 02 AUDIO TITLE "À la manière de Chabrier" PERFORMER "Robert Casadesus" INDEX 00 05:32:35FILE "02. À la manière de Chabrier.wav" WAVE INDEX 01 00:00:00 TRACK 03 AUDIO TITLE "À la manière de Borodine" PERFORMER "Robert Casadesus" INDEX 00 02:12:32FILE "03. À la manière de Borodine.wav" WAVE INDEX 01 00:00:00 TRACK 04 AUDIO TITLE "Sonatine: I. Modéré" PERFORMER "Robert Casadesus" INDEX 00 01:30:35FILE "04. Sonatine_ I. Modéré.wav" WAVE INDEX 01 00:00:00FILE "05. Sonatine_ II. Mouvement de Menuet.wav" WAVE TRACK 05 AUDIO TITLE "Sonatine: II. Mouvement de Menuet" PERFORMER "Robert Casadesus" INDEX 01 00:00:00FILE "06. Sonatine_ III. Animé.wav" WAVE TRACK 06 AUDIO TITLE "Sonatine: III. Animé" PERFORMER "Robert Casadesus" INDEX 01 00:00:00 TRACK 07 AUDIO TITLE "Miroirs: I. Noctuelles" PERFORMER "Robert Casadesus" INDEX 00 03:14:42FILE "07. Miroirs_ I. Noctuelles.wav" WAVE INDEX 01 00:00:00FILE "08. Miroirs_ II. Oiseaux tristes.wav" WAVE TRACK 08 AUDIO TITLE "Miroirs: II. Oiseaux tristes" PERFORMER "Robert Casadesus" INDEX 01 00:00:00 TRACK 09 AUDIO TITLE "Miroirs: III. Une Barque sur l'océan" PERFORMER "Robert Casadesus" INDEX 00 03:48:45FILE "09. Miroirs_ III. Une Barque sur l'océan.wav" WAVE INDEX 01 00:00:00 TRACK 10 AUDIO TITLE "Miroirs: IV. Alborada del gracioso" PERFORMER "Robert Casadesus" INDEX 00 06:45:00FILE "10. Miroirs_ IV. Alborada del gracioso.wav" WAVE INDEX 01 00:00:00 TRACK 11 AUDIO TITLE "Miroirs: V. La Vallée des cloches" PERFORMER "Robert Casadesus" INDEX 00 06:02:38FILE "11. Miroirs_ V. La Vallée des cloches.wav" WAVE INDEX 01 00:00:00 TRACK 12 AUDIO TITLE "Ma Mère l'Oye: I. Pavane de la Belle au bois dormant" PERFORMER "Robert Casadesus" INDEX 00 05:01:13FILE "12. Ma Mère l'Oye_ I. Pavane de la Belle au bois dormant.wav" WAVE INDEX 01 00:00:00 TRACK 13 AUDIO TITLE "Ma Mère l'Oye: II. Petit Poucet" PERFORMER "Robert Casadesus" INDEX 00 01:12:05FILE "13. Ma Mère l'Oye_ II. Petit Poucet.wav" WAVE INDEX 01 00:00:00FILE "14. Ma Mère l'Oye_ III. Laideronette, Impératrice des Pagodes.wav" WAVE TRACK 14 AUDIO TITLE "Ma Mère l'Oye: III. Laideronette, Impératrice des Pagodes" PERFORMER "Robert Casadesus" INDEX 01 00:00:00FILE "15. Ma Mère l'Oye_ IV. Les Entretiens de la Belle et de la Bête.wav" WAVE TRACK 15 AUDIO TITLE "Ma Mère l'Oye: IV. Les Entretiens de la Belle et de la Bête" PERFORMER "Robert Casadesus" INDEX 01 00:00:00FILE "16. Ma Mère l'Oye_ V. Le Jardin féerique.wav" WAVE TRACK 16 AUDIO TITLE "Ma Mère l'Oye: V. Le Jardin féerique" PERFORMER "Robert Casadesus" INDEX 01 00:00:00 TRACK 17 AUDIO TITLE "Habanera" PERFORMER "Robert Casadesus" INDEX 00 02:46:58FILE "17. Habanera.wav" WAVE INDEX 01 00:00:00 TRACK 18 AUDIO TITLE "Jeux d'eau" PERFORMER "Robert Casadesus" INDEX 00 02:29:38FILE "18. Jeux d'eau.wav" WAVE INDEX 01 00:00:00 TRACK 19 AUDIO TITLE "Prélude in A minor" PERFORMER "Robert Casadesus" INDEX 00 04:33:43FILE "19. Prélude in A minor.wav" WAVE INDEX 01 00:00:00 TRACK 20 AUDIO TITLE "Menuet sur le nom d'Haydn" PERFORMER "Robert Casadesus" INDEX 00 01:18:48FILE "20. Menuet sur le nom d'Haydn.wav" WAVE INDEX 01 00:00:00 TRACK 21 AUDIO TITLE "Berceuse sur le nom de Gabriel Fauré" PERFORMER "Robert Casadesus" INDEX 00 01:39:23FILE "21. Berceuse sur le nom de Gabriel Fauré.wav" WAVE INDEX 01 00:00:00

Disc 2:

Le Tombeau de Couperin:
01. I. Prélude (2:49)
02. II. Fugue (3:18)
03. III. Forlane (4:54)
04. IV. Rigaudon (3:10)
05. V. Menuet (4:22)
06. VI. Toccata (3:56)
07. Valses nobles et sentimentales (12:55)
08. Menuet antique (5:29)
Gaspard de la nuit:
09. I. Ondine (5:55)
10. II. Le Gibet (5:05)
11. III. Scarbo (9:24)
12. Piano Concerto for the Left Hand (17:02)

Лог создания рипа:

Exact Audio Copy V0.99 prebeta 4 from 23. January 2008
EAC extraction logfile from 1. May 2009, 23:47
Robert Casadesus / Complete Piano Music of Maurice Ravel
Used drive : HL-DT-STRW/DVD GCC-4522B Adapter: 1 ID: 1
Read mode : SecureUtilize accurate stream : YesDefeat audio cache : YesMake use of C2 pointers : No
Read offset correction : 6Overread into Lead-In and Lead-Out : NoFill up missing offset samples with silence : YesDelete leading and trailing silent blocks : NoNull samples used in CRC calculations : YesUsed interface : Native Win32 interface for Win NT & 2000Gap handling : Appended to previous track
Used output format : User Defined EncoderSelected bitrate : 512 kBit/sQuality : HighAdd ID3 tag : NoCommand line compressor : C:\Program Files\FLAC\flac.exeAdditional command line options : -V -8 -T "artist=%a" -T "title=%t" -T "album=%g" -T "date=%y" -T "tracknumber=%n" -T "genre=%m" %s
TOC of the extracted CD
Track | Start | Length | Start sector | End sector --------------------------------------------------------- 1 | 0:00.00 | 2:49.07 | 0 | 12681 2 | 2:49.07 | 3:18.23 | 12682 | 27554 3 | 6:07.30 | 4:53.40 | 27555 | 49569 4 | 11:00.70 | 3:09.60 | 49570 | 63804 5 | 14:10.55 | 4:22.12 | 63805 | 83466 6 | 18:32.67 | 3:55.73 | 83467 | 101164 7 | 22:28.65 | 12:55.35 | 101165 | 159324 8 | 35:24.25 | 5:28.47 | 159325 | 183971 9 | 40:52.72 | 5:54.58 | 183972 | 210579 10 | 46:47.55 | 5:05.32 | 210580 | 233486 11 | 51:53.12 | 9:23.38 | 233487 | 275749 12 | 61:16.50 | 17:01.45 | 275750 | 352369
Track 1
Filename F:\downloads\Music\ЕхЅ¦ѕо\Complete Piano Music of Maurice Ravel - Robert Casadesus\cd2\01 - Le Tombeau de Couperin - I. Prelude.wav
Pre-gap length 0:00:02.00
Peak level 57.8 % Track quality 100.0 % Test CRC 04BE980F Copy CRC 04BE980F Track not present in AccurateRip database Copy OK
Track 2
Filename F:\downloads\Music\ЕхЅ¦ѕо\Complete Piano Music of Maurice Ravel - Robert Casadesus\cd2\02 - Le Tombeau de Couperin - II. Fugue.wav
Peak level 54.5 % Track quality 100.0 % Test CRC ADABB35A Copy CRC ADABB35A Track not present in AccurateRip database Copy OK
Track 3
Filename F:\downloads\Music\ЕхЅ¦ѕо\Complete Piano Music of Maurice Ravel - Robert Casadesus\cd2\03 - Le Tombeau de Couperin - III. Forlane.wav
Pre-gap length 0:00:00.01
Peak level 80.4 % Track quality 99.9 % Test CRC 37299A2C Copy CRC 37299A2C Track not present in AccurateRip database Copy OK
Track 4
Filename F:\downloads\Music\ЕхЅ¦ѕо\Complete Piano Music of Maurice Ravel - Robert Casadesus\cd2\04 - Le Tombeau de Couperin - IV. Rigaudon.wav
Pre-gap length 0:00:00.01
Peak level 89.6 % Track quality 100.0 % Test CRC 86B4F01C Copy CRC 86B4F01C Track not present in AccurateRip database Copy OK
Track 5
Filename F:\downloads\Music\ЕхЅ¦ѕо\Complete Piano Music of Maurice Ravel - Robert Casadesus\cd2\05 - Le Tombeau de Couperin - V. Menuet.wav
Pre-gap length 0:00:00.01
Peak level 70.2 % Track quality 100.0 % Test CRC 46B72755 Copy CRC 46B72755 Track not present in AccurateRip database Copy OK
Track 6
Filename F:\downloads\Music\ЕхЅ¦ѕо\Complete Piano Music of Maurice Ravel - Robert Casadesus\cd2\06 - Le Tombeau de Couperin - VI. Toccata.wav
Pre-gap length 0:00:00.01
Peak level 86.2 % Track quality 100.0 % Test CRC F1E7759D Copy CRC F1E7759D Track not present in AccurateRip database Copy OK
Track 7
Filename F:\downloads\Music\ЕхЅ¦ѕо\Complete Piano Music of Maurice Ravel - Robert Casadesus\cd2\07 - Valses nobles et sentimentales.wav
Pre-gap length 0:00:06.65
Peak level 75.8 % Track quality 100.0 % Test CRC ED6436F1 Copy CRC ED6436F1 Track not present in AccurateRip database Copy OK
Track 8
Filename F:\downloads\Music\ЕхЅ¦ѕо\Complete Piano Music of Maurice Ravel - Robert Casadesus\cd2\08 - Menuet antique.wav
Pre-gap length 0:00:06.94
Peak level 86.5 % Track quality 100.0 % Test CRC ACBDA5F2 Copy CRC ACBDA5F2 Track not present in AccurateRip database Copy OK
Track 9
Filename F:\downloads\Music\ЕхЅ¦ѕо\Complete Piano Music of Maurice Ravel - Robert Casadesus\cd2\09 - Gaspard de la nuit - I. Ondine.wav
Pre-gap length 0:00:07.37
Peak level 89.1 % Track quality 100.0 % Test CRC 9B7F4DE3 Copy CRC 9B7F4DE3 Track not present in AccurateRip database Copy OK
Track 10
Filename F:\downloads\Music\ЕхЅ¦ѕо\Complete Piano Music of Maurice Ravel - Robert Casadesus\cd2\10 - Gaspard de la nuit - II. Le Gibet.wav
Pre-gap length 0:00:00.01
Peak level 49.9 % Track quality 100.0 % Test CRC 11DB37BE Copy CRC 11DB37BE Track not present in AccurateRip database Copy OK
Track 11
Filename F:\downloads\Music\ЕхЅ¦ѕо\Complete Piano Music of Maurice Ravel - Robert Casadesus\cd2\11 - Gaspard de la nuit - III. Scarbo.wav
Pre-gap length 0:00:00.01
Peak level 92.9 % Track quality 99.9 % Test CRC 7E3F71FD Copy CRC 7E3F71FD Track not present in AccurateRip database Copy OK
Track 12
Filename F:\downloads\Music\ЕхЅ¦ѕо\Complete Piano Music of Maurice Ravel - Robert Casadesus\cd2\12 - Piano Concerto for the Left Hand.wav
Pre-gap length 0:00:08.74
Peak level 97.7 % Track quality 100.0 % Test CRC D874F03F Copy CRC D874F03F Track not present in AccurateRip database Copy OK
None of the tracks are present in the AccurateRip database
No errors occurred
End of status report

Содержание индексной карты (.CUE):

REM DISCID 99125A0CREM COMMENT "ExactAudioCopy v0.99pb4"PERFORMER "Robert Casadesus"TITLE "complete piano music of Ravel"FILE "01. Le Tombeau de Couperin_ I. Prélude.wav" WAVE TRACK 01 AUDIO TITLE "Le Tombeau de Couperin: I. Prélude" PERFORMER "Robert Casadesus" INDEX 01 00:00:00FILE "02. Le Tombeau de Couperin_ II. Fugue.wav" WAVE TRACK 02 AUDIO TITLE "Le Tombeau de Couperin: II. Fugue" PERFORMER "Robert Casadesus" INDEX 01 00:00:00 TRACK 03 AUDIO TITLE "Le Tombeau de Couperin: III. Forlane" PERFORMER "Robert Casadesus" INDEX 00 03:18:22FILE "03. Le Tombeau de Couperin_ III. Forlane.wav" WAVE INDEX 01 00:00:00 TRACK 04 AUDIO TITLE "Le Tombeau de Couperin: IV. Rigaudon" PERFORMER "Robert Casadesus" INDEX 00 04:53:39FILE "04. Le Tombeau de Couperin_ IV. Rigaudon.wav" WAVE INDEX 01 00:00:00 TRACK 05 AUDIO TITLE "Le Tombeau de Couperin: V. Menuet" PERFORMER "Robert Casadesus" INDEX 00 03:09:59FILE "05. Le Tombeau de Couperin_ V. Menuet.wav" WAVE INDEX 01 00:00:00 TRACK 06 AUDIO TITLE "Le Tombeau de Couperin: VI. Toccata" PERFORMER "Robert Casadesus" INDEX 00 04:22:11FILE "06. Le Tombeau de Couperin_ VI. Toccata.wav" WAVE INDEX 01 00:00:00 TRACK 07 AUDIO TITLE "Valses nobles et sentimentales" PERFORMER "Robert Casadesus" INDEX 00 03:49:24FILE "07. Valses nobles et sentimentales.wav" WAVE INDEX 01 00:00:00 TRACK 08 AUDIO TITLE "Menuet antique" PERFORMER "Robert Casadesus" INDEX 00 12:48:39FILE "08. Menuet antique.wav" WAVE INDEX 01 00:00:00 TRACK 09 AUDIO TITLE "Gaspard de la nuit: I. Ondine" PERFORMER "Robert Casadesus" INDEX 00 05:21:19FILE "09. Gaspard de la nuit_ I. Ondine.wav" WAVE INDEX 01 00:00:00 TRACK 10 AUDIO TITLE "Gaspard de la nuit: II. Le Gibet" PERFORMER "Robert Casadesus" INDEX 00 05:54:57FILE "10. Gaspard de la nuit_ II. Le Gibet.wav" WAVE INDEX 01 00:00:00 TRACK 11 AUDIO TITLE "Gaspard de la nuit: III. Scarbo" PERFORMER "Robert Casadesus" INDEX 00 05:05:31FILE "11. Gaspard de la nuit_ III. Scarbo.wav" WAVE INDEX 01 00:00:00 TRACK 12 AUDIO TITLE "Piano Concerto for the Left Hand" PERFORMER "Robert Casadesus" INDEX 00 09:14:57FILE "12. Piano Concerto for the Left Hand.wav" WAVE INDEX 01 00:00:00
[teatrix.ru].t9745.torrent 
Торрент: Зарегистрирован [ 2015-10-23 17:11 ] · 948274556C9A978355BA17A44F5851DB5031BA9F

Скачать .torrent

Скачать

19 KB

Статус: проверено
Скачан: 0 раз
Размер: 390 MB
terms.php



Быстрый ответ

Имя:

      
Для отправки сообщений необходимо включить JavaScript
Показать сообщения:    

Текущее время: 11-Дек 14:58

Часовой пояс: UTC + 3


Вы можете начинать темы
Вы можете отвечать на сообщения
Вы не можете редактировать свои сообщения
Вы не можете удалять свои сообщения
Вы не можете голосовать в опросах
Вы не можете прикреплять файлы к сообщениям
Вы можете скачивать файлы