(Classical) Mozart - The Unbelievable Mozart - Octets, Sextets, Theme and Variations , Serenadas, Quintet, Quartet, Fragment, Nonett - Consortium Classicum {7CD} - 2001, FLAC (image+.cue) lossless


Статистика раздачи [Обновить пиров]
Размер:  1.49 GB   |    Зарегистрирован:  1 год 1 месяц   |    Скачан:  0 раз

Полного источника не было: Никогда

Личеров:  2  [  0 KB/s  ]   Подробная статистика пиров
 
   
 
 
 

[Цитировать]

•Wolfgang Amadeus Mozart - The Unbelievable Mozart - Octets, Sextets, Theme and Variations , Serenadas, Quintet, Quartet, Fragment, Nonett - Consortium Classicum {7CD}• Жанр: Classical
Год издания диска: 2001
Издатель (лейбл): mDG Gold
Дата записи: 1994-2001
Аудиокодек: FLAC
Тип рипа: image+.cue
Битрейт аудио: lossless
Продолжительность: 07:07:07
Pелизер: Karelin
Наличие сканов в содержимом раздачи: нет

CD1 - 01:05:45

Треклист:

Octet (KV C 17.05 & B to 370a) in F
01. I Adagio Allegro [07:38]
02. II Andante [08:45]
03. III Minuetto [03:23]
04. IV Rondo [04:25]
Sextet KV deest in E flat
05. I Allegro molto [05:19]
06. II Adagio [06:19]
07. III Minuetto [03:45]
08. IV Finale Allegro [02:39]
Octet KV C 17.03 in E flat
09. I Adagio Allegro [07:15]
10. II Minuetto [03:48]
11. III Romanza Andante [06:01]
12. IV Minuetto [03:13]
13. V Finale Allegro assai [03:09]

Лог создания рипа

Exact Audio Copy V1.0 beta 1 from 15. November 2010
EAC extraction logfile from 23. December 2012, 17:46
Mozart - Consortium Classicum / Unblievable 1
Used drive : ATAPI DVD A DH20A4P Adapter: 1 ID: 0
Read mode : SecureUtilize accurate stream : YesDefeat audio cache : YesMake use of C2 pointers : No
Read offset correction : 6Overread into Lead-In and Lead-Out : NoFill up missing offset samples with silence : YesDelete leading and trailing silent blocks : NoNull samples used in CRC calculations : YesUsed interface : Installed external ASPI interface
Used output format : User Defined EncoderSelected bitrate : 1024 kBit/sQuality : HighAdd ID3 tag : NoCommand line compressor : C:\Program Files\Exact Audio Copy\Flac\flac.exeAdditional command line options : -5 -V -T "ARTIST=%a" -T "TITLE=%t" -T "ALBUM=%g" -T "DATE=%y" -T "TRACKNUMBER=%n" -T "GENRE=%m" -T "COMMENT=[oStereo.ru]" %s
TOC of the extracted CD
Track | Start | Length | Start sector | End sector --------------------------------------------------------- 1 | 0:00.00 | 7:38.17 | 0 | 34366 2 | 7:38.17 | 8:45.63 | 34367 | 73804 3 | 16:24.05 | 3:23.72 | 73805 | 89101 4 | 19:48.02 | 4:25.48 | 89102 | 109024 5 | 24:13.50 | 5:19.00 | 109025 | 132949 6 | 29:32.50 | 6:19.65 | 132950 | 161439 7 | 35:52.40 | 3:45.12 | 161440 | 178326 8 | 39:37.52 | 2:39.73 | 178327 | 190324 9 | 42:17.50 | 7:15.15 | 190325 | 222964 10 | 49:32.65 | 3:48.15 | 222965 | 240079 11 | 53:21.05 | 6:01.27 | 240080 | 267181 12 | 59:22.32 | 3:13.03 | 267182 | 281659 13 | 62:35.35 | 3:09.52 | 281660 | 295886
Range status and errors
Selected range
Filename C:\The Unblievable Mozart - Consortium Classicum - CD1 - mDG.wav
Peak level 99.6 % Extraction speed 0.1 X Range quality 100.0 % Test CRC 23620211 Copy CRC 23620211 Copy OK
No errors occurred
AccurateRip summary
Track 1 accurately ripped (confidence 5) [F25F38D2]Track 2 accurately ripped (confidence 5) [19552DD7]Track 3 accurately ripped (confidence 5) [9043705C]Track 4 accurately ripped (confidence 5) [CE033ACD]Track 5 accurately ripped (confidence 5) [D6CB1F65]Track 6 accurately ripped (confidence 5) [66594FCC]Track 7 accurately ripped (confidence 5) [0E57D65E]Track 8 accurately ripped (confidence 5) [A1A763AB]Track 9 accurately ripped (confidence 5) [8AFC54A9]Track 10 accurately ripped (confidence 5) [21984914]Track 11 accurately ripped (confidence 5) [D44575A8]Track 12 accurately ripped (confidence 5) [B4974859]Track 13 accurately ripped (confidence 5) [73DACEA1]
All tracks accurately ripped
End of status report
==== Log checksum 046923705DBC6DFF6BFF11C97119AFB5C81DBC93BED89A7F4C5386FDFF498496 ====

Содержание индексной карты (.CUE)

REM GENRE OtherREM DISCID CA0F690DREM COMMENT "ExactAudioCopy v1.0b1"PERFORMER "Mozart - Consortium Classicum"TITLE "Unblievable 1"FILE "The Unblievable Mozart - Consortium Classicum - CD1 - mDG.flac" WAVE TRACK 01 AUDIO TITLE "Octet (KV C 17.05 & B to 370a) in F I Adagio Allegro" PERFORMER "Mozart - Consortium Classicum" INDEX 01 00:00:00 INDEX 02 01:00:20 TRACK 02 AUDIO TITLE "Octet (KV C 17.05 & B to 370a) in F II Andante" PERFORMER "Mozart - Consortium Classicum" INDEX 00 07:34:07 INDEX 01 07:38:17 TRACK 03 AUDIO TITLE "Octet (KV C 17.05 & B to 370a) in F III Minuetto" PERFORMER "Mozart - Consortium Classicum" INDEX 00 16:18:32 INDEX 01 16:24:05 INDEX 02 17:32:72 INDEX 03 19:10:40 TRACK 04 AUDIO TITLE "Octet (KV C 17.05 & B to 370a) in F IV Rondo" PERFORMER "Mozart - Consortium Classicum" INDEX 00 19:47:55 INDEX 01 19:48:02 TRACK 05 AUDIO TITLE "Sextet KV deest in E flat I Allegro molto" PERFORMER "Mozart - Consortium Classicum" INDEX 00 24:05:55 INDEX 01 24:13:50 TRACK 06 AUDIO TITLE "Sextet KV deest in E flat II Adagio" PERFORMER "Mozart - Consortium Classicum" INDEX 00 29:30:35 INDEX 01 29:32:50 TRACK 07 AUDIO TITLE "Sextet KV deest in E flat III Minuetto" PERFORMER "Mozart - Consortium Classicum" INDEX 00 35:51:32 INDEX 01 35:52:40 INDEX 02 36:53:35 INDEX 03 37:40:65 INDEX 04 38:10:27 INDEX 05 39:03:42 TRACK 08 AUDIO TITLE "Sextet KV deest in E flat IV Finale Allegro" PERFORMER "Mozart - Consortium Classicum" INDEX 00 39:37:12 INDEX 01 39:37:52 TRACK 09 AUDIO TITLE "Octet KV C 17.03 in E flat I Adagio Allegro" PERFORMER "Mozart - Consortium Classicum" INDEX 00 42:11:17 INDEX 01 42:17:50 INDEX 02 43:21:45 TRACK 10 AUDIO TITLE "Octet KV C 17.03 in E flat II Minuetto" PERFORMER "Mozart - Consortium Classicum" INDEX 00 49:29:02 INDEX 01 49:32:65 INDEX 02 51:14:62 INDEX 03 52:23:70 TRACK 11 AUDIO TITLE "Octet KV C 17.03 in E flat III Romanza Andante" PERFORMER "Mozart - Consortium Classicum" INDEX 00 53:17:40 INDEX 01 53:21:05 TRACK 12 AUDIO TITLE "Octet KV C 17.03 in E flat IV Minuetto" PERFORMER "Mozart - Consortium Classicum" INDEX 00 59:20:17 INDEX 01 59:22:32 INDEX 02 60:36:50 INDEX 03 61:53:02 TRACK 13 AUDIO TITLE "Octet KV C 17.03 in E flat V Finale Allegro assai" PERFORMER "Mozart - Consortium Classicum" INDEX 00 62:34:50 INDEX 01 62:35:35

CD2 - 01:02:07

Треклист:

Octet (Divertimento) in E flat major, KV App. 224
01. Adagio - Allegro [08:33]
02. Menuetto [03:05]
03. Adagio [04:58]
04. Menuetto [03:21]
05. Thema mit Variationen: Adagio [03:48]
06. Rondo [03:17]
Theme and Variations on 'Unser dummer Pobel meint' in F major
07. Thema - Varia... [06:11]
Octet (Partita) in B flat major (after KV 425)
08. Adagio - Allegro spiri... [09:46]
09. Andante [08:40]
10. Menuetto [03:28]
11. Presto [06:56]

Лог создания рипа

Exact Audio Copy V1.0 beta 1 from 15. November 2010
EAC extraction logfile from 23. December 2012, 19:22
Consortium Classicum / The Unbelievable Mozart - Consortium Classicum CD2
Used drive : ATAPI DVD A DH20A4P Adapter: 1 ID: 0
Read mode : SecureUtilize accurate stream : YesDefeat audio cache : YesMake use of C2 pointers : No
Read offset correction : 6Overread into Lead-In and Lead-Out : NoFill up missing offset samples with silence : YesDelete leading and trailing silent blocks : NoNull samples used in CRC calculations : YesUsed interface : Installed external ASPI interface
Used output format : User Defined EncoderSelected bitrate : 1024 kBit/sQuality : HighAdd ID3 tag : NoCommand line compressor : C:\Program Files\Exact Audio Copy\Flac\flac.exeAdditional command line options : -5 -V -T "ARTIST=%a" -T "TITLE=%t" -T "ALBUM=%g" -T "DATE=%y" -T "TRACKNUMBER=%n" -T "GENRE=%m" -T "COMMENT=[oStereo.ru]" %s
TOC of the extracted CD
Track | Start | Length | Start sector | End sector --------------------------------------------------------- 1 | 0:00.00 | 8:33.25 | 0 | 38499 2 | 8:33.25 | 3:05.37 | 38500 | 52411 3 | 11:38.62 | 4:58.48 | 52412 | 74809 4 | 16:37.35 | 3:21.57 | 74810 | 89941 5 | 19:59.17 | 3:48.23 | 89942 | 107064 6 | 23:47.40 | 3:17.02 | 107065 | 121841 7 | 27:04.42 | 6:11.23 | 121842 | 149689 8 | 33:15.65 | 9:46.20 | 149690 | 193659 9 | 43:02.10 | 8:40.15 | 193660 | 232674 10 | 51:42.25 | 3:28.70 | 232675 | 248344 11 | 55:11.20 | 6:56.15 | 248345 | 279559
Range status and errors
Selected range
Filename C:\The Unbelievable Mozart - Consortium Classicum - CD2 - mDG.wav
Peak level 93.2 % Extraction speed 0.3 X Range quality 100.0 % Test CRC 4FB3A591 Copy CRC 4FB3A591 Copy OK
No errors occurred
AccurateRip summary
Track 1 accurately ripped (confidence 6) [6F745983]Track 2 accurately ripped (confidence 6) [114249C4]Track 3 accurately ripped (confidence 6) [7711C191]Track 4 accurately ripped (confidence 6) [047C6698]Track 5 accurately ripped (confidence 6) [810C6B7F]Track 6 accurately ripped (confidence 6) [1D0402B0]Track 7 accurately ripped (confidence 6) [99367F1B]Track 8 accurately ripped (confidence 6) [417EA8C9]Track 9 accurately ripped (confidence 6) [1CB7D6DF]Track 10 accurately ripped (confidence 6) [7E62C4A3]Track 11 accurately ripped (confidence 6) [35C3AEEA]
All tracks accurately ripped
End of status report
==== Log checksum F56610E552E278DCC12F4D5E55661B68E4A6855BB09520066DC3D6A224081D95 ====

Содержание индексной карты (.CUE)

REM GENRE ClassicalREM DISCID 910E8F0BREM COMMENT "ExactAudioCopy v1.0b1"PERFORMER "Consortium Classicum"TITLE "The Unbelievable Mozart - Consortium Classicum CD2"FILE "The Unbelievable Mozart - Consortium Classicum - CD2 - mDG.flac" WAVE TRACK 01 AUDIO TITLE "Octet (Divertimento) in E flat major, KV App. 224 - 1. Adagio - 2. Allegro" PERFORMER "Consortium Classicum" INDEX 01 00:00:00 INDEX 02 01:21:27 TRACK 02 AUDIO TITLE "3. Menuetto" PERFORMER "Consortium Classicum" INDEX 00 08:27:27 INDEX 01 08:33:25 INDEX 02 09:27:50 INDEX 03 11:04:12 TRACK 03 AUDIO TITLE "4. Adagio" PERFORMER "Consortium Classicum" INDEX 00 11:35:30 INDEX 01 11:38:62 TRACK 04 AUDIO TITLE "5. Menuetto" PERFORMER "Consortium Classicum" INDEX 00 16:32:40 INDEX 01 16:37:35 INDEX 02 17:53:32 INDEX 03 19:16:05 TRACK 05 AUDIO TITLE "6. Thema mit Variationen: Adagio" PERFORMER "Consortium Classicum" INDEX 00 19:58:15 INDEX 01 19:59:17 TRACK 06 AUDIO TITLE "7. Rondo" PERFORMER "Consortium Classicum" INDEX 00 23:46:47 INDEX 01 23:47:40 TRACK 07 AUDIO TITLE "Theme and Variations on 'Unser dummer Pobel meint' in F major - Thema - Varia..." PERFORMER "Consortium Classicum" INDEX 00 26:54:35 INDEX 01 27:04:42 INDEX 02 27:56:27 INDEX 03 28:40:47 INDEX 04 29:31:70 INDEX 05 30:19:65 INDEX 06 31:08:60 INDEX 07 32:03:47 TRACK 08 AUDIO TITLE "Octet (Partita) in B flat major (after KV 425) - 1. Adagio - 2. Allegro spiri..." PERFORMER "Consortium Classicum" INDEX 00 33:05:59 INDEX 01 33:15:65 INDEX 02 34:57:45 TRACK 09 AUDIO TITLE "3. Andante" PERFORMER "Consortium Classicum" INDEX 00 42:57:65 INDEX 01 43:02:10 TRACK 10 AUDIO TITLE "4. Menuetto" PERFORMER "Consortium Classicum" INDEX 00 51:40:62 INDEX 01 51:42:25 INDEX 02 53:12:35 INDEX 03 54:24:35 TRACK 11 AUDIO TITLE "5. Presto" PERFORMER "Consortium Classicum" INDEX 00 55:11:15 INDEX 01 55:11:20

CD3 - 00:59:27

Треклист:

Octet (Divertimento) in E flat major KV deest
01. I Adagio Allegro molto [10:15]
02. II Un poco Adagio [03:47]
03. III Menuetto [03:33]
04. IV Rondo - Allegro [03:11]
Sextet in B flat major KV 439b
05. I Allegro [03:24]
06. II Menuetto I [04:31]
07. III Adagio [04:12]
08. IV Menuetto II [04:21]
09. V Rondo (Allegro assai) [04:08]
Serenada in E flat major KV deest
10. I Allegro moderato [06:52]
11. II Poco Adagio [03:59]
12. III Menuetto [03:13]
13. IV Largo Romanza poco Allegro [03:54]

Лог создания рипа

Exact Audio Copy V1.0 beta 1 from 15. November 2010
EAC extraction logfile from 23. December 2012, 20:09
Mozart - Consortium Classicum / Mozart? 3
Used drive : ATAPI DVD A DH20A4P Adapter: 1 ID: 0
Read mode : SecureUtilize accurate stream : YesDefeat audio cache : YesMake use of C2 pointers : No
Read offset correction : 6Overread into Lead-In and Lead-Out : NoFill up missing offset samples with silence : YesDelete leading and trailing silent blocks : NoNull samples used in CRC calculations : YesUsed interface : Installed external ASPI interface
Used output format : User Defined EncoderSelected bitrate : 1024 kBit/sQuality : HighAdd ID3 tag : NoCommand line compressor : C:\Program Files\Exact Audio Copy\Flac\flac.exeAdditional command line options : -5 -V -T "ARTIST=%a" -T "TITLE=%t" -T "ALBUM=%g" -T "DATE=%y" -T "TRACKNUMBER=%n" -T "GENRE=%m" -T "COMMENT=[oStereo.ru]" %s
TOC of the extracted CD
Track | Start | Length | Start sector | End sector --------------------------------------------------------- 1 | 0:00.50 | 10:15.20 | 50 | 46194 2 | 10:15.70 | 3:47.50 | 46195 | 63269 3 | 14:03.45 | 3:34.00 | 63270 | 79319 4 | 17:37.45 | 3:11.02 | 79320 | 93646 5 | 20:48.47 | 3:24.68 | 93647 | 109014 6 | 24:13.40 | 4:31.55 | 109015 | 129394 7 | 28:45.20 | 4:12.42 | 129395 | 148336 8 | 32:57.62 | 4:21.65 | 148337 | 167976 9 | 37:19.52 | 4:08.33 | 167977 | 186609 10 | 41:28.10 | 6:52.47 | 186610 | 217556 11 | 48:20.57 | 3:59.33 | 217557 | 235514 12 | 52:20.15 | 3:13.30 | 235515 | 250019 13 | 55:33.45 | 3:54.15 | 250020 | 267584
Range status and errors
Selected range
Filename C:\The Unbelievable Mozart - Consortium Classicum - CD3 - mDG.wav
Peak level 100.0 % Extraction speed 0.2 X Range quality 100.0 % Test CRC A211B088 Copy CRC A211B088 Copy OK
No errors occurred
AccurateRip summary
Track 1 accurately ripped (confidence 6) [41FC46E3]Track 2 accurately ripped (confidence 6) [9FF5E37E]Track 3 accurately ripped (confidence 6) [EEFFB11E]Track 4 accurately ripped (confidence 6) [D49314A5]Track 5 accurately ripped (confidence 6) [41FB363E]Track 6 accurately ripped (confidence 6) [B76EB2BA]Track 7 accurately ripped (confidence 6) [71E4C67A]Track 8 accurately ripped (confidence 6) [E5DF018D]Track 9 accurately ripped (confidence 6) [55ED25D8]Track 10 accurately ripped (confidence 6) [9C3B07C7]Track 11 accurately ripped (confidence 6) [50B97EC7]Track 12 accurately ripped (confidence 6) [3D8A8502]Track 13 accurately ripped (confidence 6) [D3188AAC]
All tracks accurately ripped
End of status report
==== Log checksum DBAF92C1AC2A78D6BEB2943CA5CEA8B0E2B13DD2F835E8C6D7C7B91411795857 ====

Содержание индексной карты (.CUE)

REM GENRE ClassicalREM DATE 1996REM DISCID AF0DEF0DREM COMMENT "ExactAudioCopy v1.0b1"PERFORMER "Mozart - Consortium Classicum"TITLE "Mozart? 3"FILE "The Unbelievable Mozart - Consortium Classicum - CD3 - mDG.flac" WAVE TRACK 01 AUDIO TITLE "Octet (Divertimento) in E flat major KV deest I Adagio Allegro molto" PERFORMER "Mozart - Consortium Classicum" INDEX 00 00:00:00 INDEX 01 00:00:50 INDEX 02 03:04:55 TRACK 02 AUDIO TITLE "Octet (Divertimento) in E flat major KV deest II Un poco Adagio" PERFORMER "Mozart - Consortium Classicum" INDEX 00 10:12:12 INDEX 01 10:15:70 TRACK 03 AUDIO TITLE "Octet (Divertimento) in E flat major KV deest III Menuetto" PERFORMER "Mozart - Consortium Classicum" INDEX 01 14:03:45 INDEX 02 15:36:63 INDEX 03 16:49:02 TRACK 04 AUDIO TITLE "Octet (Divertimento) in E flat major KV deest IV Rondo - Allegro" PERFORMER "Mozart - Consortium Classicum" INDEX 01 17:37:45 TRACK 05 AUDIO TITLE "Sextet in B flat major KV 439b I Allegro" PERFORMER "Mozart - Consortium Classicum" INDEX 00 20:42:15 INDEX 01 20:48:47 TRACK 06 AUDIO TITLE "Sextet in B flat major KV 439b II Menuetto I" PERFORMER "Mozart - Consortium Classicum" INDEX 00 24:11:42 INDEX 01 24:13:40 INDEX 02 25:53:65 INDEX 03 27:50:17 TRACK 07 AUDIO TITLE "Sextet in B flat major KV 439b III Adagio" PERFORMER "Mozart - Consortium Classicum" INDEX 00 28:44:18 INDEX 01 28:45:20 TRACK 08 AUDIO TITLE "Sextet in B flat major KV 439b IV Menuetto II" PERFORMER "Mozart - Consortium Classicum" INDEX 01 32:57:62 INDEX 02 34:43:52 INDEX 03 36:24:22 TRACK 09 AUDIO TITLE "Sextet in B flat major KV 439b V Rondo (Allegro assai)" PERFORMER "Mozart - Consortium Classicum" INDEX 01 37:19:52 TRACK 10 AUDIO TITLE "Serenda in E flat major KV deest I Allegro moderato" PERFORMER "Mozart - Consortium Classicum" INDEX 00 41:17:20 INDEX 01 41:28:10 TRACK 11 AUDIO TITLE "Serenda in E flat major KV deest II Poco Adagio" PERFORMER "Mozart - Consortium Classicum" INDEX 00 48:17:40 INDEX 01 48:20:57 TRACK 12 AUDIO TITLE "Serenda in E flat major KV deest III Menuetto" PERFORMER "Mozart - Consortium Classicum" INDEX 01 52:20:15 INDEX 02 53:48:35 INDEX 03 54:46:57 TRACK 13 AUDIO TITLE "Serenda in E flat major KV deest IV Largo Romanza poco Allegro" PERFORMER "Mozart - Consortium Classicum" INDEX 00 55:31:06 INDEX 01 55:33:45 INDEX 02 56:08:30 INDEX 03 56:45:10 INDEX 04 57:39:30 INDEX 05 57:59:57 INDEX 06 58:55:35

CD4 - 01:56:27

Треклист:

Sextet after KV 386C-563 in E flat major by F.A.Hoffmeister
01. I Allegro [05:40]
02. II Andantino [06:09]
03. III Menuetto [02:54]
04. IV RondoAllegro [03:41]
Sextet KV C17.09 in B flat major
05. I Allegro [03:18]
06. II Adagio [02:21]
07. III Menuetto [03:21]
08. IV Finale Allegro [02:14]
Octet after KV 497 in F major by Arcduke Rudolph
09. I Adagio Allegro molto [08:44]
10. II Andante [11:21]
11. III Rondo Allegro [06:38]

Лог создания рипа

Exact Audio Copy V1.0 beta 1 from 15. November 2010
EAC extraction logfile from 23. December 2012, 21:39
Consortium Classicum / Mozart - the unbelievable Mozart - unknown works (cd4)
Used drive : ATAPI DVD A DH20A4P Adapter: 1 ID: 0
Read mode : SecureUtilize accurate stream : YesDefeat audio cache : YesMake use of C2 pointers : No
Read offset correction : 6Overread into Lead-In and Lead-Out : NoFill up missing offset samples with silence : YesDelete leading and trailing silent blocks : NoNull samples used in CRC calculations : YesUsed interface : Installed external ASPI interface
Used output format : User Defined EncoderSelected bitrate : 1024 kBit/sQuality : HighAdd ID3 tag : NoCommand line compressor : C:\Program Files\Exact Audio Copy\Flac\flac.exeAdditional command line options : -5 -V -T "ARTIST=%a" -T "TITLE=%t" -T "ALBUM=%g" -T "DATE=%y" -T "TRACKNUMBER=%n" -T "GENRE=%m" -T "COMMENT=[oStereo.ru]" %s
TOC of the extracted CD
Track | Start | Length | Start sector | End sector --------------------------------------------------------- 1 | 0:00.00 | 5:40.27 | 0 | 25526 2 | 5:40.27 | 6:09.50 | 25527 | 53251 3 | 11:50.02 | 2:54.53 | 53252 | 66354 4 | 14:44.55 | 3:41.40 | 66355 | 82969 5 | 18:26.20 | 3:18.72 | 82970 | 97891 6 | 21:45.17 | 2:21.30 | 97892 | 108496 7 | 24:06.47 | 3:21.70 | 108497 | 123641 8 | 27:28.42 | 2:14.70 | 123642 | 133761 9 | 29:43.37 | 8:44.53 | 133762 | 173114 10 | 38:28.15 | 11:21.37 | 173115 | 224226 11 | 49:49.52 | 6:38.23 | 224227 | 254099
Range status and errors
Selected range
Filename C:\The Unbelievable Mozart - Consortium Classicum - CD4 - mDG.wav
Peak level 97.4 % Extraction speed 0.3 X Range quality 100.0 % Test CRC 2B58C484 Copy CRC 2B58C484 Copy OK
No errors occurred
AccurateRip summary
Track 1 accurately ripped (confidence 6) [5EF0CC7D]Track 2 accurately ripped (confidence 6) [0E874423]Track 3 accurately ripped (confidence 6) [EF4E8982]Track 4 accurately ripped (confidence 6) [76E88A1D]Track 5 accurately ripped (confidence 6) [F1E4ABB7]Track 6 accurately ripped (confidence 6) [712B494A]Track 7 accurately ripped (confidence 6) [FCCF13B6]Track 8 accurately ripped (confidence 6) [94E69531]Track 9 accurately ripped (confidence 6) [1204FAF4]Track 10 accurately ripped (confidence 6) [4114D68B]Track 11 accurately ripped (confidence 6) [8E574146]
All tracks accurately ripped
End of status report
==== Log checksum 9C87F24F61D300E7F0EF6F3B16AE955ADE751F2B7CA285137BB08BC9A78F050A ====

Содержание индексной карты (.CUE)

REM GENRE ClassicalREM DATE 2000REM DISCID 8D0D3C0BREM COMMENT "ExactAudioCopy v1.0b1"PERFORMER "Consortium Classicum"TITLE "Mozart - the unbelievable Mozart - unknown works (cd4)"FILE "The Unbelievable Mozart - Consortium Classicum - CD4 - mDG.flac" WAVE TRACK 01 AUDIO TITLE "Sextet after KV 386C-563 in E flat major by F.A.Hoffmeister - I Allegro" PERFORMER "Consortium Classicum" INDEX 01 00:00:00 TRACK 02 AUDIO TITLE "Sextet after KV 386C-563 in E flat major by F.A.Hoffmeister - II Andantino" PERFORMER "Consortium Classicum" INDEX 00 05:35:23 INDEX 01 05:40:27 TRACK 03 AUDIO TITLE "Sextet after KV 386C-563 in E flat major by F.A.Hoffmeister - III Menuetto" PERFORMER "Consortium Classicum" INDEX 00 11:47:40 INDEX 01 11:50:02 INDEX 02 12:53:56 INDEX 03 14:09:20 TRACK 04 AUDIO TITLE "Sextet after KV 386C-563 in E flat major by F.A.Hoffmeister - IV RondoAllegro" PERFORMER "Consortium Classicum" INDEX 01 14:44:55 TRACK 05 AUDIO TITLE "Sextet KV C17.09 in B flat major - I Allegro" PERFORMER "Consortium Classicum" INDEX 00 18:17:30 INDEX 01 18:26:20 TRACK 06 AUDIO TITLE "Sextet KV C17.09 in B flat major - II Adagio" PERFORMER "Consortium Classicum" INDEX 00 21:43:30 INDEX 01 21:45:17 TRACK 07 AUDIO TITLE "Sextet KV C17.09 in B flat major - III Menuetto" PERFORMER "Consortium Classicum" INDEX 00 24:05:70 INDEX 01 24:06:47 INDEX 02 25:31:40 INDEX 03 26:43:02 TRACK 08 AUDIO TITLE "Sextet KV C17.09 in B flat major - IV Finale Allegro" PERFORMER "Consortium Classicum" INDEX 01 27:28:42 TRACK 09 AUDIO TITLE "Octet after KV 497 in F major by Arcduke Rudolph - I Adagio Allegro molto" PERFORMER "Consortium Classicum" INDEX 00 29:32:62 INDEX 01 29:43:37 INDEX 02 31:36:48 TRACK 10 AUDIO TITLE "Octet after KV 497 in F major by Arcduke Rudolph - II Andante" PERFORMER "Consortium Classicum" INDEX 00 38:22:42 INDEX 01 38:28:15 TRACK 11 AUDIO TITLE "Octet after KV 497 in F major by Arcduke Rudolph - III Rondo Allegro" PERFORMER "Consortium Classicum" INDEX 00 49:47:12 INDEX 01 49:49:52

CD5 - 01:07:39

Треклист:

Oboe Quintet in Bb (after KV 458)
01. I Allegro vivace [07:55]
02. II Menuetto [03:59]
03. III Adagio [07:14]
04. IV Allegro assai [04:47]
Octet in Eb (after KV 452)
05. I Largo - Allegro moderato [10:32]
06. II Larghetto [09:34]
07. III Allegretto [05:37]
Clarinet Quartet in Eb, KV deest
08. I Allegro [06:46]
09. II Adagio [03:04]
10. III Polonaise [05:07]
11. IV Rondo. Allegro [02:58]

Лог создания рипа

Exact Audio Copy V1.0 beta 1 from 15. November 2010
EAC extraction logfile from 23. December 2012, 21:53
Mozart - Consortium Classicum / ?Mozart! Vol 5
Used drive : ATAPI DVD A DH20A4P Adapter: 1 ID: 0
Read mode : SecureUtilize accurate stream : YesDefeat audio cache : YesMake use of C2 pointers : No
Read offset correction : 6Overread into Lead-In and Lead-Out : NoFill up missing offset samples with silence : YesDelete leading and trailing silent blocks : NoNull samples used in CRC calculations : YesUsed interface : Installed external ASPI interface
Used output format : User Defined EncoderSelected bitrate : 1024 kBit/sQuality : HighAdd ID3 tag : NoCommand line compressor : C:\Program Files\Exact Audio Copy\Flac\flac.exeAdditional command line options : -5 -V -T "ARTIST=%a" -T "TITLE=%t" -T "ALBUM=%g" -T "DATE=%y" -T "TRACKNUMBER=%n" -T "GENRE=%m" -T "COMMENT=[oStereo.ru]" %s
TOC of the extracted CD
Track | Start | Length | Start sector | End sector --------------------------------------------------------- 1 | 0:00.00 | 7:55.10 | 0 | 35634 2 | 7:55.10 | 3:59.25 | 35635 | 53584 3 | 11:54.35 | 7:14.30 | 53585 | 86164 4 | 19:08.65 | 4:47.72 | 86165 | 107761 5 | 23:56.62 | 10:32.47 | 107762 | 155208 6 | 34:29.34 | 9:34.66 | 155209 | 198324 7 | 44:04.25 | 5:37.20 | 198325 | 223619 8 | 49:41.45 | 6:46.70 | 223620 | 254139 9 | 56:28.40 | 3:04.62 | 254140 | 268001 10 | 59:33.27 | 5:07.35 | 268002 | 291061 11 | 64:40.62 | 2:58.50 | 291062 | 304461
Range status and errors
Selected range
Filename C:\The Unbelievable Mozart - Consortium Classicum - CD5 - mDG.wav
Peak level 99.9 % Extraction speed 0.1 X Range quality 99.9 % Test CRC 19BAEE5C Copy CRC 19BAEE5C Copy OK
No errors occurred
AccurateRip summary
Track 1 accurately ripped (confidence 6) [97683721]Track 2 accurately ripped (confidence 6) [2756750B]Track 3 accurately ripped (confidence 6) [C97BC6CD]Track 4 accurately ripped (confidence 6) [64065364]Track 5 accurately ripped (confidence 6) [6F03946C]Track 6 accurately ripped (confidence 6) [438B6571]Track 7 accurately ripped (confidence 6) [17C1514B]Track 8 accurately ripped (confidence 6) [EEB93ED5]Track 9 accurately ripped (confidence 6) [9DEBA1D0]Track 10 accurately ripped (confidence 6) [3C239ED4]Track 11 accurately ripped (confidence 6) [E187DB38]
All tracks accurately ripped
End of status report
==== Log checksum 8770035516A89F5DD89FAC969E78D07BE5C360A6DC5BD68AB9ECE66F5B389D06 ====

Содержание индексной карты (.CUE)

REM GENRE ClassicalREM DISCID A30FDB0BREM COMMENT "ExactAudioCopy v1.0b1"PERFORMER "Mozart - Consortium Classicum"TITLE "?Mozart! Vol 5"FILE "The Unbelievable Mozart - Consortium Classicum - CD5 - mDG.flac" WAVE TRACK 01 AUDIO TITLE "Oboe Quintet in Bb (after KV 458) - 1 Allegro vivace" PERFORMER "Mozart - Consortium Classicum" INDEX 01 00:00:00 TRACK 02 AUDIO TITLE "Oboe Quintet in Bb (after KV 458) - 2 Menuetto" PERFORMER "Mozart - Consortium Classicum" INDEX 00 07:51:33 INDEX 01 07:55:10 INDEX 02 09:20:21 INDEX 03 11:05:40 TRACK 03 AUDIO TITLE "Oboe Quintet in Bb (after KV 458) - 3 Adagio" PERFORMER "Mozart - Consortium Classicum" INDEX 00 11:50:10 INDEX 01 11:54:35 TRACK 04 AUDIO TITLE "Oboe Quintet in Bb (after KV 458) - 4 Allegro assai" PERFORMER "Mozart - Consortium Classicum" INDEX 00 19:07:22 INDEX 01 19:08:65 TRACK 05 AUDIO TITLE "Octet in Eb (after KV 452) - 1 Largo - Allegro moderato" PERFORMER "Mozart - Consortium Classicum" INDEX 00 23:45:37 INDEX 01 23:56:62 INDEX 02 26:35:17 TRACK 06 AUDIO TITLE "Octet in Eb (after KV 452) - 2 Larghetto" PERFORMER "Mozart - Consortium Classicum" INDEX 00 34:21:60 INDEX 01 34:29:34 TRACK 07 AUDIO TITLE "Octet in Eb (after KV 452) - 3 Allegretto" PERFORMER "Mozart - Consortium Classicum" INDEX 01 44:04:25 TRACK 08 AUDIO TITLE "Clarinet Quartet in Eb, KV deest - 1 Allegro" PERFORMER "Mozart - Consortium Classicum" INDEX 00 49:26:05 INDEX 01 49:41:45 TRACK 09 AUDIO TITLE "Clarinet Quartet in Eb, KV deest - 2 Adagio" PERFORMER "Mozart - Consortium Classicum" INDEX 00 56:23:10 INDEX 01 56:28:40 TRACK 10 AUDIO TITLE "Clarinet Quartet in Eb, KV deest - 3 Polonaise" PERFORMER "Mozart - Consortium Classicum" INDEX 00 59:30:36 INDEX 01 59:33:27 INDEX 02 60:53:08 INDEX 03 62:03:26 INDEX 04 62:44:14 INDEX 05 63:57:08 TRACK 11 AUDIO TITLE "Clarinet Quartet in Eb, KV deest - 4 Rondo. Allegro" PERFORMER "Mozart - Consortium Classicum" INDEX 00 64:39:25 INDEX 01 64:40:62

CD6 - 00:55:42

Треклист:

Serenade nach KV 614
01. I Allegro molto [06:52]
02. II Andante [04:51]
03. III Menuetto [04:01]
04. IV Allegro [03:43]
Fragment KV 384
05. I Marcia KV 384b [02:47]
06. II Chaconne KV 384b [05:07]
07. III Menuet KV 384c [03:22]
Nonett nach KV 426 Es-Dur
08. I Allegro ma non troppo [07:07]
09. II Andante con moto [06:30]
10. III Menuetto [05:57]
11. IV Finale - Allegro vivace [05:20]

Лог создания рипа

Exact Audio Copy V1.0 beta 1 from 15. November 2010
EAC extraction logfile from 23. December 2012, 23:39
Mozart - Consortium Claasicum / ?Mozart! Vol. 6
Used drive : ATAPI DVD A DH20A4P Adapter: 1 ID: 0
Read mode : SecureUtilize accurate stream : YesDefeat audio cache : YesMake use of C2 pointers : No
Read offset correction : 6Overread into Lead-In and Lead-Out : NoFill up missing offset samples with silence : YesDelete leading and trailing silent blocks : NoNull samples used in CRC calculations : YesUsed interface : Installed external ASPI interface
Used output format : User Defined EncoderSelected bitrate : 1024 kBit/sQuality : HighAdd ID3 tag : NoCommand line compressor : C:\Program Files\Exact Audio Copy\Flac\flac.exeAdditional command line options : -5 -V -T "ARTIST=%a" -T "TITLE=%t" -T "ALBUM=%g" -T "DATE=%y" -T "TRACKNUMBER=%n" -T "GENRE=%m" -T "COMMENT=[oStereo.ru]" %s
TOC of the extracted CD
Track | Start | Length | Start sector | End sector --------------------------------------------------------- 1 | 0:00.00 | 6:52.42 | 0 | 30941 2 | 6:52.42 | 4:51.45 | 30942 | 52811 3 | 11:44.12 | 4:01.60 | 52812 | 70946 4 | 15:45.72 | 3:43.58 | 70947 | 87729 5 | 19:29.55 | 2:47.22 | 87730 | 100276 6 | 22:17.02 | 5:07.20 | 100277 | 123321 7 | 27:24.22 | 3:22.08 | 123322 | 138479 8 | 30:46.30 | 7:07.40 | 138480 | 170544 9 | 37:53.70 | 6:30.35 | 170545 | 199829 10 | 44:24.30 | 5:57.45 | 199830 | 226649 11 | 50:22.00 | 5:20.40 | 226650 | 250689
Range status and errors
Selected range
Filename C:\The Unbelievable Mozart - Consortium Classicum - CD6 - mDG.wav
Peak level 91.4 % Extraction speed 0.2 X Range quality 99.9 % Test CRC 488CEF9C Copy CRC 488CEF9C Copy OK
No errors occurred
AccurateRip summary
Track 1 accurately ripped (confidence 5) [91DDF01A]Track 2 accurately ripped (confidence 6) [C0FDF469]Track 3 accurately ripped (confidence 6) [5FF7938E]Track 4 accurately ripped (confidence 6) [813CFE23]Track 5 accurately ripped (confidence 6) [D21252E8]Track 6 accurately ripped (confidence 6) [3E354461]Track 7 accurately ripped (confidence 6) [7F26C39D]Track 8 accurately ripped (confidence 6) [6B99DBFE]Track 9 accurately ripped (confidence 6) [3B58ADB7]Track 10 accurately ripped (confidence 6) [A623BE49]Track 11 accurately ripped (confidence 6) [4A1D1C15]
All tracks accurately ripped
End of status report
==== Log checksum EAC0D8A94B0E32768ABCEC5B04595FD053051F27880076D5D86E47C9DF706CD8 ====

Содержание индексной карты (.CUE)

REM GENRE KlassikREM DATE 1999REM DISCID 990D0E0BREM COMMENT "ExactAudioCopy v1.0b1"PERFORMER "Mozart - Consortium Claasicum"TITLE "?Mozart! Vol. 6"FILE "The Unbelievable Mozart - Consortium Classicum - CD6 - mDG.flac" WAVE TRACK 01 AUDIO TITLE "Mozart - Serenade nach KV 614 / I Allegro molto" PERFORMER "Mozart - Consortium Claasicum" INDEX 01 00:00:00 TRACK 02 AUDIO TITLE "Mozart - Serenade nach KV 614 / II Andante" PERFORMER "Mozart - Consortium Claasicum" INDEX 00 06:49:55 INDEX 01 06:52:42 TRACK 03 AUDIO TITLE "Mozart - Serenade nach KV 614 / III Menuetto" PERFORMER "Mozart - Consortium Claasicum" INDEX 00 11:43:00 INDEX 01 11:44:12 TRACK 04 AUDIO TITLE "Mozart - Serenade nach KV 614 / IV Allegro" PERFORMER "Mozart - Consortium Claasicum" INDEX 00 15:45:42 INDEX 01 15:45:72 TRACK 05 AUDIO TITLE "Mozart - Fragment KV 384 / I Marcia KV 384b" PERFORMER "Mozart - Consortium Claasicum" INDEX 00 19:24:45 INDEX 01 19:29:55 TRACK 06 AUDIO TITLE "Mozart - Fragment KV 384 / II Chaconne KV 384b" PERFORMER "Mozart - Consortium Claasicum" INDEX 00 22:15:72 INDEX 01 22:17:02 TRACK 07 AUDIO TITLE "Mozart - Fragment KV 384 / III Menuet KV 384c" PERFORMER "Mozart - Consortium Claasicum" INDEX 00 27:22:65 INDEX 01 27:24:22 TRACK 08 AUDIO TITLE "Mozart - Nonett nach KV 426 Es-Dur / I Allegro ma non troppo" PERFORMER "Mozart - Consortium Claasicum" INDEX 00 30:42:00 INDEX 01 30:46:30 TRACK 09 AUDIO TITLE "Mozart - Nonett nach KV 426 Es-Dur / II Andante con moto" PERFORMER "Mozart - Consortium Claasicum" INDEX 00 37:52:22 INDEX 01 37:53:70 TRACK 10 AUDIO TITLE "Mozart - Nonett nach KV 426 Es-Dur / III Menuetto" PERFORMER "Mozart - Consortium Claasicum" INDEX 00 44:23:30 INDEX 01 44:24:30 TRACK 11 AUDIO TITLE "Mozart - Nonett nach KV 426 Es-Dur / IV Finale - Allegro vivace" PERFORMER "Mozart - Consortium Claasicum" INDEX 00 50:21:12 INDEX 01 50:22:00

CD7 - 00:59:57

Треклист:

01. Adagio in B flat major, KV 484a for 2 clarinets and 3 bassett horns [09:48]
Serenade 'Gran Partita' in B flat major, KV 370a
02. I Largo - Molto allegro [09:19]
03. II Menuetto [08:57]
04. III Adagio [06:02]
05. IV Menuetto [05:02]
06. V Romance. Adagio - Alle... [07:03]
07. VI Tema con Variazioni, 1... [10:21]
08. VII Finale. Molto allegro [03:20]

Лог создания рипа

Exact Audio Copy V1.0 beta 1 from 15. November 2010
EAC extraction logfile from 24. December 2012, 0:55
Consortium Classicum / Mozart - the unbelievable Mozart - unknown works (cd7)
Used drive : ATAPI DVD A DH20A4P Adapter: 1 ID: 1
Read mode : SecureUtilize accurate stream : YesDefeat audio cache : YesMake use of C2 pointers : No
Read offset correction : 6Overread into Lead-In and Lead-Out : NoFill up missing offset samples with silence : YesDelete leading and trailing silent blocks : NoNull samples used in CRC calculations : YesUsed interface : Installed external ASPI interface
Used output format : User Defined EncoderSelected bitrate : 1024 kBit/sQuality : HighAdd ID3 tag : NoCommand line compressor : C:\Program Files\Exact Audio Copy\Flac\flac.exeAdditional command line options : -5 -V -T "ARTIST=%a" -T "TITLE=%t" -T "ALBUM=%g" -T "DATE=%y" -T "TRACKNUMBER=%n" -T "GENRE=%m" -T "COMMENT=[oStereo.ru]" %s
TOC of the extracted CD
Track | Start | Length | Start sector | End sector --------------------------------------------------------- 1 | 0:00.00 | 9:48.50 | 0 | 44149 2 | 9:48.50 | 9:19.60 | 44150 | 86134 3 | 19:08.35 | 8:57.70 | 86135 | 126479 4 | 28:06.30 | 6:02.52 | 126480 | 153681 5 | 34:09.07 | 5:02.35 | 153682 | 176366 6 | 39:11.42 | 7:03.33 | 176367 | 208124 7 | 46:15.00 | 10:21.67 | 208125 | 254766 8 | 56:36.67 | 3:20.65 | 254767 | 269831
Range status and errors
Selected range
Filename C:\The Unbelievable Mozart - Consortium Classicum - CD7 - mDG.wav
Peak level 86.3 % Extraction speed 0.1 X Range quality 100.0 % Test CRC 3F676260 Copy CRC 3F676260 Copy OK
No errors occurred
AccurateRip summary
Track 1 accurately ripped (confidence 5) [AD98E6B2]Track 2 accurately ripped (confidence 5) [D9F69938]Track 3 accurately ripped (confidence 5) [CA79C8A8]Track 4 accurately ripped (confidence 5) [B586A193]Track 5 accurately ripped (confidence 5) [1E287927]Track 6 accurately ripped (confidence 5) [75791296]Track 7 accurately ripped (confidence 5) [8055031A]Track 8 accurately ripped (confidence 5) [64BB5E15]
All tracks accurately ripped
End of status report
==== Log checksum C83E2E6E8AEBB2AFD1E455A7E06419AF71E49B9E5600CD7E45BCC0BD4D1EDBF1 ====

Содержание индексной карты (.CUE)

REM GENRE ClassicalREM DATE 2000REM DISCID 710E0D08REM COMMENT "ExactAudioCopy v1.0b1"PERFORMER "Consortium Classicum"TITLE "Mozart - the unbelievable Mozart - unknown works (cd7)"FILE "The Unbelievable Mozart - Consortium Classicum - CD7 - mDG.flac" WAVE TRACK 01 AUDIO TITLE "Adagio in B flat major, KV 484a for 2 clarinets and 3 bassett horns" PERFORMER "Consortium Classicum" INDEX 01 00:00:00 TRACK 02 AUDIO TITLE "Serenade 'Gran Partita' in B flat major, KV 370a - I Largo - Molto allegro" PERFORMER "Consortium Classicum" INDEX 00 09:37:45 INDEX 01 09:48:50 TRACK 03 AUDIO TITLE "Serenade 'Gran Partita' in B flat major, KV 370a - II Menuetto" PERFORMER "Consortium Classicum" INDEX 00 19:06:30 INDEX 01 19:08:35 TRACK 04 AUDIO TITLE "Serenade 'Gran Partita' in B flat major, KV 370a - III Adagio" PERFORMER "Consortium Classicum" INDEX 00 28:03:32 INDEX 01 28:06:30 TRACK 05 AUDIO TITLE "Serenade 'Gran Partita' in B flat major, KV 370a - IV Menuetto" PERFORMER "Consortium Classicum" INDEX 01 34:09:07 TRACK 06 AUDIO TITLE "Serenade 'Gran Partita' in B flat major, KV 370a - V Romance. Adagio - Alle..." PERFORMER "Consortium Classicum" INDEX 00 39:10:20 INDEX 01 39:11:42 TRACK 07 AUDIO TITLE "Serenade 'Gran Partita' in B flat major, KV 370a - VI Tema con Variazioni, 1..." PERFORMER "Consortium Classicum" INDEX 00 46:11:65 INDEX 01 46:15:00 INDEX 02 47:31:02 INDEX 03 48:48:12 INDEX 04 50:06:25 INDEX 05 51:26:27 INDEX 06 52:57:57 INDEX 07 55:46:67 TRACK 08 AUDIO TITLE "Serenade 'Gran Partita' in B flat major, KV 370a - VII Finale. Molto allegro" PERFORMER "Consortium Classicum" INDEX 01 56:36:67
Исполнители:
Consortium Classicum

Доп. информация

"Невероятный Моцарт" - в издании собраны произведения для духовых инструментов в исполнении немецкого камерного оркестра Consortium Classicum. Авторство большинства пьес доподлинно неизвестно, но в основном их приписывают перу Моцарта и именно эта "неизвестность" делает этот сборник уникально интересным абсолютно для всех любителей классической музыки, ведь даже искушенные моцартофилы услышат эту музыку впервые, так как ранее, эти произведения не издавались.
Consortium Classicum — немецкий камерный ансамбль, действующий с 1966 года во главе с кларнетистом Дитером Клёкером и специализирующийся, главным образом, на исполнении музыки XVIII — первой половины XIX веков, то есть эпохи классицизма и романтизма. В состав ансамбля входят исполнители на пяти традиционных ансамблевых духовых инструментах (флейта, гобой, кларнет, фагот и валторна) и двойной состав струнных (две скрипки, два альта, две виолончели и два контрабаса). За годы работы ансамбля он выступил на многих ведущих музыкальных фестивалях, гастролировал по всей Европе, а также в США, Японии, Китае, Австралии, Южной Америке.
[teatrix.ru].t9746.torrent 
Торрент: Зарегистрирован [ 2015-10-23 17:11 ] · CF945A06D0EB265C901CC5BF04201BCA819418FF

Скачать .torrent

Скачать

18 KB

Статус: проверено
Скачан: 0 раз
Размер: 1.49 GB
terms.php



Быстрый ответ

Имя:

      
Для отправки сообщений необходимо включить JavaScript
Показать сообщения:    

Текущее время: 10-Дек 06:05

Часовой пояс: UTC + 3


Вы можете начинать темы
Вы можете отвечать на сообщения
Вы не можете редактировать свои сообщения
Вы не можете удалять свои сообщения
Вы не можете голосовать в опросах
Вы не можете прикреплять файлы к сообщениям
Вы можете скачивать файлы