(Classical,Waltzes) VA - Венский Бал (серия"В Ритме Танца") 3CD - 2011, FLAC (image+.cue) lossless


Статистика раздачи [Обновить пиров]
Размер:  1.01 GB   |    Зарегистрирован:  1 год 1 месяц   |    Скачан:  1 раз

Полного источника не было: 3 месяца 16 дней

Личеров:  2  [  0 KB/s  ]   Подробная статистика пиров
 
   
 
 
 

[Цитировать]

VA - Венский Бал (серия"В Ритме Танца") 3CD
Жанр: Classical,Waltzes
Год издания диска: 2011
Аудиокодек: FLAC
Тип рипа: image+.cue
Битрейт аудио: lossless
Продолжительность: 71:47+68:00+66:40
Источник: собственный рип
Наличие сканов в содержимом раздачи: да
Треклист:

скрытый текст

CD: Various - На Берегу Дуная

скрытый текст

01. By The Beautiful Blue Danube - Franck Pourcel And His Orchestra [0:04:54.71]-Strauss / adapt.Pourcel
02. Voices Of Spring - Franck Pourcel And His Orchestra [0:04:39.55]-Strauss / adapt.Pourcel
03. Vienna Blood - Franck Pourcel And His Orchestra [0:04:00.25]-Strauss / adapt.Pourcel
04. Roses From The South - Franck Pourcel And His Orchestra [0:02:54.05]-Strauss / adapt.Pourcel
05. Gold And Silver Waltz - London Promenade Orchestra [0:05:21.55]-Lehar
06. My Mother Was A Viennese - National Philharmonic Orchestra [0:03:29.65]-Gruber
07. Schenkt Man Sich Rosen In Tirol - National Philharmonic Orchestra [0:03:31.44]-Zeller
08. Vienna Bonbons - Franck Pourcel And His Orchestra [0:03:19.55]-Strauss / adapt.Pourcel
09. Wine,Women And Song - Franck Pourcel And His Orchestra [0:03:57.44]-Strauss / adapt.Pourcel
10. Acceleration Waltz - Franck Pourcel And His Orchestra [0:03:44.01]-Strauss / adapt.Pourcel
11. Artist's Life Waltz - Franck Pourcel And His Orchestra [0:03:37.12] -Strauss / adapt.Pourcel
12. Danube Waves - Philharmonic Symphony of London [0:03:04.03]-Ivanovici
13. Wien Wird Bei Nacht Erst Schon - National Philharmonic Orchestra [0:03:18.51]-Stolz
14. Geben Wir Ins Chambre Separee - Slovak Philharmonic Orchestra [0:03:40.14]-Leon / Waldberg
15. A Thousand And One Night Waltz - Franck Pourcel And His Orchestra [0:03:12.07]-Strauss / adapt.Pourcel
16. Morning Papers - Franck Pourcel And His Orchestra [0:03:04.37]-Strauss / adapt.Pourcel
17. Tales From The Vienna Woods - Franck Pourcel And His Orchestra [0:03:29.64]-Strauss / adapt.Pourcel
18. Treasure Waltz - Franck Pourcel And His Orchestra [0:04:08.02]-Strauss / adapt.Pourcel
19. Emperor Waltz - Franck Pourcel And His Orchestra [0:04:18.61]-Strauss / adapt.Pourcel
CD: Various - Хоровод Влюблённых

скрытый текст

01. Love's Roundalay - Vienna State Opera Orchestra [0:03:05.62]-Straus
02. Florenz Hat Shone Frauen - National Philharmonic orchestra [0:02:50.59]-Suppe
03. Je Te Veux - National Philharmonic orchestra [0:03:46.35]-Satie
04. Le Desir Waltz - National Philharmonic orchestra [0:03:15.38]-Beethoven
05. Once Upon A Dream - Mary Carewe and Michael Dore [0:02:42.18]-Tchaikovsky
06. Liebesleid - Patrice Fontanarosa,violin with Simfonia of London [0:04:09.71]-Kreisler
07. Tres Jolie - National Philharmonic orchestra [0:04:25.04]-Waldteufel
08. La Lettre - Lei Wang,violin with The Mayfair String Orchestra [0:03:05.69]-Offenbach
09. Waltz №7 Op.64 - Andrzej Kaldinski,piano with The Mayfair String Orchestra [0:04:02.01]-Chopin
10. Coppelia Waltz - Sinfonia of London [0:03:28.57]-Delibes
11. Grand Waltz - Philharmonic Symphony of London [0:03:37.19]-Tchaikovsky
12. Espana Waltz - National Philharmonic orchestra [0:05:21.69]-Waldteufel
13. Estudiantina Waltz - National Philharmonic orchestra [0:04:53.35]-Waldteufel
14. Polish Blood - Cavalier - Vaclav Hybs and his Orchestra [0:06:44.25]-Nedbal
15. Valse Brillante - Andrzej Kaldinski,piano with The Mayfair String Orchestra [0:05:37.33]-Chopin
16. Waltz From "Faust" - Philharmonic Symphony of London [0:02:34.70]-Gounod
17. Valse De I'adieu - National Philharmonic orchestra [0:04:18.23]-Chopin
CD: Various - Два Сердца На Три Четверти

скрытый текст

01. Two Hearts In Three-Quartet Time - Philharmonic Symphony Orchestra [0:03:15.53]-Stolz
02. Mein Liebeslied Muss Ein Walzer Sein - Martina Dorak with Eric Becht and his Orchestra [0:03:05.02]-Stolz / Gilbert
03. The Merry Widow Waltzes - The Royal Philharmonic Orchestra [0:05:10.67]-Lehar
04. Einmal Mocht Ich Wieder Tanzen - Melanie Holliday and Volker Beng [0:03:47.18]-Kalman /Brammer / Grumwald
05. Lagoon Waltz - London Promenade Orchestra [0:02:34.70]-Strauss
06. Tanzen Mocht Ich - Herbert Druml and Vera Nentwich [0:03:13.03]-Kalman / Stein / Jenbach
07. Kiss Waltz - Royal Philgarmonic Orchestra [0:03:56.26]-Strauss
08. Waltz Of The Baron And The Gloveseller - London Promenade Orchestra [0:03:12.39]-Offenbach
09. Waltz Of The Red Lady - London Promenade Orchestra [0:02:14.02]-Offenbach
10. Plaisir D'amour - Robert Bentley and his Orchestra [0:03:09.60]-Martin / Florian
11. Elizabethan Serenade - Philharmonic Symphony of London [0:02:52.74]-Binge
12. Waltz №2,From "Jazz Suite" - Russian State Symphony Orchestra [0:03:15.17]-Shostakovich
13. La Ronde - Ken Thorne and his Orchestra [0:02:02.15]-Straus
14. Capriccio Italien Waltz - Kenny King,his trumpet and Orchestra [0:02:25.43]-Tchaikovsky
15. Nabucco - Richard Abel,his piano and Orchestra [0:03:02.61]-Verdi
16. Grande Valse Brillante - Paul Mauriat and his Orchestra [0:05:33.35]-Chopin
17. The Kiss Waltz - London Promenade Orchestra [0:04:39.05]-Arditi
18. The Colonial Dames Waltzes - London Promenade Orchestra [0:03:17.12]-Sousa
19. Waltz Of The Flowers - Franck Pourcel and his Orchestra [0:05:52.34]-Tchaikovsky
Исполнители:
Kenny King,his trumpet and Orchestra,Philharmonic Symphony of London,Franck Pourcel and his Orchestra,Russian State Symphony Orchestra,London Promenade Orchestra...

скрытый текст

№1:

скрытый текст

Exact Audio Copy V0.99 prebeta 4 from 23. January 2008
Отчёт EAC об извлечении, выполненном 18. декабря 2012, 22:18
Various / На Берегу Дуная
Дисковод: ASUS DRW-1814BL Adapter: 1 ID: 0
Режим чтения : Достоверность
Использование точного потока : Да
Отключение кэша аудио : Да
Использование указателей C2 : Нет
Коррекция смещения при чтении : 6
Способность читать области Lead-in и Lead-out : Нет
Заполнение пропущенных сэмплов тишиной : Да
Удаление блоков с тишиной в начале и конце : Нет
При вычислениях CRC использовались нулевые сэмплы : Да
Интерфейс : Установленный внешний ASPI-интерфейс
Выходной формат : Пользовательский кодировщик
Выбранный битрейт : 1024 kBit/s
Качество : Высокий
Добавление ID3-тэга : Нет
Утилита сжатия : C:\Program Files\Exact Audio Copy\FLAC\FLAC.EXE
Дополнительные параметры : -6 -V -T "ARTIST=%a" -T "TITLE=%t" -T "ALBUM=%g" -T "DATE=%y" -T "TRACKNUMBER=%n" -T "GENRE=%m" -T "COMMENT=%e" %s -o %d
TOC извлечённого CD
Трек | Старт | Длительность | Начальный сектор | Конечный сектор
---------------------------------------------------------------------
1 | 0:00.00 | 4:54.71 | 0 | 22120
2 | 4:54.71 | 4:39.55 | 22121 | 43100
3 | 9:34.51 | 4:00.25 | 43101 | 61125
4 | 13:35.01 | 2:54.05 | 61126 | 74180
5 | 16:29.06 | 5:21.55 | 74181 | 98310
6 | 21:50.61 | 3:29.65 | 98311 | 114050
7 | 25:20.51 | 3:31.44 | 114051 | 129919
8 | 28:52.20 | 3:19.55 | 129920 | 144899
9 | 32:12.00 | 3:57.44 | 144900 | 162718
10 | 36:09.44 | 3:44.01 | 162719 | 179519
11 | 39:53.45 | 3:37.12 | 179520 | 195806
12 | 43:30.57 | 3:04.03 | 195807 | 209609
13 | 46:34.60 | 3:18.51 | 209610 | 224510
14 | 49:53.36 | 3:40.14 | 224511 | 241024
15 | 53:33.50 | 3:12.07 | 241025 | 255431
16 | 56:45.57 | 3:04.37 | 255432 | 269268
17 | 59:50.19 | 3:29.64 | 269269 | 285007
18 | 63:20.08 | 4:08.02 | 285008 | 303609
19 | 67:28.10 | 4:18.61 | 303610 | 323020
Характеристики диапазона извлечения и сообщения об ошибках
Выбранный диапазон
Имя файла D:\loSSleSS\венский бал-2011\Various - На Берегу Дуная.wav
Пиковый уровень 99.4 %
Качество диапазона 100.0 %
CRC теста 55C52775
CRC копии 55C52775
Копирование... OK
Ошибок не произошло
AccurateRip: сводка
Трек 1 нет в базе данных
Трек 2 нет в базе данных
Трек 3 нет в базе данных
Трек 4 нет в базе данных
Трек 5 нет в базе данных
Трек 6 нет в базе данных
Трек 7 нет в базе данных
Трек 8 нет в базе данных
Трек 9 нет в базе данных
Трек 10 нет в базе данных
Трек 11 нет в базе данных
Трек 12 нет в базе данных
Трек 13 нет в базе данных
Трек 14 нет в базе данных
Трек 15 нет в базе данных
Трек 16 нет в базе данных
Трек 17 нет в базе данных
Трек 18 нет в базе данных
Трек 19 нет в базе данных
Ни одного трека нет в базе AccurateRip
Конец отчёта
№2:

скрытый текст

Exact Audio Copy V0.99 prebeta 4 from 23. January 2008
Отчёт EAC об извлечении, выполненном 19. декабря 2012, 0:12
Various / Хоровод Влюблённых
Дисковод: ASUS DRW-1814BL Adapter: 1 ID: 0
Режим чтения : Достоверность
Использование точного потока : Да
Отключение кэша аудио : Да
Использование указателей C2 : Нет
Коррекция смещения при чтении : 6
Способность читать области Lead-in и Lead-out : Нет
Заполнение пропущенных сэмплов тишиной : Да
Удаление блоков с тишиной в начале и конце : Нет
При вычислениях CRC использовались нулевые сэмплы : Да
Интерфейс : Установленный внешний ASPI-интерфейс
Выходной формат : Пользовательский кодировщик
Выбранный битрейт : 1024 kBit/s
Качество : Высокий
Добавление ID3-тэга : Нет
Утилита сжатия : C:\Program Files\Exact Audio Copy\FLAC\FLAC.EXE
Дополнительные параметры : -6 -V -T "ARTIST=%a" -T "TITLE=%t" -T "ALBUM=%g" -T "DATE=%y" -T "TRACKNUMBER=%n" -T "GENRE=%m" -T "COMMENT=%e" %s -o %d
TOC извлечённого CD
Трек | Старт | Длительность | Начальный сектор | Конечный сектор
---------------------------------------------------------------------
1 | 0:00.00 | 3:05.62 | 0 | 13936
2 | 3:05.62 | 2:50.59 | 13937 | 26745
3 | 5:56.46 | 3:46.35 | 26746 | 43730
4 | 9:43.06 | 3:15.38 | 43731 | 58393
5 | 12:58.44 | 2:42.18 | 58394 | 70561
6 | 15:40.62 | 4:09.71 | 70562 | 89307
7 | 19:50.58 | 4:25.04 | 89308 | 109186
8 | 24:15.62 | 3:05.69 | 109187 | 123130
9 | 27:21.56 | 4:02.01 | 123131 | 141281
10 | 31:23.57 | 3:28.57 | 141282 | 156938
11 | 34:52.39 | 3:37.19 | 156939 | 173232
12 | 38:29.58 | 5:21.69 | 173233 | 197376
13 | 43:51.52 | 4:53.35 | 197377 | 219386
14 | 48:45.12 | 6:44.25 | 219387 | 249711
15 | 55:29.37 | 5:37.33 | 249712 | 275019
16 | 61:06.70 | 2:34.70 | 275020 | 286639
17 | 63:41.65 | 4:18.23 | 286640 | 306012
Характеристики диапазона извлечения и сообщения об ошибках
Выбранный диапазон
Имя файла D:\loSSleSS\венский бал-2011\Various - Хоровод Влюблённых.wav
Пиковый уровень 99.2 %
Качество диапазона 100.0 %
CRC теста 3FE03156
CRC копии 3FE03156
Копирование... OK
Ошибок не произошло
AccurateRip: сводка
Трек 1 нет в базе данных
Трек 2 нет в базе данных
Трек 3 нет в базе данных
Трек 4 нет в базе данных
Трек 5 нет в базе данных
Трек 6 нет в базе данных
Трек 7 нет в базе данных
Трек 8 нет в базе данных
Трек 9 нет в базе данных
Трек 10 нет в базе данных
Трек 11 нет в базе данных
Трек 12 нет в базе данных
Трек 13 нет в базе данных
Трек 14 нет в базе данных
Трек 15 нет в базе данных
Трек 16 нет в базе данных
Трек 17 нет в базе данных
Ни одного трека нет в базе AccurateRip
Конец отчёта
Exact Audio Copy V0.99 prebeta 4 from 23. January 2008
№3:

скрытый текст

Отчёт EAC об извлечении, выполненном 19. декабря 2012, 2:31
Various / Два Сердца На Три Четверти
Дисковод: ASUS DRW-1814BL Adapter: 1 ID: 0
Режим чтения : Достоверность
Использование точного потока : Да
Отключение кэша аудио : Да
Использование указателей C2 : Нет
Коррекция смещения при чтении : 6
Способность читать области Lead-in и Lead-out : Нет
Заполнение пропущенных сэмплов тишиной : Да
Удаление блоков с тишиной в начале и конце : Нет
При вычислениях CRC использовались нулевые сэмплы : Да
Интерфейс : Установленный внешний ASPI-интерфейс
Выходной формат : Пользовательский кодировщик
Выбранный битрейт : 1024 kBit/s
Качество : Высокий
Добавление ID3-тэга : Нет
Утилита сжатия : C:\Program Files\Exact Audio Copy\FLAC\FLAC.EXE
Дополнительные параметры : -6 -V -T "ARTIST=%a" -T "TITLE=%t" -T "ALBUM=%g" -T "DATE=%y" -T "TRACKNUMBER=%n" -T "GENRE=%m" -T "COMMENT=%e" %s -o %d
TOC извлечённого CD
Трек | Старт | Длительность | Начальный сектор | Конечный сектор
---------------------------------------------------------------------
1 | 0:00.00 | 3:15.53 | 0 | 14677
2 | 3:15.53 | 3:05.02 | 14678 | 28554
3 | 6:20.55 | 5:10.67 | 28555 | 51871
4 | 11:31.47 | 3:47.18 | 51872 | 68914
5 | 15:18.65 | 2:34.70 | 68915 | 80534
6 | 17:53.60 | 3:13.03 | 80535 | 95012
7 | 21:06.63 | 3:56.26 | 95013 | 112738
8 | 25:03.14 | 3:12.39 | 112739 | 127177
9 | 28:15.53 | 2:14.02 | 127178 | 137229
10 | 30:29.55 | 3:09.60 | 137230 | 151464
11 | 33:39.40 | 2:52.74 | 151465 | 164438
12 | 36:32.39 | 3:15.17 | 164439 | 179080
13 | 39:47.56 | 2:02.15 | 179081 | 188245
14 | 41:49.71 | 2:25.43 | 188246 | 199163
15 | 44:15.39 | 3:02.61 | 199164 | 212874
16 | 47:18.25 | 5:33.35 | 212875 | 237884
17 | 52:51.60 | 4:39.05 | 237885 | 258814
18 | 57:30.65 | 3:17.12 | 258815 | 273601
19 | 60:48.02 | 5:52.34 | 273602 | 300035
Характеристики диапазона извлечения и сообщения об ошибках
Выбранный диапазон
Имя файла D:\loSSleSS\венский бал-2011\Various - Два Сердца На Три Четверти.wav
Пиковый уровень 97.1 %
Качество диапазона 100.0 %
CRC теста 78617BE7
CRC копии 78617BE7
Копирование... OK
Ошибок не произошло
AccurateRip: сводка
Трек 1 нет в базе данных
Трек 2 нет в базе данных
Трек 3 нет в базе данных
Трек 4 нет в базе данных
Трек 5 нет в базе данных
Трек 6 нет в базе данных
Трек 7 нет в базе данных
Трек 8 нет в базе данных
Трек 9 нет в базе данных
Трек 10 нет в базе данных
Трек 11 нет в базе данных
Трек 12 нет в базе данных
Трек 13 нет в базе данных
Трек 14 нет в базе данных
Трек 15 нет в базе данных
Трек 16 нет в базе данных
Трек 17 нет в базе данных
Трек 18 нет в базе данных
Трек 19 нет в базе данных
Ни одного трека нет в базе AccurateRip
Конец отчёта
Доп. информация: Каждый год всемирно известный Венский новогодний бал отдаёт дань уважения вальсу - главному предмету экспорта Австрии.Сегодня Вы получаете возможность перенестись в чудесный мир фантазии и изящества в любой миг,когда пожелаете...Вальс - самый романтический музыкальный жанр...волшебное приключение в мире,где мерцают огоньки свечей,в бокалах искрится шампанское,а на сияющем паркете кружатся в танце прекрасные пары.
[teatrix.ru].t9747.torrent 
Торрент: Зарегистрирован [ 2015-10-23 17:11 ] · 9D38F4B9F151A36308744D033FC0D37D72908934

Скачать .torrent

Скачать

12 KB

Статус: проверено
Скачан: 1 раз
Размер: 1.01 GB
terms.php



Быстрый ответ

Имя:

      
Для отправки сообщений необходимо включить JavaScript
Показать сообщения:    

Текущее время: 09-Дек 12:47

Часовой пояс: UTC + 3


Вы можете начинать темы
Вы можете отвечать на сообщения
Вы не можете редактировать свои сообщения
Вы не можете удалять свои сообщения
Вы не можете голосовать в опросах
Вы не можете прикреплять файлы к сообщениям
Вы можете скачивать файлы