(Classical) Naxos 25th Anniversary. The Great Classics. Box #9 - Great Sacred Masterpieces - 2012, FLAC (image+.cue) lossless


Статистика раздачи [Обновить пиров]
Размер:  3.16 GB   |    Зарегистрирован:  1 год 1 месяц   |    Скачан:  1 раз

Полного источника не было: 7 месяцев 8 дней

Личеров:  2  [  0 KB/s  ]   Подробная статистика пиров
 
   
 
 
 

[Цитировать]

Naxos 25th Anniversary. The Great Classics. Box #9 - Great Sacred Masterpieces
Жанр: Classical
Страна-производитель диска: Austria
Год издания диска: 2012
Издатель (лейбл): Naxos Records
Номер по каталогу: 8.501062
Аудиокодек: FLAC
Тип рипа: image+.cue
Битрейт аудио: lossless
Продолжительность: 11:39:26
Источник: скачано с
Наличие сканов в содержимом раздачи: да
Music has always had an important part to play in religious ritual. Records show that plainchant existed from as early as 3 AD, and centuries later it was to provide a foundation for early polyphony and for the great flowering of church music in the Renaissance, including the transcendent works of Tallis and Allegri.
JS Bach wrote most of his music for the Lutheran church, including the magnificent Mass in B Minor and the two Passions. Handel also contributed to religious music in England, with the creation of oratorios such as Messiah which, when witnessed by Haydn years later, inspired him to write The Creation. In the nineteenth century the form flowered again with Felix Mendelssohn, himself responsible for bringing many sacred works by JS Bach back to musical prominence. He completed Elijah in 1846; a work that, although modeled on the Handelian oratorio, clearly reflected in its lyricism and use of orchestral and choral colour Mendelssohn’s own genius as an early-Romantic composer. Particular attention has been given over the years to settings of the Requiem Mass. This collection includes three versions—from contemplative Mozart, to awesome Verdi, and sublime Fauré. Without doubt, in the years to come, religion will continue to be the driving inspirational force behind many a composition.

Amazon / CD Description

The Great Classics series from Naxos is the perfect introduction to myriad genres of classical music. Comprising both complete and compiled selections from the greatest works in the repertoire, the boxes are bursting with wonderful pieces of music, both recognizable and unfamiliar. The boxes take the listener on a thrilling tour of some of the worlds most dramatic musical media, encompassing music from six centuries and featuring sensational performers. All boxes come with a fascinating booklet with detailed information on the genre itself, chronological placement of each work, and a comprehensive study of the music. A fitting celebration of 25 years of superb music from Naxos, the worlds favourite classical label.

-
BOX SET:

CD01 Favourite Sacred Masterpieces

includes Tallis Spem in alium, Allegri Miserere, Pergolesi Stabat Mater
Исполнители:Thomas Tallis (c. 1505-1585)Bible - Old Testament, lyricist(s)Spem in aliumOxford Camerata / Conductor Jeremy SummerlyPlace of Recording: All Hallows, Gospel Oak, London, UK / Date of Recording: 21-23 January 2005--------Gregorio Allegri (1582-1652)Il salmo Miserere mei DeusOxford Camerata / Conductor Jeremy Summerly--------Giovanni Battista Pergolesi (1710-1736)Pope Innocents III / Jacopone da Todi, lyricist(s)Stabat MaterJulia Faulkner - soprano • Anna Gonda - alto • Camerata Budapest / Conductor Michael HalaszPlace of Recording: Festetich Castle, Budapest / Date of Recording: September 1994--------Wolfgang Amadeus Mozart (1756-1791)Ave verum corpus, K. 618Kosice Teachers' Choir • Camerata Cassovia / Conductor Johannes Wildner--------Johann Sebastian Bach (1685-1750) • arr. Charles Gounod (1818-1893)Ave MariaIngrid Kertesi - soprano • Camerata Budapest / Conductor Laszlo Kovacs--------César Franck (1822-1890)Panis angelicusJozsef Mukk - tenor • Hungarian State Opera ChorusCamerata Budapest / Conductor Laszlo Kovacs
Треклист:1. Spem in alium 00:12:192. Il salmo Miserere mei Deus 00:10:173. Stabat Mater 00:03:294. Cujus animam 00:02:155. O quam tristis 00:02:076. Quae moerebat 00:02:077. Quis est homo 00:02:418. Vidit suum 00:03:559. Eja mater 00:02:2010. Fac, ut ardeat 00:02:1411. Sancta Mater 00:05:0112. Fac ut portem 00:03:1213. Inflammatus 00:02:2414. Quando corpus 00:03:4715. Ave verum corpus, K. 618 00:02:5116. Ave Maria (version for voice and orchestra) 00:02:4217. Panis angelicus 00:04:01

ЕАС Log

Exact Audio Copy V1.0 beta 3 from 29. August 2011
EAC extraction logfile from 23. June 2012, 20:33
Favourite Sacred Masterpieces / Great Sacred Masterpieces CD1
Used drive : HL-DT-STDVDRAM GSA-H60N Adapter: 2 ID: 0
Read mode : Secure
Utilize accurate stream : Yes
Defeat audio cache : Yes
Make use of C2 pointers : No
Read offset correction : 667
Overread into Lead-In and Lead-Out : No
Fill up missing offset samples with silence : Yes
Delete leading and trailing silent blocks : No
Null samples used in CRC calculations : Yes
Used interface : Native Win32 interface for Win NT & 2000
Used output format : Internal WAV Routines
Sample format : 44.100 Hz; 16 Bit; Stereo
TOC of the extracted CD
Track | Start | Length | Start sector | End sector
---------------------------------------------------------
1 | 0:00.00 | 12:19.36 | 0 | 55460
2 | 12:19.36 | 10:17.24 | 55461 | 101759
3 | 22:36.60 | 3:28.45 | 101760 | 117404
4 | 26:05.30 | 2:14.56 | 117405 | 127510
5 | 28:20.11 | 2:06.42 | 127511 | 137002
6 | 30:26.53 | 2:07.22 | 137003 | 146549
7 | 32:34.00 | 2:41.14 | 146550 | 158638
8 | 35:15.14 | 3:55.11 | 158639 | 176274
9 | 39:10.25 | 2:20.32 | 176275 | 186806
10 | 41:30.57 | 2:14.36 | 186807 | 196892
11 | 43:45.18 | 5:00.42 | 196893 | 219434
12 | 48:45.60 | 3:11.40 | 219435 | 233799
13 | 51:57.25 | 2:23.40 | 233800 | 244564
14 | 54:20.65 | 3:46.48 | 244565 | 261562
15 | 58:07.38 | 2:51.19 | 261563 | 274406
16 | 60:58.57 | 2:42.04 | 274407 | 286560
17 | 63:40.61 | 4:01.14 | 286561 | 304649
Range status and errors
Selected range
Filename C:\Documents and Settings\Admin\Рабочий стол\Lossless Galaxy Rip by ALLexxess\Naxos Records 25 Years\2012 Great Sacred Masterpieces (10CD Box Set Naxos Records)\CD01 Favourite Sacred Masterpieces\Sacred Masterpieces CD1.wav
Peak level 100.0 %
Extraction speed 5.4 X
Range quality 99.9 %
Test CRC 510E4217
Copy CRC 510E4217
Copy OK
No errors occurred
AccurateRip summary
Track 1 not present in database
Track 2 not present in database
Track 3 not present in database
Track 4 not present in database
Track 5 not present in database
Track 6 not present in database
Track 7 not present in database
Track 8 not present in database
Track 9 not present in database
Track 10 not present in database
Track 11 not present in database
Track 12 not present in database
Track 13 not present in database
Track 14 not present in database
Track 15 not present in database
Track 16 not present in database
Track 17 not present in database
None of the tracks are present in the AccurateRip database
End of status report
==== Log checksum DFC467FF7B2A26D46AAFBD94E39FDA872601A972362B82574A3DBCC2A13F9DD0 ====

CD02 J.S. Bach: Mass in B Minor (Highlights)


Исполнители:Johann Sebastian Bach (1685-1750)Mass Text, lyricist(s)Mass in B minor, BWV 232 (excerpts)Sunhae Im - soprano • Marianne Beate Kielland - mezzo-sopranoAnn Hallenberg - mezzo-soprano • Markus Schafer - tenor • Hanno Muller-Brachmann - bass-baritoneDresden Chamber Choir • Cologne Chamber Orchestra / Conductor Helmut Muller-Bruhl
Треклист:1. Kyrie: Kyrie eleison (Chorus) 00:09:542. Kyrie: Christe eleison (Soprano I and II) 00:05:183. Gloria: Gloria in excelsis Deo (Chorus) 00:01:324. Gloria: Et in terra pax (Chorus) 00:03:505. Gloria: Domine Deus, Rex coelestis (Soprano and Tenor) 00:05:486. Gloria: Qui sedes ad dextram Patris (Alto) 00:04:437. Gloria: Cum Sancto Spiritu (Chorus) 00:04:008. Credo: Et in unum Dominum Jesum Christum (Soprano and Alto) 00:05:079. Credo: Crucifixus etiam pro nobis (Chorus) 00:03:3310. Credo: Et resurrexit tertia die (Chorus) 00:03:5811. Credo: Et in Spiritum Sanctum (Bass) 00:04:4712. Credo: Et exspecto resurrectionem mortuorum (Chorus) 00:02:1113. Sanctus: Sanctus Dominus Deus Sabaoth (Chorus) 00:04:4814. Benedictus: Benedictus qui venit (Tenor) 00:04:3015. Benedictus: Osanna in excelsis (Chorus) 00:02:4516. Agnus Dei: Agnus Dei (Alto) 00:06:0117. Agnus Dei: Dona nobis pacem (Chorus) 00:02:39

ЕАС Log

Exact Audio Copy V1.0 beta 3 from 29. August 2011
EAC extraction logfile from 23. June 2012, 22:36
Bach: Mass in B minor, BWV 232 (excerpts) / Great Sacred Masterpieces CD2
Used drive : HL-DT-STDVDRAM GSA-H60N Adapter: 2 ID: 0
Read mode : Secure
Utilize accurate stream : Yes
Defeat audio cache : Yes
Make use of C2 pointers : No
Read offset correction : 667
Overread into Lead-In and Lead-Out : No
Fill up missing offset samples with silence : Yes
Delete leading and trailing silent blocks : No
Null samples used in CRC calculations : Yes
Used interface : Native Win32 interface for Win NT & 2000
Used output format : Internal WAV Routines
Sample format : 44.100 Hz; 16 Bit; Stereo
TOC of the extracted CD
Track | Start | Length | Start sector | End sector
---------------------------------------------------------
1 | 0:00.00 | 9:53.54 | 0 | 44528
2 | 9:53.54 | 5:17.59 | 44529 | 68362
3 | 15:11.38 | 1:31.71 | 68363 | 75258
4 | 16:43.34 | 3:49.74 | 75259 | 92507
5 | 20:33.33 | 5:47.63 | 92508 | 118595
6 | 26:21.21 | 4:43.09 | 118596 | 139829
7 | 31:04.30 | 3:59.71 | 139830 | 157825
8 | 35:04.26 | 5:07.16 | 157826 | 180866
9 | 40:11.42 | 3:32.38 | 180867 | 196804
10 | 43:44.05 | 3:58.22 | 196805 | 214676
11 | 47:42.27 | 4:47.16 | 214677 | 236217
12 | 52:29.43 | 2:11.10 | 236218 | 246052
13 | 54:40.53 | 4:47.46 | 246053 | 267623
14 | 59:28.24 | 4:30.17 | 267624 | 287890
15 | 63:58.41 | 2:44.45 | 287891 | 300235
16 | 66:43.11 | 6:00.61 | 300236 | 327296
17 | 72:43.72 | 2:39.03 | 327297 | 339224
Range status and errors
Selected range
Filename C:\Documents and Settings\Admin\Рабочий стол\Lossless Galaxy Rip by ALLexxess\Naxos Records 25 Years\2012 Great Sacred Masterpieces (10CD Box Set Naxos Records)\CD02 Bach\Sacred Masterpieces CD2.wav
Peak level 84.0 %
Extraction speed 6.2 X
Range quality 100.0 %
Test CRC 6DE37CF5
Copy CRC 6DE37CF5
Copy OK
No errors occurred
AccurateRip summary
Track 1 not present in database
Track 2 not present in database
Track 3 not present in database
Track 4 not present in database
Track 5 not present in database
Track 6 not present in database
Track 7 not present in database
Track 8 not present in database
Track 9 not present in database
Track 10 not present in database
Track 11 not present in database
Track 12 not present in database
Track 13 not present in database
Track 14 not present in database
Track 15 not present in database
Track 16 not present in database
Track 17 not present in database
None of the tracks are present in the AccurateRip database
End of status report
==== Log checksum 410B90D09BFEED309159B6417C22A3F849983EC6F7F2B7EC211B3C835E92FA7D ====

CD03 J.S. Bach: St. Matthew Passion (Highlights)


Исполнители:Johann Sebastian Bach (1685-1750)Bible - New Testament / Christian Friedrich Henrici, lyricist(s)St. Matthew Passion, BWV 244 (excerpts)Peter Koves - bass • Jozsef Mukk - tenor • Judit Nemeth - alto • Ibolya Verebics - sopranoAgnes Mester - choirmaster • Janos Remenyi - choirmasterHungarian Radio Children's Choir • Hungarian Festival ChoirHungarian State Symphony Orchestra / Conductor Geza Oberfrank
Треклист:1. Part I: Kommt, ihr Tochter, helft mir klagen (Chorus) 00:07:402. Part I: Aria: Buss und Reu Knirscht das Sundenherz entzwei (Alto) 00:04:213. Part I: Aria: Blute nur, du liebes Herz! (Soprano) 00:04:544. Part I: Aria: Ich will dir mein Herze schenken (Soprano) 00:03:455. Part I: Aria: Ich will bei meinem Jesu wachen (Tenor, Chorus) 00:05:326. Part I: Aria: Gerne will ich mich bequemen (Bass) 00:04:357. Part I: Aria: So ist mein Jesus nun gefangen (Alto, Soprano, Chorus) 00:03:568. Part II: Aria: Ach! Nun ist mein Jesus hin! (Alto, Chorus) 00:06:129. Part II: Aria: Erbarme dich, mein Gott, um meiner Zahren willen! (Alto) 00:07:1310. Part II: Aria: Gebt mir meinen Jesum wieder! (Bass) 00:03:3811. Part II: Aria: Konnen Tranen meiner Wangen (Alto) 00:06:3612. Choral: O Haupt voll Blut und Wunden (Chorus) 00:02:3213. Part II: Aria: Mache dich, mein Herze, rein (Bass) 00:07:5214. Part II: Wir setzen uns mit Tranen nieder (Chorus) 00:06:28

ЕАС Log

Exact Audio Copy V1.0 beta 3 from 29. August 2011
EAC extraction logfile from 24. June 2012, 11:36
Bach: St. Matthew Passion, BWV 244 (excerpts) / Great Sacred Masterpieces CD3
Used drive : HL-DT-STDVDRAM GSA-H60N Adapter: 2 ID: 0
Read mode : Secure
Utilize accurate stream : Yes
Defeat audio cache : Yes
Make use of C2 pointers : No
Read offset correction : 667
Overread into Lead-In and Lead-Out : No
Fill up missing offset samples with silence : Yes
Delete leading and trailing silent blocks : No
Null samples used in CRC calculations : Yes
Used interface : Native Win32 interface for Win NT & 2000
Used output format : Internal WAV Routines
Sample format : 44.100 Hz; 16 Bit; Stereo
TOC of the extracted CD
Track | Start | Length | Start sector | End sector
---------------------------------------------------------
1 | 0:00.00 | 7:40.25 | 0 | 34524
2 | 7:40.25 | 4:21.00 | 34525 | 54099
3 | 12:01.25 | 4:54.00 | 54100 | 76149
4 | 16:55.25 | 3:45.00 | 76150 | 93024
5 | 20:40.25 | 5:32.00 | 93025 | 117924
6 | 26:12.25 | 4:35.00 | 117925 | 138549
7 | 30:47.25 | 3:56.00 | 138550 | 156249
8 | 34:43.25 | 6:12.00 | 156250 | 184149
9 | 40:55.25 | 7:13.00 | 184150 | 216624
10 | 48:08.25 | 3:38.00 | 216625 | 232974
11 | 51:46.25 | 6:36.00 | 232975 | 262674
12 | 58:22.25 | 2:32.00 | 262675 | 274074
13 | 60:54.25 | 7:52.00 | 274075 | 309474
14 | 68:46.25 | 6:28.07 | 309475 | 338581
Range status and errors
Selected range
Filename C:\Documents and Settings\Admin\Рабочий стол\Lossless Galaxy Rip by ALLexxess\Naxos Records 25 Years\2012 Great Sacred Masterpieces (10CD Box Set Naxos Records)\CD03 Bach\Sacred Masterpieces CD3.wav
Peak level 91.1 %
Extraction speed 6.4 X
Range quality 100.0 %
Test CRC 5A2B52BB
Copy CRC 5A2B52BB
Copy OK
No errors occurred
AccurateRip summary
Track 1 cannot be verified as accurate (confidence 4) [217A389A], AccurateRip returned [E56F5D84] (AR v2)
Track 2 cannot be verified as accurate (confidence 4) [03FD8643], AccurateRip returned [E2B96A01] (AR v2)
Track 3 cannot be verified as accurate (confidence 4) [BAE3F8DC], AccurateRip returned [36B38075] (AR v2)
Track 4 cannot be verified as accurate (confidence 4) [1BF24C7D], AccurateRip returned [CD162EE8] (AR v2)
Track 5 cannot be verified as accurate (confidence 4) [B3B30A0B], AccurateRip returned [F2C665A6] (AR v2)
Track 6 cannot be verified as accurate (confidence 4) [D266AA97], AccurateRip returned [5D66F5DC] (AR v2)
Track 7 cannot be verified as accurate (confidence 4) [25C57D9E], AccurateRip returned [0A247CF2] (AR v2)
Track 8 cannot be verified as accurate (confidence 4) [5E9A1441], AccurateRip returned [1D810C2D] (AR v2)
Track 9 cannot be verified as accurate (confidence 4) [5DA3315D], AccurateRip returned [881508B7] (AR v2)
Track 10 cannot be verified as accurate (confidence 4) [6602EA64], AccurateRip returned [2D570D4D] (AR v2)
Track 11 cannot be verified as accurate (confidence 3) [9F914B9F], AccurateRip returned [0655857E] (AR v2)
Track 12 cannot be verified as accurate (confidence 3) [2B76538C], AccurateRip returned [626E0C13] (AR v2)
Track 13 cannot be verified as accurate (confidence 3) [4FF57B7D], AccurateRip returned [7634C370] (AR v2)
Track 14 cannot be verified as accurate (confidence 3) [32CC9240], AccurateRip returned [90894543] (AR v2)
No tracks could be verified as accurate
You may have a different pressing from the one(s) in the database
End of status report
==== Log checksum 66E8F78D7C84225BF255AEAC1A6A4A2D87F79C5D5D759C04D811A5B24EEFED7D ====

CD04 Handel: Messiah (Highlights)


Исполнители:George Frederic Handel (1685-1759)Bible - New Testament, lyricist(s)Messiah, HWV 56 (Highlights)Scholars of London / Scholars Baroque Ensemble
Треклист:1. Part I: Sinfonia 00:03:102. Part I: Recitative: Comfort ye my people (Tenor) 00:06:423. Part I: And the glory of the Lord shall be revealed (Chorus) 00:02:384. Part I: Recitative: Behold, a virgin shall conceive (Alto) 00:05:545. Part I: For unto a child is born (Chorus) 00:04:036. Part I: Pifa 00:00:587. Part I: Aria: Rejoice greatly, O daughter of Zion (Soprano) 00:04:048. Part I: Recitative: Then shall the eyes of the blind be opened (Alto) 00:05:319. Part II: Aria: He was despised and rejected of men (Alto) 00:11:1010. Part II: Aria: How beautiful are the feet of them (Soprano) 00:03:2211. Part II: Aria: Why do the nations so furiosly rage together (Bass) 00:03:1212. Part II: Hallelujah! (Chorus) 00:03:4313. Part III: Aria: I know that my Redeemer liveth (Soprano) 00:06:0714. Part III: Recitative: Behold, I tell you a mystery (Bass) 00:09:3615. Part III: Worthy is the Lamb that was slain (Chorus) 00:07:18

ЕАС Log

Exact Audio Copy V1.0 beta 3 from 29. August 2011
EAC extraction logfile from 24. June 2012, 15:37
Handel: Messiah, HWV 56 (Highlights) / Great Sacred Masterpieces CD4
Used drive : HL-DT-STDVDRAM GSA-H60N Adapter: 2 ID: 0
Read mode : Secure
Utilize accurate stream : Yes
Defeat audio cache : Yes
Make use of C2 pointers : No
Read offset correction : 667
Overread into Lead-In and Lead-Out : No
Fill up missing offset samples with silence : Yes
Delete leading and trailing silent blocks : No
Null samples used in CRC calculations : Yes
Used interface : Native Win32 interface for Win NT & 2000
Used output format : Internal WAV Routines
Sample format : 44.100 Hz; 16 Bit; Stereo
TOC of the extracted CD
Track | Start | Length | Start sector | End sector
---------------------------------------------------------
1 | 0:00.00 | 3:10.62 | 0 | 14311
2 | 3:10.62 | 6:42.13 | 14312 | 44474
3 | 9:53.00 | 2:44.25 | 44475 | 56799
4 | 12:37.25 | 6:00.00 | 56800 | 83799
5 | 18:37.25 | 4:03.10 | 83800 | 102034
6 | 22:40.35 | 1:02.65 | 102035 | 106749
7 | 23:43.25 | 4:04.20 | 106750 | 125069
8 | 27:47.45 | 5:36.55 | 125070 | 150324
9 | 33:24.25 | 11:16.00 | 150325 | 201024
10 | 44:40.25 | 3:22.10 | 201025 | 216184
11 | 48:02.35 | 3:15.65 | 216185 | 230874
12 | 51:18.25 | 3:43.32 | 230875 | 247631
13 | 55:01.57 | 6:12.43 | 247632 | 275574
14 | 61:14.25 | 9:42.00 | 275575 | 319224
15 | 70:56.25 | 7:19.12 | 319225 | 352161
Range status and errors
Selected range
Filename C:\Documents and Settings\Admin\Рабочий стол\Lossless Galaxy Rip by ALLexxess\Naxos Records 25 Years\2012 Great Sacred Masterpieces (10CD Box Set Naxos Records)\CD04 Handel\Sacred Masterpieces CD4.wav
Peak level 95.0 %
Extraction speed 6.4 X
Range quality 99.9 %
Test CRC C5487862
Copy CRC C5487862
Copy OK
No errors occurred
AccurateRip summary
Track 1 cannot be verified as accurate (confidence 4) [1E5270E4], AccurateRip returned [7536E7E1] (AR v2)
Track 2 cannot be verified as accurate (confidence 4) [19E296DF], AccurateRip returned [EE064969] (AR v2)
Track 3 cannot be verified as accurate (confidence 4) [8034FACF], AccurateRip returned [9A2A3C6E] (AR v2)
Track 4 cannot be verified as accurate (confidence 4) [9B765B68], AccurateRip returned [D8D1620F] (AR v2)
Track 5 cannot be verified as accurate (confidence 4) [959D2D28], AccurateRip returned [655722EE] (AR v2)
Track 6 cannot be verified as accurate (confidence 4) [3190E351], AccurateRip returned [5172B3F9] (AR v2)
Track 7 cannot be verified as accurate (confidence 4) [CDD213B1], AccurateRip returned [B9DC0E4E] (AR v2)
Track 8 cannot be verified as accurate (confidence 4) [EE79D70A], AccurateRip returned [B00125C1] (AR v2)
Track 9 cannot be verified as accurate (confidence 4) [88596881], AccurateRip returned [0A542116] (AR v2)
Track 10 cannot be verified as accurate (confidence 4) [D4DA965D], AccurateRip returned [B6AC27C2] (AR v2)
Track 11 cannot be verified as accurate (confidence 4) [EA45EF80], AccurateRip returned [11863F03] (AR v2)
Track 12 cannot be verified as accurate (confidence 4) [73A3A403], AccurateRip returned [87096F1C] (AR v2)
Track 13 cannot be verified as accurate (confidence 3) [17D9D326], AccurateRip returned [7FF7728E] (AR v2)
Track 14 cannot be verified as accurate (confidence 3) [F8883BE3], AccurateRip returned [2C79747E] (AR v2)
Track 15 cannot be verified as accurate (confidence 3) [AC0C2EDC], AccurateRip returned [7A23E79C] (AR v2)
No tracks could be verified as accurate
You may have a different pressing from the one(s) in the database
End of status report
==== Log checksum 2548C2B9BDAB68704B8D917DEEB2B933574101BCF125ECB44ADCF69FB65842C2 ====

CD05 Haydn: The Creation (Highlights)


Исполнители:Joseph Haydn (1732-1809)Bible - Old Testament, lyricist(s)Die Schopfung (The Creation), Hob. XXI:2 (excerpts)Sunhae Im - soprano • Jan Kobow - tenor • Hanno Muller-Brachmann - bassCologne Vocal Ensemble • Capella Augustina / Conductor Andreas Spering
Треклист:1. Part I: Die Vorstellung des Chaos (The Representation of Chaos) 00:06:332. Part I: Nun schwanden vor dem heiligen Strahle (Now vanish before the holy beams) (Uriel, Chorus) 00:03:393. Part I: Und Gott sprach: Es sammle sich das Wasser (And God said: Let the waters under the heaven) (Raphael) 00:00:434. Part I: Rollend in schaumenden Wellen (Rolling in foaming billows) (Raphael) 00:01:585. Part I: Und Gott sprach: Es bringe die Erde Gras hervor (And God said: Let all the earth bring forth grass) (Gabriel) 00:00:336. Part I: Nun beut dir Flur das frische Grun (With verdure clad the fields appear) (Gabriel) 00:05:057. Part I: Die Himmel erzahlen die Ehre Gottes (The heavens are telling the glory of God) (Gabriel, Uriel, Raphael, Chorus) 00:03:348. Part II: Und Gott sprach: Es bringe das Wasser in der Fulle hervor (And God said: Let the waters bring forth abundantly) (Gabriel) 00:00:259. Part II: Auf starkem Fittiche schwinget sich der Adler stolz (On mighty pens uplifted soars the eagle aloft) (Gabriel) 00:07:2710. Part II: Und die Engel ruhrten ihre unsterblichen Harfen (And the angels struck their immortal harps) (Raphael) 00:00:2511. Part II: In holder Anmut stehn (Most beautiful appear) (Trio) 00:04:2912. Part II: Und Gott sprach: Es bringe die Erde hervor lebende Geschopfe (And God said: Let the earth bring forth the living creature) (Raphael) 00:00:2613. Part II: Nun scheint in vollem Glanze der Himmel (Now heav'n in fullest glory shone) (Raphael) 00:03:2114. Part II: Mit Wurd' und Hoheit angetan (In native worth and honour clad) (Uriel) 00:03:2815. Part II: Und Gott sah jedes Ding, was er gemacht hatte (And God saw ev'rything that he had made) (Raphael) 00:00:2516. Part II: Vollendet ist das grosse Werk (Chorus) 00:02:4017. Part III: Von deiner Gut', o Herr und Gott (By thee with bliss, O bounteous Lord) (Eve and Adam, Chorus) 00:09:4118. Part III: Nun ist die erste Pflicht erfullt (Our duty we performed now) (Adam and Eve) 00:02:4719. Part III: Holde Gattin! (Graceful consort!) (Adam and Eve) 00:07:3920. Part III: O glucklich Paar (O happy pair) (Uriel) 00:00:2621. Part III: Singt dem Herren alle Stimmen (Sing the Lord, ye voices all!) (Chorus) 00:03:27

ЕАС Log

Exact Audio Copy V1.0 beta 3 from 29. August 2011
EAC extraction logfile from 24. June 2012, 20:16
Haydn: Die Schopfung (The Creation), Hob. XXI:2 (excerpts) / Great Sacred Masterpieces CD5
Used drive : HL-DT-STDVDRAM GSA-H60N Adapter: 2 ID: 0
Read mode : Secure
Utilize accurate stream : Yes
Defeat audio cache : Yes
Make use of C2 pointers : No
Read offset correction : 667
Overread into Lead-In and Lead-Out : No
Fill up missing offset samples with silence : Yes
Delete leading and trailing silent blocks : No
Null samples used in CRC calculations : Yes
Used interface : Native Win32 interface for Win NT & 2000
Used output format : Internal WAV Routines
Sample format : 44.100 Hz; 16 Bit; Stereo
TOC of the extracted CD
Track | Start | Length | Start sector | End sector
---------------------------------------------------------
1 | 0:00.00 | 6:33.15 | 0 | 29489
2 | 6:33.15 | 3:38.65 | 29490 | 45904
3 | 10:12.05 | 0:42.43 | 45905 | 49097
4 | 10:54.48 | 1:58.30 | 49098 | 57977
5 | 12:53.03 | 0:33.23 | 57978 | 60475
6 | 13:26.26 | 5:05.19 | 60476 | 83369
7 | 18:31.45 | 3:43.70 | 83370 | 100164
8 | 22:15.40 | 0:25.35 | 100165 | 102074
9 | 22:41.00 | 7:26.43 | 102075 | 135567
10 | 30:07.43 | 0:25.15 | 135568 | 137457
11 | 30:32.58 | 4:29.10 | 137458 | 157642
12 | 35:01.68 | 0:25.68 | 157643 | 159585
13 | 35:27.61 | 3:21.36 | 159586 | 174696
14 | 38:49.22 | 3:27.68 | 174697 | 190289
15 | 42:17.15 | 0:24.58 | 190290 | 192147
16 | 42:41.73 | 2:40.16 | 192148 | 204163
17 | 45:22.14 | 9:40.64 | 204164 | 247727
18 | 55:03.03 | 2:46.55 | 247728 | 260232
19 | 57:49.58 | 7:39.19 | 260233 | 294676
20 | 65:29.02 | 0:25.67 | 294677 | 296618
21 | 65:54.69 | 3:27.06 | 296619 | 312149
Range status and errors
Selected range
Filename C:\Documents and Settings\Admin\Рабочий стол\Lossless Galaxy Rip by ALLexxess\Naxos Records 25 Years\2012 Great Sacred Masterpieces (10CD Box Set Naxos Records)\CD05 Haydn\Sacred Masterpieces CD5.wav
Peak level 95.7 %
Extraction speed 5.7 X
Range quality 99.9 %
Test CRC 939D71AD
Copy CRC 939D71AD
Copy OK
No errors occurred
AccurateRip summary
Track 1 not present in database
Track 2 not present in database
Track 3 not present in database
Track 4 not present in database
Track 5 not present in database
Track 6 not present in database
Track 7 not present in database
Track 8 not present in database
Track 9 not present in database
Track 10 not present in database
Track 11 not present in database
Track 12 not present in database
Track 13 not present in database
Track 14 not present in database
Track 15 not present in database
Track 16 not present in database
Track 17 not present in database
Track 18 not present in database
Track 19 not present in database
Track 20 not present in database
Track 21 not present in database
None of the tracks are present in the AccurateRip database
End of status report
==== Log checksum ABE7474D030D3B1F3620E1E05CDE8D4FFFEDFBF2FD3F235C6B56CDDFDA2071DA ====

CD06 Mozart: Requiem


Исполнители:Wolfgang Amadeus Mozart (1756-1791)Mass Text, lyricist(s)Requiem in D minor, K. 626Magdalena Hajossyova - soprano • Jaroslava Horska - contralto • Jozef Kundlak - tenor • Peter Mikulas - bassSlovak Philharmonic Chorus • Vladimir Ruso - organ • Slovak Philharmonic Orchestra / Conductor Zdenek Kosler
Треклист:1. Introit: Requiem aeternam 00:05:022. Kyrie eleison 00:02:443. Sequence No. 1: Dies irae 00:01:464. Sequence No. 2: Tuba mirum 00:04:175. Sequence No. 3: Rex tremendae majestatis 00:02:206. Sequence No. 4: Recordare, Jesu pie 00:06:277. Sequence No. 5: Confutatis maledictis 00:03:078. Sequence No. 6: Lacrimosa dies illa 00:03:209. Offertory No. 1: Domine Jesu Christe 00:03:3410. Offertory No. 2: Hostias et preces 00:04:3911. Sanctus 00:01:3812. Benedictus 00:05:3613. Agnus Dei 00:03:4614. Communion: Lux aeterna 00:05:48

ЕАС Log

Exact Audio Copy V1.0 beta 3 from 29. August 2011
EAC extraction logfile from 24. June 2012, 20:57
Mozart: Requiem in D minor, K. 626 / Great Sacred Masterpieces CD6
Used drive : HL-DT-STDVDRAM GSA-H60N Adapter: 2 ID: 0
Read mode : Secure
Utilize accurate stream : Yes
Defeat audio cache : Yes
Make use of C2 pointers : No
Read offset correction : 667
Overread into Lead-In and Lead-Out : No
Fill up missing offset samples with silence : Yes
Delete leading and trailing silent blocks : No
Null samples used in CRC calculations : Yes
Used interface : Native Win32 interface for Win NT & 2000
Used output format : Internal WAV Routines
Sample format : 44.100 Hz; 16 Bit; Stereo
TOC of the extracted CD
Track | Start | Length | Start sector | End sector
---------------------------------------------------------
1 | 0:00.00 | 5:02.62 | 0 | 22711
2 | 5:02.62 | 2:44.13 | 22712 | 35024
3 | 7:47.00 | 1:45.67 | 35025 | 42966
4 | 9:32.67 | 4:17.08 | 42967 | 62249
5 | 13:50.00 | 2:19.70 | 62250 | 72744
6 | 16:09.70 | 6:26.70 | 72745 | 101764
7 | 22:36.65 | 3:06.70 | 101765 | 115784
8 | 25:43.60 | 3:19.45 | 115785 | 130754
9 | 29:03.30 | 3:34.10 | 130755 | 146814
10 | 32:37.40 | 4:39.10 | 146815 | 167749
11 | 37:16.50 | 1:38.10 | 167750 | 175109
12 | 38:54.60 | 5:36.42 | 175110 | 200351
13 | 44:31.27 | 3:45.68 | 200352 | 217294
14 | 48:17.20 | 5:50.55 | 217295 | 243599
Range status and errors
Selected range
Filename C:\Documents and Settings\Admin\Рабочий стол\Lossless Galaxy Rip by ALLexxess\Naxos Records 25 Years\2012 Great Sacred Masterpieces (10CD Box Set Naxos Records)\CD06 Mozart\Sacred Masterpieces CD6.wav
Peak level 74.8 %
Extraction speed 6.1 X
Range quality 100.0 %
Test CRC 26B3A850
Copy CRC 26B3A850
Copy OK
No errors occurred
AccurateRip summary
Track 1 cannot be verified as accurate (confidence 10) [ACB9745D], AccurateRip returned [519A0A6B] (AR v2)
Track 2 cannot be verified as accurate (confidence 10) [561A843C], AccurateRip returned [5F422884] (AR v2)
Track 3 cannot be verified as accurate (confidence 10) [EBE87872], AccurateRip returned [30C69EFA] (AR v2)
Track 4 cannot be verified as accurate (confidence 10) [390689EA], AccurateRip returned [B69EB37D] (AR v2)
Track 5 cannot be verified as accurate (confidence 11) [AB44AFA1], AccurateRip returned [9938E12B] (AR v2)
Track 6 cannot be verified as accurate (confidence 11) [48CDB140], AccurateRip returned [362DD191] (AR v2)
Track 7 cannot be verified as accurate (confidence 11) [38CD4391], AccurateRip returned [FFDF675B] (AR v2)
Track 8 cannot be verified as accurate (confidence 11) [F798DA21], AccurateRip returned [1514A964] (AR v2)
Track 9 cannot be verified as accurate (confidence 11) [5E17CEE4], AccurateRip returned [8ED484D5] (AR v2)
Track 10 cannot be verified as accurate (confidence 11) [C258918A], AccurateRip returned [B3044E8F] (AR v2)
Track 11 cannot be verified as accurate (confidence 11) [013E3074], AccurateRip returned [52AAB648] (AR v2)
Track 12 cannot be verified as accurate (confidence 10) [59C4E4B6], AccurateRip returned [B4104DB6] (AR v2)
Track 13 cannot be verified as accurate (confidence 10) [852F5208], AccurateRip returned [E0F3DE42] (AR v2)
Track 14 cannot be verified as accurate (confidence 10) [F13658E9], AccurateRip returned [6FA3D5DE] (AR v2)
No tracks could be verified as accurate
You may have a different pressing from the one(s) in the database
End of status report
==== Log checksum BB73A2384E978AAB976CB295CD670BF6D2848BA1EFA5F8BCA34021BCACE0E55B ====

CD07 Mendelssohn: Elijah (Highlights)


Исполнители:Felix Mendelssohn (1809-1847)Julius Schubring, lyricist(s)Elijah, Op. 70 (excerpts)Ruth Ziesak - soprano • Claudia Mahnke - mezzo-soprano • Christoph Genz - tenor • Ralf Lukas - bassLeipzig MDR Radio Choir • Leipzig MDR Symphony Orchestra / Conductor Jun Markl
Треклист:1. Part I: Introduction: So wahr der Herr, der Gott Israels, lebet (Baritone) 00:01:042. Part I: Hilf, Herr! Hilf, Herr! (Chorus) 00:05:063. Part I: Recitative: Zerreisset eure Herzen (Tenor) 00:00:394. Part I: Aria: So ihr mich von ganzem Herzen suchet (Tenor) 00:02:195. Part I: Double Quartet: Denn er hat seinen Engeln befohlen uber dir (Chorus) 00:02:546. Part I: Recitative, Aria and Duet: Was hast du an mir getan, du Mann Gottes! (Soprano, Baritone) 00:06:227. Part I: Wohl dem, der den Herrn furchtet (Chorus) 00:02:378. Part I: Baal, erhore uns! (Chorus) 00:02:569. Part I: Recitative: Kommt her, alles Volk, kommt her zu mir! (Baritone) 00:00:1410. Part I: Aria: Herr Gott Abrahams, Isaaks und Israels (Baritone) 00:03:2911. Part I: Recitative: Der du deine Diener machst zu Geistern (Baritone, Chorus) 00:03:0812. Part I: Aria: Ist nicht des Herrn Wort wie ein Feuer (Baritone) 00:02:1113. Part II: Aria: Hore, Israel, hore des Herrn Stimme! (Soprano) 00:05:2114. Part II: Furchte dich nicht, spricht unser Gott (Chorus) 00:04:0115. Part II: Aria: Es ist genug! (Baritone) 00:05:0116. Part II: Recitative: Siehe, er schlaft (Tenor) 00:00:4117. Part II: Trio: Hebe deine Augen auf zu den Bergen 00:01:4218. Part II: Siehe, der Huter Israels (Chorus) 00:03:1319. Part II: Recitative: Stehe auf, Elias (Alto, Baritone) 00:01:3920. Part II: Aria: Sei stille dem Herrn und warte auf ihn (Alto) 00:03:0821. Part II: Wer bis ans Ende beharrt, der wird selig (Chorus) 00:03:0722. Part II: Recitative: Herr, es wird Nacht um mich (Baritone, Soprano) 00:01:4323. Part II: Der Herr ging voruber (Chorus) 00:04:0424. Part II: Aria: Dann werden die Gerechten leuchten (Tenor) 00:02:4825. Part II: Alsdann wird euer Licht hervorbrechen (Chorus) 00:03:17

ЕАС Log

Exact Audio Copy V1.0 beta 3 from 29. August 2011
EAC extraction logfile from 24. June 2012, 21:41
Mendelssohn: Elijah, Op. 70 (excerpts) / Great Sacred Masterpieces CD7
Used drive : HL-DT-STDVDRAM GSA-H60N Adapter: 2 ID: 0
Read mode : Secure
Utilize accurate stream : Yes
Defeat audio cache : Yes
Make use of C2 pointers : No
Read offset correction : 667
Overread into Lead-In and Lead-Out : No
Fill up missing offset samples with silence : Yes
Delete leading and trailing silent blocks : No
Null samples used in CRC calculations : Yes
Used interface : Native Win32 interface for Win NT & 2000
Used output format : Internal WAV Routines
Sample format : 44.100 Hz; 16 Bit; Stereo
TOC of the extracted CD
Track | Start | Length | Start sector | End sector
---------------------------------------------------------
1 | 0:00.00 | 1:03.51 | 0 | 4775
2 | 1:03.51 | 5:06.30 | 4776 | 27755
3 | 6:10.06 | 0:39.30 | 27756 | 30710
4 | 6:49.36 | 2:19.27 | 30711 | 41162
5 | 9:08.63 | 2:54.27 | 41163 | 54239
6 | 12:03.15 | 6:21.56 | 54240 | 82870
7 | 18:24.71 | 2:37.16 | 82871 | 94661
8 | 21:02.12 | 2:56.37 | 94662 | 107898
9 | 23:58.49 | 0:13.72 | 107899 | 108945
10 | 24:12.46 | 3:28.74 | 108946 | 124619
11 | 27:41.45 | 3:08.06 | 124620 | 138725
12 | 30:49.51 | 2:11.17 | 138726 | 148567
13 | 33:00.68 | 5:20.39 | 148568 | 172606
14 | 38:21.32 | 4:01.33 | 172607 | 190714
15 | 42:22.65 | 5:00.62 | 190715 | 213276
16 | 47:23.52 | 0:41.02 | 213277 | 216353
17 | 48:04.54 | 1:41.43 | 216354 | 223971
18 | 49:46.22 | 3:12.39 | 223972 | 238410
19 | 52:58.61 | 1:38.49 | 238411 | 245809
20 | 54:37.35 | 3:07.73 | 245810 | 259907
21 | 57:45.33 | 3:06.47 | 259908 | 273904
22 | 60:52.05 | 1:42.74 | 273905 | 281628
23 | 62:35.04 | 4:04.13 | 281629 | 299941
24 | 66:39.17 | 2:48.04 | 299942 | 312545
25 | 69:27.21 | 3:16.54 | 312546 | 327299
Range status and errors
Selected range
Filename C:\Documents and Settings\Admin\Рабочий стол\Lossless Galaxy Rip by ALLexxess\Naxos Records 25 Years\2012 Great Sacred Masterpieces (10CD Box Set Naxos Records)\CD07 Mendelssohn\Sacred Masterpieces CD7.wav
Peak level 94.0 %
Extraction speed 6.2 X
Range quality 100.0 %
Test CRC E386BF74
Copy CRC E386BF74
Copy OK
No errors occurred
AccurateRip summary
Track 1 not present in database
Track 2 not present in database
Track 3 not present in database
Track 4 not present in database
Track 5 not present in database
Track 6 not present in database
Track 7 not present in database
Track 8 not present in database
Track 9 not present in database
Track 10 not present in database
Track 11 not present in database
Track 12 not present in database
Track 13 not present in database
Track 14 not present in database
Track 15 not present in database
Track 16 not present in database
Track 17 not present in database
Track 18 not present in database
Track 19 not present in database
Track 20 not present in database
Track 21 not present in database
Track 22 not present in database
Track 23 not present in database
Track 24 not present in database
Track 25 not present in database
None of the tracks are present in the AccurateRip database
End of status report
==== Log checksum C82BC4D822C2F46B3BF51200B65206869B68088A6502429AF0B148A8EEB50BFC ====

CD08 Beethoven: Missa Solemnis


Исполнители:Ludwig van Beethoven (1770-1827)Mass Text, lyricist(s)Missa Solemnis, Op. 123Lori Phillips - soprano • Robynne Redmon - mezzo-soprano • James Taylor - tenorJay Baylon - bass-baritone • Mary Kathryn van Osdale - violinNashville Symphony Chorus • Nashville Symphony Orchestra / Conductor Kenneth Schermerhorn
Треклист:1. Kyrie eleison 00:05:012. Gloria: Gloria in excelsis Deo 00:05:013. Gloria: Qui tollis peccata mundi 00:05:174. Gloria: Quoniam tu solus sanctus 00:06:375. Credo: Credo in unum Deum 00:04:186. Credo: Et incarnatus est 00:05:067. Credo: Et resurrexit tertia die 00:09:128. Sanctus 00:05:389. Sanctus: Benedictus 00:10:2310. Agnus Dei 00:05:5311. Agnus Dei: Dona nobis pacem 00:09:27

ЕАС Log

Exact Audio Copy V1.0 beta 3 from 29. August 2011
EAC extraction logfile from 25. June 2012, 16:38
Beethoven: Missa Solemnis, Op. 123 / Great Sacred Masterpieces CD8
Used drive : HL-DT-STDVDRAM GSA-H60N Adapter: 2 ID: 0
Read mode : Secure
Utilize accurate stream : Yes
Defeat audio cache : Yes
Make use of C2 pointers : No
Read offset correction : 667
Overread into Lead-In and Lead-Out : No
Fill up missing offset samples with silence : Yes
Delete leading and trailing silent blocks : No
Null samples used in CRC calculations : Yes
Used interface : Native Win32 interface for Win NT & 2000
Used output format : Internal WAV Routines
Sample format : 44.100 Hz; 16 Bit; Stereo
TOC of the extracted CD
Track | Start | Length | Start sector | End sector
---------------------------------------------------------
1 | 0:00.00 | 10:34.60 | 0 | 47609
2 | 10:34.60 | 4:42.05 | 47610 | 68764
3 | 15:16.65 | 5:17.07 | 68765 | 92546
4 | 20:33.72 | 6:54.70 | 92547 | 123666
5 | 27:28.67 | 4:00.18 | 123667 | 141684
6 | 31:29.10 | 5:06.05 | 141685 | 164639
7 | 36:35.15 | 9:17.42 | 164640 | 206456
8 | 45:52.57 | 5:33.05 | 206457 | 231436
9 | 51:25.62 | 10:28.55 | 231437 | 278591
10 | 61:54.42 | 5:47.40 | 278592 | 304656
11 | 67:42.07 | 9:26.68 | 304657 | 347174
Range status and errors
Selected range
Filename C:\Documents and Settings\Admin\Рабочий стол\Lossless Galaxy Rip by ALLexxess\Naxos Records 25 Years\2012 Great Sacred Masterpieces (10CD Box Set Naxos Records)\CD08 Beethoven\Sacred Masterpieces CD8.wav
Peak level 100.0 %
Extraction speed 6.0 X
Range quality 99.9 %
Test CRC 000FFE8B
Copy CRC 000FFE8B
Copy OK
No errors occurred
AccurateRip summary
Track 1 cannot be verified as accurate (confidence 3) [569CD723], AccurateRip returned [856B6BD2] (AR v2)
Track 2 cannot be verified as accurate (confidence 3) [55056CD6], AccurateRip returned [8EE5358E] (AR v2)
Track 3 cannot be verified as accurate (confidence 3) [3E106C2E], AccurateRip returned [7C7234B3] (AR v2)
Track 4 cannot be verified as accurate (confidence 3) [9BA8A533], AccurateRip returned [1FFF4B72] (AR v2)
Track 5 cannot be verified as accurate (confidence 3) [9736725E], AccurateRip returned [FB930310] (AR v2)
Track 6 cannot be verified as accurate (confidence 3) [B3C29896], AccurateRip returned [8C1E1A7C] (AR v2)
Track 7 cannot be verified as accurate (confidence 3) [18B955DC], AccurateRip returned [B703F04C] (AR v2)
Track 8 cannot be verified as accurate (confidence 3) [B21BB627], AccurateRip returned [93AC9C13] (AR v2)
Track 9 cannot be verified as accurate (confidence 3) [DCE65629], AccurateRip returned [6348E8FB] (AR v2)
Track 10 cannot be verified as accurate (confidence 3) [54F906F8], AccurateRip returned [605E1C27] (AR v2)
Track 11 cannot be verified as accurate (confidence 3) [4B3E6D8C], AccurateRip returned [DA7FDE24] (AR v2)
No tracks could be verified as accurate
You may have a different pressing from the one(s) in the database
End of status report
==== Log checksum FE333A6370A6A9280392A72DB84A1165A13B15DE9017AD68C8475F34941A089E ====

CD09 Verdi: Requiem (Highlights)


Исполнители:Giuseppe Verdi (1813-1901)Mass Text, lyricist(s)Messa da Requiem (excerpts)Elena Filipova - soprano • Gloria Scalchi - mezzo-soprano • Cesar Hernandez - tenor • Carlo Colombara - bassHungarian State Opera Chorus • Hungarian State Opera Orchestra / Conductor Pier Giorgio Morandi
Треклист:1. Requiem: Requiem aeternam 00:09:122. Dies irae: Dies irae, dies illa 00:02:193. Dies irae: Tuba mirum 00:01:534. Dies irae: Liber scriptus 00:05:125. Dies irae: Rex tremendae 00:03:496. Dies irae: Recordare 00:04:177. Dies irae: Ingemisco 00:03:338. Dies irae: Confutatis 00:05:479. Dies irae: Lacrymosa 00:05:4610. Offertorio: Domine Jesu 00:04:3711. Offertorio: Hostias et preces tibi 00:06:1512. Sanctus 00:02:3613. Agnus Dei 00:05:2214. Lux aeterna 00:06:2915. Libera me: Libera me, Domine 00:02:1716. Libera me: Libera me, Domine 00:05:58

ЕАС Log

Exact Audio Copy V1.0 beta 3 from 29. August 2011
EAC extraction logfile from 25. June 2012, 20:21
Verdi: Messa da Requiem (excerpts) / Great Sacred Masterpieces CD9
Used drive : HL-DT-STDVDRAM GSA-H60N Adapter: 2 ID: 0
Read mode : Secure
Utilize accurate stream : Yes
Defeat audio cache : Yes
Make use of C2 pointers : No
Read offset correction : 667
Overread into Lead-In and Lead-Out : No
Fill up missing offset samples with silence : Yes
Delete leading and trailing silent blocks : No
Null samples used in CRC calculations : Yes
Used interface : Native Win32 interface for Win NT & 2000
Used output format : Internal WAV Routines
Sample format : 44.100 Hz; 16 Bit; Stereo
TOC of the extracted CD
Track | Start | Length | Start sector | End sector
---------------------------------------------------------
1 | 0:00.00 | 9:12.27 | 0 | 41426
2 | 9:12.27 | 2:18.50 | 41427 | 51826
3 | 11:31.02 | 1:52.40 | 51827 | 60266
4 | 13:23.42 | 5:12.37 | 60267 | 83703
5 | 18:36.04 | 3:49.37 | 83704 | 100915
6 | 22:25.41 | 4:16.60 | 100916 | 120175
7 | 26:42.26 | 3:33.28 | 120176 | 136178
8 | 30:15.54 | 5:46.67 | 136179 | 162195
9 | 36:02.46 | 5:45.45 | 162196 | 188115
10 | 41:48.16 | 4:36.58 | 188116 | 208873
11 | 46:24.74 | 6:15.30 | 208874 | 237028
12 | 52:40.29 | 2:36.25 | 237029 | 248753
13 | 55:16.54 | 5:22.04 | 248754 | 272907
14 | 60:38.58 | 6:28.39 | 272908 | 302046
15 | 67:07.22 | 2:16.58 | 302047 | 312304
16 | 69:24.05 | 5:57.70 | 312305 | 339149
Range status and errors
Selected range
Filename C:\Documents and Settings\Admin\Рабочий стол\Lossless Galaxy Rip by ALLexxess\Naxos Records 25 Years\2012 Great Sacred Masterpieces (10CD Box Set Naxos Records)\CD09 Verdi\Sacred Masterpieces CD9.wav
Peak level 94.6 %
Extraction speed 6.2 X
Range quality 99.9 %
Test CRC 7AA8EB75
Copy CRC 7AA8EB75
Copy OK
No errors occurred
AccurateRip summary
Track 1 not present in database
Track 2 not present in database
Track 3 not present in database
Track 4 not present in database
Track 5 not present in database
Track 6 not present in database
Track 7 not present in database
Track 8 not present in database
Track 9 not present in database
Track 10 not present in database
Track 11 not present in database
Track 12 not present in database
Track 13 not present in database
Track 14 not present in database
Track 15 not present in database
Track 16 not present in database
None of the tracks are present in the AccurateRip database
End of status report
==== Log checksum 6716120C14B78948A97E2461DBFA9B15FFF0D98E2686745DC793B70727B25F96 ====

CD10 Fauré: Requiem


Исполнители:Gabriel Fauré (1845-1924)Mass Text, lyricist(s)Requiem, Op 48 Messe base Cantique de Jean Racine, Op 11Lisa Beckley - soprano • Nicholas Gedge - bass-baritone • Colm Carey - organOxford Schola Cantorum • Oxford Camerata / Conductor Jeremy Summerly--------Louis Vierne (1870-1937)Pieces de fantaisie, Op. 51: Suite No. 1Colm Carey - organ--------Déodat de Sévérac (1872-1921)Tantum ergoOxford Schola Cantorum / Conductor Jeremy SummerlyPlace of Recording: Chapel of Hertford College, Oxford / Date of Recording: 17-18 May 1993--------Gabriel Fauré (1845-1924)Mass Text, lyricist(s)Messe basseColm Carey - organ • Oxford Schola Cantorum / Conductor Jeremy SummerlyPlace of Recording: Chapel of Hertford College, Oxford / Date of Recording: 17-18 May 1993--------Gabriel Fauré (1845-1924)Jean Racine, lyricist(s)Cantique de Jean Racine, Op. 11Colm Carey - organ • Oxford Schola Cantorum / Conductor Jeremy Summerly
Треклист:1. Introit et Kyrie 00:06:372. Offertoire 00:08:553. Sanctus 00:03:294. Pie Jesu 00:03:325. Agnus Dei 00:05:596. Libera me 00:04:387. In paradisum 00:03:288. Pieces de fantaisie, Op. 51: Suite No. 1 00:03:369. Tantum ergo 00:03:1510. Kyrie 00:02:2111. Sanctus 00:02:2912. Benedictus 00:02:2313. Agnus Dei 00:03:1214. Cantique de Jean Racine, Op. 11 00:06:30

ЕАС Log

Exact Audio Copy V1.0 beta 3 from 29. August 2011
EAC extraction logfile from 25. June 2012, 21:08
Faure / Vierne / Severac / Great Sacred Masterpieces CD10
Used drive : HL-DT-STDVDRAM GSA-H60N Adapter: 2 ID: 0
Read mode : Secure
Utilize accurate stream : Yes
Defeat audio cache : Yes
Make use of C2 pointers : No
Read offset correction : 667
Overread into Lead-In and Lead-Out : No
Fill up missing offset samples with silence : Yes
Delete leading and trailing silent blocks : No
Null samples used in CRC calculations : Yes
Used interface : Native Win32 interface for Win NT & 2000
Used output format : Internal WAV Routines
Sample format : 44.100 Hz; 16 Bit; Stereo
TOC of the extracted CD
Track | Start | Length | Start sector | End sector
---------------------------------------------------------
1 | 0:00.25 | 6:37.17 | 25 | 29816
2 | 6:37.42 | 8:55.65 | 29817 | 70006
3 | 15:33.32 | 3:28.33 | 70007 | 85639
4 | 19:01.65 | 3:31.45 | 85640 | 101509
5 | 22:33.35 | 5:59.02 | 101510 | 128436
6 | 28:32.37 | 4:38.08 | 128437 | 149294
7 | 33:10.45 | 3:28.27 | 149295 | 164921
8 | 36:38.72 | 3:35.45 | 164922 | 181091
9 | 40:14.42 | 3:15.45 | 181092 | 195761
10 | 43:30.12 | 2:21.20 | 195762 | 206356
11 | 45:51.32 | 2:28.30 | 206357 | 217486
12 | 48:19.62 | 2:23.38 | 217487 | 228249
13 | 50:43.25 | 3:11.40 | 228250 | 242614
14 | 53:54.65 | 6:30.50 | 242615 | 271914
Range status and errors
Selected range
Filename C:\Documents and Settings\Admin\Рабочий стол\Lossless Galaxy Rip by ALLexxess\Naxos Records 25 Years\2012 Great Sacred Masterpieces (10CD Box Set Naxos Records)\CD10 Faure\Sacred Masterpieces CD10.wav
Peak level 99.8 %
Extraction speed 6.1 X
Range quality 99.9 %
Test CRC 01AFC427
Copy CRC 01AFC427
Copy OK
No errors occurred
AccurateRip summary
Track 1 cannot be verified as accurate (confidence 9) [D7C03D08], AccurateRip returned [D9EDCAB4] (AR v2)
Track 2 cannot be verified as accurate (confidence 9) [757C4450], AccurateRip returned [CBA4E98B] (AR v2)
Track 3 cannot be verified as accurate (confidence 9) [74B6307C], AccurateRip returned [7C905EC3] (AR v2)
Track 4 cannot be verified as accurate (confidence 9) [5E2AE15B], AccurateRip returned [DB89978C] (AR v2)
Track 5 cannot be verified as accurate (confidence 9) [8C572EBB], AccurateRip returned [DDBDAF40] (AR v2)
Track 6 cannot be verified as accurate (confidence 9) [89564BBD], AccurateRip returned [A0999D43] (AR v2)
Track 7 cannot be verified as accurate (confidence 9) [7874EECE], AccurateRip returned [74FF3A73] (AR v2)
Track 8 cannot be verified as accurate (confidence 9) [16821333], AccurateRip returned [E7C34CAF] (AR v2)
Track 9 cannot be verified as accurate (confidence 9) [747A6F5F], AccurateRip returned [B840BEB9] (AR v2)
Track 10 cannot be verified as accurate (confidence 9) [0692D671], AccurateRip returned [67B91EA9] (AR v2)
Track 11 cannot be verified as accurate (confidence 9) [B399D8D0], AccurateRip returned [89C5908F] (AR v2)
Track 12 cannot be verified as accurate (confidence 9) [CF8C7B30], AccurateRip returned [DFA4D16A] (AR v2)
Track 13 cannot be verified as accurate (confidence 9) [B302C6DD], AccurateRip returned [DC6DF019] (AR v2)
Track 14 cannot be verified as accurate (confidence 9) [503325BB], AccurateRip returned [E62FCAE9] (AR v2)
No tracks could be verified as accurate
You may have a different pressing from the one(s) in the database
End of status report
==== Log checksum 2294B99E96BB8F8AFE81F9725C251C543471201D687B8EA03E58AFF82F70B2BF ====

-

Доп.информацияЛог проверки качества

для каждого диска в папке Technical

Скриншот спектра частот

для каждого диска в папке Technical
-Ссылки на другие раздачи данного издания
[teatrix.ru].t9748.torrent 
Торрент: Зарегистрирован [ 2015-10-23 17:11 ] · 68147B444A8F56110BDB9E33A330AB99246299E5

Скачать .torrent

Скачать

272 KB

Статус: проверено
Скачан: 1 раз
Размер: 3.16 GB
terms.php



Быстрый ответ

Имя:

      
Для отправки сообщений необходимо включить JavaScript
Показать сообщения:    

Текущее время: 04-Дек 19:14

Часовой пояс: UTC + 3


Вы можете начинать темы
Вы можете отвечать на сообщения
Вы не можете редактировать свои сообщения
Вы не можете удалять свои сообщения
Вы не можете голосовать в опросах
Вы не можете прикреплять файлы к сообщениям
Вы можете скачивать файлы