(Оркестровая музыка) Dimitri Mitropoulos - Retrospective (Mozart, Чайковский, Прокофьев, Mahler, Шостакович, Мусоргский, Skalkottas, Рахманинов, Barber) 15CD - 2009, FLAC (tracks+.CUE), lossless


Статистика раздачи [Обновить пиров]
Размер:  2.19 GB   |    Зарегистрирован:  1 год 2 месяца   |    Скачан:  0 раз

Полного источника не было: Никогда

Личеров:  1  [  0 KB/s  ]   Подробная статистика пиров
 
   
 
 
 

[Цитировать]

DIMITRI MITROPOULOS
Retrospective: Mozart, Tchaikovsky, Prokofiev, Mahler, Shostakovich, Moussorgsky, Skalkottas, Rachmaninov, Barber
Жанр: Оркестровая музыка
Год выпуска диска: 2009
Производитель диска: Sony
Аудио кодек: FLAC
Тип рипа: tracks + .CUE
Битрейт аудио: lossless
Продолжительность: ~3h 30'
Трэклист:

CD 1-3 - Mozart

Wolfgang Amadeus Mozart - Don Giovanni
Leopold Simoneau, Fernando Corena, Gottlob Frick, Lisa della Casa, Rita Streich, Walter Berry

Vienna Philharmonic Orchestra, Vienna State Opera Choir
Dimitri Mitropoulos

CD4 - Tchaikovsky

Pyotr Tchaikovsky - Symphony No 5
New York Philharmonic Orchestra
Dimitri Mitropoulos

CD5 - Prokofiev

Serge Prokofiev - Lieutenant Kije Suite, Piano Concerto no. 3*

New York Philharmonic Orchestra
Dimitri Mitropoulos
*Robin Hood Dell Orchestra of Philadelphia
*Dimitri Mitropoulos, pianist and conductor

-

CD6 - Mahler

Gustav Mahler - Symphony No 1
Minneapolis Symphony Orchestra
Dimitri Mitropoulos

CD7 - Shostakovich

Dimitri Shostakovich - Symphony No 5
New York Philharmonic Orchestra
Dimitri Mitropoulos

CD8 - Prokofiev

Sergei Prokofiev - Romeo and Juliet Ballet, Op. 64 (Excerpts)
New York Philharmonic Orchestra
Dimitri Mitropoulos

CD9 - Moussorgsky, Prokofiev

Modest Mussorgsky - Night On Bald Mountain
Sergei Prokofiev - Lieutenant Kije Suite

New York Philharmonic Orchestra
Dimitri Mitropoulos

CD10 - Skalkottas, Rachmaninov

Skalkottas - Greek Dances
Sergei Rachmaninov - The Isle Of The Dead*

New York Philharmonic Orchestra
Dimitri Mitropoulos
*Minneapolis Symphony Orchestra
Dimitri Mitropoulos

-

CD11 - Shostakovich

Dmitri Shostakovich - Violin Concerto No.1
D.Oistrakh
New York Philharmonic Orchestra

CD 12-15 - Barber

Samuel Barber - Vanessa (original English libretto by Gian-Carlo Menotti)
Eleanor Steber, Rosalind Elias, Regina Resnik, Nicolai Gedda, Giorgio Tozzi
Metropolitan Opera Orchestra and Chorus

This is the cast of of world premiere, which took place at the Metropolitan Opera in New York City on January 15, 1958, in a production designed by Cecil Beaton. It was of course contacted by Dimitri Mitropoulos.
EAC:

EACCD1

Exact Audio Copy V0.99 prebeta 4 from 23. January 2008
EAC extraction logfile from 27. April 2010, 17:09
Mitropoulos, Vienna PO / Mozart - Don Giovanni (disc 1)
Used drive : HL-DT-STDVD-RAM GH22NP20 Adapter: 0 ID: 1
Read mode : Secure
Utilize accurate stream : Yes
Defeat audio cache : Yes
Make use of C2 pointers : No
Read offset correction : 102
Overread into Lead-In and Lead-Out : No
Fill up missing offset samples with silence : Yes
Delete leading and trailing silent blocks : No
Null samples used in CRC calculations : Yes
Used interface : Installed external ASPI interface
Gap handling : Appended to previous track
Used output format : User Defined Encoder
Selected bitrate : 128 kBit/s
Quality : High
Add ID3 tag : No
Command line compressor : C:\Program Files\FLAC\flac.exe
Additional command line options : -8 -V -T "ARTIST=%a" -T "TITLE=%t" -T "ALBUM=%g" -T "DATE=%y" -T "TRACKNUMBER=%n" -T "TOTALTRACKS=%x" -T "GENRE=%m" -T "ALBUM ARTIST=%v" -T "ALBUMARTIST=%v" -T "COMMENT=EAC V0.99 prebeta 4, Secure Mode, Test & Copy, Accurat
TOC of the extracted CD
Track | Start | Length | Start sector | End sector
---------------------------------------------------------
1 | 0:00.00 | 6:16.67 | 0 | 28266
2 | 6:16.67 | 5:42.43 | 28267 | 53959
3 | 11:59.35 | 0:26.57 | 53960 | 55966
4 | 12:26.17 | 7:20.30 | 55967 | 88996
5 | 19:46.47 | 1:22.13 | 88997 | 95159
6 | 21:08.60 | 6:31.32 | 95160 | 124516
7 | 27:40.17 | 6:16.15 | 124517 | 152731
8 | 33:56.32 | 1:26.45 | 152732 | 159226
9 | 35:23.02 | 2:10.13 | 159227 | 168989
10 | 37:33.15 | 1:32.42 | 168990 | 175931
11 | 39:05.57 | 1:49.63 | 175932 | 184169
12 | 40:55.45 | 3:01.00 | 184170 | 197744
13 | 43:56.45 | 0:47.72 | 197745 | 201341
14 | 44:44.42 | 1:25.13 | 201342 | 207729
15 | 46:09.55 | 1:12.42 | 207730 | 213171
16 | 47:22.22 | 4:32.28 | 213172 | 233599
17 | 51:54.50 | 0:20.02 | 233600 | 235101
18 | 52:14.52 | 6:49.00 | 235102 | 265776
19 | 59:03.52 | 0:33.58 | 265777 | 268309
20 | 59:37.35 | 5:17.07 | 268310 | 292091
Track 1
Filename D:\tests\Mitropoulos - Retrospective\d 01\01 - Ouvertura.wav
Pre-gap length 0:00:02.00
Peak level 100.0 %
Track quality 99.9 %
Test CRC B04F6770
Copy CRC B04F6770
Track not present in AccurateRip database
Copy OK
Track 2
Filename D:\tests\Mitropoulos - Retrospective\d 01\02 - Notte e giorno faticar.wav
Peak level 100.0 %
Track quality 100.0 %
Test CRC 88640B03
Copy CRC 88640B03
Track not present in AccurateRip database
Copy OK
Track 3
Filename D:\tests\Mitropoulos - Retrospective\d 01\03 - Leporello, ove sei.wav
Peak level 100.0 %
Track quality 100.0 %
Test CRC 2805B58A
Copy CRC 2805B58A
Track not present in AccurateRip database
Copy OK
Track 4
Filename D:\tests\Mitropoulos - Retrospective\d 01\04 - Ah del padre in periglio Fuggi, crudele, fuggi.wav
Peak level 100.0 %
Track quality 100.0 %
Test CRC 1AC609D0
Copy CRC 1AC609D0
Track not present in AccurateRip database
Copy OK
Track 5
Filename D:\tests\Mitropoulos - Retrospective\d 01\05 - Orsu, spicciati presto.wav
Peak level 100.0 %
Track quality 100.0 %
Test CRC C0303CB3
Copy CRC C0303CB3
Track not present in AccurateRip database
Copy OK
Track 6
Filename D:\tests\Mitropoulos - Retrospective\d 01\06 - Ah chi mi dice mai.wav
Peak level 100.0 %
Track quality 100.0 %
Test CRC 412E5073
Copy CRC 412E5073
Track not present in AccurateRip database
Copy OK
Track 7
Filename D:\tests\Mitropoulos - Retrospective\d 01\07 - Madamina, il catalogo e questo.wav
Peak level 100.0 %
Track quality 100.0 %
Test CRC C1F1A104
Copy CRC C1F1A104
Track not present in AccurateRip database
Copy OK
Track 8
Filename D:\tests\Mitropoulos - Retrospective\d 01\08 - Giovineete chet fate all'amore.wav
Peak level 100.0 %
Track quality 100.0 %
Test CRC CFD15671
Copy CRC CFD15671
Track not present in AccurateRip database
Copy OK
Track 9
Filename D:\tests\Mitropoulos - Retrospective\d 01\09 - Manco male e partita.wav
Peak level 100.0 %
Track quality 99.9 %
Test CRC A7A49AD2
Copy CRC A7A49AD2
Track not present in AccurateRip database
Copy OK
Track 10
Filename D:\tests\Mitropoulos - Retrospective\d 01\10 - Ho capito, signor si.wav
Peak level 100.0 %
Track quality 100.0 %
Test CRC 9B4BC16B
Copy CRC 9B4BC16B
Track not present in AccurateRip database
Copy OK
Track 11
Filename D:\tests\Mitropoulos - Retrospective\d 01\11 - Alfin siam liberati.wav
Peak level 100.0 %
Track quality 100.0 %
Test CRC 786E9015
Copy CRC 786E9015
Track not present in AccurateRip database
Copy OK
Track 12
Filename D:\tests\Mitropoulos - Retrospective\d 01\12 - La ci darem la mano.wav
Peak level 100.0 %
Track quality 99.9 %
Test CRC DFC855BA
Copy CRC DFC855BA
Track not present in AccurateRip database
Copy OK
Track 13
Filename D:\tests\Mitropoulos - Retrospective\d 01\13 - Fermati scellerato.wav
Peak level 100.0 %
Track quality 100.0 %
Test CRC E089FA15
Copy CRC E089FA15
Track not present in AccurateRip database
Copy OK
Track 14
Filename D:\tests\Mitropoulos - Retrospective\d 01\14 - Ah fuggi il traditor.wav
Peak level 100.0 %
Track quality 100.0 %
Test CRC DF39EC45
Copy CRC DF39EC45
Track not present in AccurateRip database
Copy OK
Track 15
Filename D:\tests\Mitropoulos - Retrospective\d 01\15 - Mi par ch'oggi il demonio si diverta.wav
Peak level 100.0 %
Track quality 100.0 %
Test CRC AC7E2018
Copy CRC AC7E2018
Track not present in AccurateRip database
Copy OK
Track 16
Filename D:\tests\Mitropoulos - Retrospective\d 01\16 - No ti fidar, o misera.wav
Peak level 100.0 %
Track quality 100.0 %
Test CRC 18706A2E
Copy CRC 18706A2E
Track not present in AccurateRip database
Copy OK
Track 17
Filename D:\tests\Mitropoulos - Retrospective\d 01\17 - Povera sventurata.wav
Peak level 100.0 %
Track quality 100.0 %
Test CRC E3F2BB86
Copy CRC E3F2BB86
Track not present in AccurateRip database
Copy OK
Track 18
Filename D:\tests\Mitropoulos - Retrospective\d 01\18 - Don Ottavio, son morta.wav
Peak level 100.0 %
Track quality 100.0 %
Test CRC D6E897DC
Copy CRC D6E897DC
Track not present in AccurateRip database
Copy OK
Track 19
Filename D:\tests\Mitropoulos - Retrospective\d 01\19 - Come mai creder deggio.wav
Peak level 100.0 %
Track quality 100.0 %
Test CRC 38E9BC95
Copy CRC 38E9BC95
Track not present in AccurateRip database
Copy OK
Track 20
Filename D:\tests\Mitropoulos - Retrospective\d 01\20 - Dalla sua pace.wav
Peak level 100.0 %
Track quality 100.0 %
Test CRC 407D70D1
Copy CRC 407D70D1
Track not present in AccurateRip database
Copy OK
None of the tracks are present in the AccurateRip database
No errors occurred
End of status report

CD2

Exact Audio Copy V0.99 prebeta 4 from 23. January 2008
EAC extraction logfile from 28. April 2010, 1:09
Mitropoulos / Mozart - Don Giovanni (disc 2)
Used drive : HL-DT-STDVD-RAM GH22NP20 Adapter: 0 ID: 1
Read mode : Secure
Utilize accurate stream : Yes
Defeat audio cache : Yes
Make use of C2 pointers : No
Read offset correction : 102
Overread into Lead-In and Lead-Out : No
Fill up missing offset samples with silence : Yes
Delete leading and trailing silent blocks : No
Null samples used in CRC calculations : Yes
Used interface : Installed external ASPI interface
Gap handling : Appended to previous track
Used output format : User Defined Encoder
Selected bitrate : 128 kBit/s
Quality : High
Add ID3 tag : No
Command line compressor : C:\Program Files\FLAC\flac.exe
Additional command line options : -8 -V -T "ARTIST=%a" -T "TITLE=%t" -T "ALBUM=%g" -T "DATE=%y" -T "TRACKNUMBER=%n" -T "TOTALTRACKS=%x" -T "GENRE=%m" -T "ALBUM ARTIST=%v" -T "ALBUMARTIST=%v" -T "COMMENT=EAC V0.99 prebeta 4, Secure Mode, Test & Copy, Accurat
TOC of the extracted CD
Track | Start | Length | Start sector | End sector
---------------------------------------------------------
1 | 0:00.00 | 1:28.27 | 0 | 6626
2 | 1:28.27 | 1:39.13 | 6627 | 14064
3 | 3:07.40 | 1:12.07 | 14065 | 19471
4 | 4:19.47 | 3:35.28 | 19472 | 35624
5 | 7:55.00 | 0:31.52 | 35625 | 38001
6 | 8:26.52 | 6:29.20 | 38002 | 67196
7 | 14:55.72 | 2:27.10 | 67197 | 78231
8 | 17:23.07 | 9:46.56 | 78232 | 122237
9 | 27:09.63 | 1:05.57 | 122238 | 127169
10 | 28:15.45 | 1:32.08 | 127170 | 134077
11 | 29:47.53 | 4:30.30 | 134078 | 154357
12 | 34:18.08 | 2:06.40 | 154358 | 163847
13 | 36:24.48 | 1:55.65 | 163848 | 172537
14 | 38:20.38 | 1:05.05 | 172538 | 177417
15 | 39:25.43 | 2:46.27 | 177418 | 189894
16 | 42:11.70 | 1:55.65 | 189895 | 198584
17 | 44:07.60 | 3:30.50 | 198585 | 214384
18 | 47:38.35 | 0:29.15 | 214385 | 216574
19 | 48:07.50 | 8:10.20 | 216575 | 253344
20 | 56:17.70 | 0:20.18 | 253345 | 254862
21 | 56:38.13 | 1:54.65 | 254863 | 263477
22 | 58:33.03 | 0:44.55 | 263478 | 266832
23 | 59:17.58 | 4:53.37 | 266833 | 288844
Track 1
Filename D:\tests\Mitropoulos - Retrospective\d 02\01 - Io deggio ad ogni patto.wav
Pre-gap length 0:00:02.00
Peak level 25.2 %
Track quality 100.0 %
Test CRC 311F2D87
Copy CRC 311F2D87
Track not present in AccurateRip database
Copy OK
Track 2
Filename D:\tests\Mitropoulos - Retrospective\d 02\02 - Fin ch'han dal vino.wav
Peak level 77.4 %
Track quality 100.0 %
Test CRC E969C5D4
Copy CRC E969C5D4
Track not present in AccurateRip database
Copy OK
Track 3
Filename D:\tests\Mitropoulos - Retrospective\d 02\03 - Masetto- senti un po'.wav
Peak level 30.3 %
Track quality 100.0 %
Test CRC 14DC1761
Copy CRC 14DC1761
Track not present in AccurateRip database
Copy OK
Track 4
Filename D:\tests\Mitropoulos - Retrospective\d 02\04 - Batti, batti, o bel Masetto.wav
Peak level 50.6 %
Track quality 100.0 %
Test CRC A88494AE
Copy CRC A88494AE
Track not present in AccurateRip database
Copy OK
Track 5
Filename D:\tests\Mitropoulos - Retrospective\d 02\05 - Guarda un po' come seppe.wav
Peak level 29.0 %
Track quality 100.0 %
Test CRC E03E2607
Copy CRC E03E2607
Track not present in AccurateRip database
Copy OK
Track 6
Filename D:\tests\Mitropoulos - Retrospective\d 02\06 - Presto, presto pria ch'ei venga.wav
Peak level 64.8 %
Track quality 100.0 %
Test CRC A4A1E8F9
Copy CRC A4A1E8F9
Track not present in AccurateRip database
Copy OK
Track 7
Filename D:\tests\Mitropoulos - Retrospective\d 02\07 - Protegga il giusto cielo.wav
Peak level 54.3 %
Track quality 100.0 %
Test CRC 437266F0
Copy CRC 437266F0
Track not present in AccurateRip database
Copy OK
Track 8
Filename D:\tests\Mitropoulos - Retrospective\d 02\08 - Riposate, vezzose ragazze.wav
Peak level 86.3 %
Track quality 99.9 %
Test CRC 07F13503
Copy CRC 07F13503
Track not present in AccurateRip database
Copy OK
Track 9
Filename D:\tests\Mitropoulos - Retrospective\d 02\09 - Eh via buffone.wav
Peak level 43.1 %
Track quality 99.8 %
Test CRC D82F220D
Copy CRC D82F220D
Track not present in AccurateRip database
Copy OK
Track 10
Filename D:\tests\Mitropoulos - Retrospective\d 02\10 - Leporello. Signore. Vien qu.wav
Peak level 23.5 %
Track quality 100.0 %
Test CRC 817848D9
Copy CRC 817848D9
Track not present in AccurateRip database
Copy OK
Track 11
Filename D:\tests\Mitropoulos - Retrospective\d 02\11 - Ah taci, ingiusto core.wav
Peak level 56.5 %
Track quality 100.0 %
Test CRC 9AB4E548
Copy CRC 9AB4E548
Track not present in AccurateRip database
Copy OK
Track 12
Filename D:\tests\Mitropoulos - Retrospective\d 02\12 - Amico, che ti par.wav
Peak level 49.5 %
Track quality 100.0 %
Test CRC 3804D0BF
Copy CRC 3804D0BF
Track not present in AccurateRip database
Copy OK
Track 13
Filename D:\tests\Mitropoulos - Retrospective\d 02\13 - Deh vieni alla finestra.wav
Peak level 20.4 %
Track quality 99.9 %
Test CRC 38B4C87D
Copy CRC 38B4C87D
Track not present in AccurateRip database
Copy OK
Track 14
Filename D:\tests\Mitropoulos - Retrospective\d 02\14 - V'e genta alla finestra.wav
Peak level 16.0 %
Track quality 99.8 %
Test CRC 68ED99A5
Copy CRC 68ED99A5
Track not present in AccurateRip database
Copy OK
Track 15
Filename D:\tests\Mitropoulos - Retrospective\d 02\15 - Meta di voi qua vadano.wav
Peak level 37.3 %
Track quality 99.9 %
Test CRC D2378D9F
Copy CRC D2378D9F
Track not present in AccurateRip database
Copy OK
Track 16
Filename D:\tests\Mitropoulos - Retrospective\d 02\16 - Zitto lascia ch'io senta.wav
Peak level 44.0 %
Track quality 99.9 %
Test CRC 158F57A7
Copy CRC 158F57A7
Track not present in AccurateRip database
Copy OK
Track 17
Filename D:\tests\Mitropoulos - Retrospective\d 02\17 - Vedrai, carino.wav
Peak level 36.0 %
Track quality 100.0 %
Test CRC F60E690B
Copy CRC F60E690B
Track not present in AccurateRip database
Copy OK
Track 18
Filename D:\tests\Mitropoulos - Retrospective\d 02\18 - Di molte faci il lume.wav
Peak level 27.9 %
Track quality 99.6 %
Test CRC DC4B3BF6
Copy CRC DC4B3BF6
Track not present in AccurateRip database
Copy OK
Track 19
Filename D:\tests\Mitropoulos - Retrospective\d 02\19 - Sola, sola in buio loco.wav
Peak level 81.1 %
Track quality 100.0 %
Test CRC BD08098F
Copy CRC BD08098F
Track not present in AccurateRip database
Copy OK
Track 20
Filename D:\tests\Mitropoulos - Retrospective\d 02\20 - Dunque quello sei tu.wav
Peak level 22.2 %
Track quality 99.4 %
Test CRC D7BAAC54
Copy CRC D7BAAC54
Track not present in AccurateRip database
Copy OK
Track 21
Filename D:\tests\Mitropoulos - Retrospective\d 02\21 - Ah pieta, signori miei.wav
Peak level 41.6 %
Track quality 99.9 %
Test CRC CB0D9BD5
Copy CRC CB0D9BD5
Track not present in AccurateRip database
Copy OK
Track 22
Filename D:\tests\Mitropoulos - Retrospective\d 02\22 - Ferma, perfido, ferma....wav
Peak level 57.2 %
Track quality 100.0 %
Test CRC 3AF14DD1
Copy CRC 3AF14DD1
Track not present in AccurateRip database
Copy OK
Track 23
Filename D:\tests\Mitropoulos - Retrospective\d 02\23 - Il mio tesoro intanto.wav
Peak level 53.8 %
Track quality 100.0 %
Test CRC 5CADA1B4
Copy CRC 5CADA1B4
Track not present in AccurateRip database
Copy OK
None of the tracks are present in the AccurateRip database
No errors occurred
End of status report

CD3

Exact Audio Copy V0.99 prebeta 4 from 23. January 2008
EAC extraction logfile from 28. April 2010, 8:59
Mitropoulos / Mozart - Don Giovanni (disc 3)
Used drive : HL-DT-STDVD-RAM GH22NP20 Adapter: 0 ID: 1
Read mode : Secure
Utilize accurate stream : Yes
Defeat audio cache : Yes
Make use of C2 pointers : No
Read offset correction : 102
Overread into Lead-In and Lead-Out : No
Fill up missing offset samples with silence : Yes
Delete leading and trailing silent blocks : No
Null samples used in CRC calculations : Yes
Used interface : Installed external ASPI interface
Gap handling : Appended to previous track
Used output format : User Defined Encoder
Selected bitrate : 128 kBit/s
Quality : High
Add ID3 tag : No
Command line compressor : C:\Program Files\FLAC\flac.exe
Additional command line options : -8 -V -T "ARTIST=%a" -T "TITLE=%t" -T "ALBUM=%g" -T "DATE=%y" -T "TRACKNUMBER=%n" -T "TOTALTRACKS=%x" -T "GENRE=%m" -T "ALBUM ARTIST=%v" -T "ALBUMARTIST=%v" -T "COMMENT=EAC V0.99 prebeta 4, Secure Mode, Test & Copy, Accurat
TOC of the extracted CD
Track | Start | Length | Start sector | End sector
---------------------------------------------------------
1 | 0:00.00 | 6:52.47 | 0 | 30946
2 | 6:52.47 | 3:45.58 | 30947 | 47879
3 | 10:38.30 | 3:47.55 | 47880 | 64959
4 | 14:26.10 | 0:54.47 | 64960 | 69056
5 | 15:20.57 | 7:28.05 | 69057 | 102661
6 | 22:48.62 | 8:35.28 | 102662 | 141314
7 | 31:24.15 | 7:41.67 | 141315 | 175956
8 | 39:06.07 | 6:38.64 | 175957 | 205870
Track 1
Filename D:\tests\Mitropoulos - Retrospective\d 03\01 - In quali eccessi, o Numi - Mi tradi quell'alma ingrata.wav
Pre-gap length 0:00:02.00
Peak level 71.1 %
Track quality 100.0 %
Test CRC BC370424
Copy CRC BC370424
Track not present in AccurateRip database
Copy OK
Track 2
Filename D:\tests\Mitropoulos - Retrospective\d 03\02 - Ah ah ah ah, questa e buona.wav
Pre-gap length 0:00:02.00
Peak level 29.6 %
Track quality 99.9 %
Test CRC 7100FFBA
Copy CRC 7100FFBA
Track not present in AccurateRip database
Copy OK
Track 3
Filename D:\tests\Mitropoulos - Retrospective\d 03\03 - O statua gentilissima.wav
Pre-gap length 0:00:02.00
Peak level 55.0 %
Track quality 100.0 %
Test CRC 692423DE
Copy CRC 692423DE
Track not present in AccurateRip database
Copy OK
Track 4
Filename D:\tests\Mitropoulos - Retrospective\d 03\04 - Calmatevi, idol mio.wav
Pre-gap length 0:00:02.00
Peak level 45.2 %
Track quality 100.0 %
Test CRC CCB0B34A
Copy CRC CCB0B34A
Track not present in AccurateRip database
Copy OK
Track 5
Filename D:\tests\Mitropoulos - Retrospective\d 03\05 - Crudele - Non mi dir, bell'idol mio - Ah, si segua il suo passo.wav
Pre-gap length 0:00:02.00
Peak level 75.8 %
Track quality 100.0 %
Test CRC B8982049
Copy CRC B8982049
Track not present in AccurateRip database
Copy OK
Track 6
Filename D:\tests\Mitropoulos - Retrospective\d 03\06 - Gia la mensa e preparata.wav
Pre-gap length 0:00:02.00
Peak level 78.6 %
Track quality 99.9 %
Test CRC E8F98CB1
Copy CRC E8F98CB1
Track not present in AccurateRip database
Copy OK
Track 7
Filename D:\tests\Mitropoulos - Retrospective\d 03\07 - Don Giovanni, a cenar teco m'invitasti.wav
Pre-gap length 0:00:02.00
Peak level 95.2 %
Track quality 99.9 %
Test CRC 44764C58
Copy CRC 44764C58
Track not present in AccurateRip database
Copy OK
Track 8
Filename D:\tests\Mitropoulos - Retrospective\d 03\08 - Ah, dove e il perfido.wav
Pre-gap length 0:00:02.00
Peak level 100.0 %
Track quality 100.0 %
Test CRC 9FC46145
Copy CRC 9FC46145
Track not present in AccurateRip database
Copy OK
None of the tracks are present in the AccurateRip database
No errors occurred
End of status report

CD4

Exact Audio Copy V0.99 prebeta 4 from 23. January 2008
EAC extraction logfile from 4. May 2010, 8:33
Dimitri Mitropoulos, NYP / Tchaikovsky - Symphony No 5
Used drive : PLEXTOR DVDR PX-755A Adapter: 0 ID: 0
Read mode : Secure
Utilize accurate stream : Yes
Defeat audio cache : Yes
Make use of C2 pointers : No
Read offset correction : 30
Overread into Lead-In and Lead-Out : No
Fill up missing offset samples with silence : Yes
Delete leading and trailing silent blocks : No
Null samples used in CRC calculations : Yes
Used interface : Installed external ASPI interface
Gap handling : Appended to previous track
Used output format : User Defined Encoder
Selected bitrate : 128 kBit/s
Quality : High
Add ID3 tag : No
Command line compressor : C:\Program Files\FLAC\flac.exe
Additional command line options : -8 -V -T "ARTIST=%a" -T "TITLE=%t" -T "ALBUM=%g" -T "DATE=%y" -T "TRACKNUMBER=%n" -T "TOTALTRACKS=%x" -T "GENRE=%m" -T "ALBUM ARTIST=%v" -T "ALBUMARTIST=%v" -T "COMMENT=EAC V0.99 prebeta 4, Secure Mode, Test & Copy, Accurat
TOC of the extracted CD
Track | Start | Length | Start sector | End sector
---------------------------------------------------------
1 | 0:00.00 | 12:30.08 | 0 | 56257
2 | 12:30.08 | 12:56.54 | 56258 | 114511
3 | 25:26.62 | 5:58.20 | 114512 | 141381
4 | 31:25.07 | 11:32.52 | 141382 | 193333
Track 1
Filename D:\tests\Mitropoulos - Retrospective\disc 4\01 - Andante Allegro con amica.wav
Pre-gap length 0:00:02.00
Peak level 83.4 %
Track quality 99.9 %
Test CRC D9BBDE06
Copy CRC D9BBDE06
Track not present in AccurateRip database
Copy OK
Track 2
Filename D:\tests\Mitropoulos - Retrospective\disc 4\02 - Andante cantabile.wav
Peak level 84.0 %
Track quality 100.0 %
Test CRC 4D6B39B3
Copy CRC 4D6B39B3
Track not present in AccurateRip database
Copy OK
Track 3
Filename D:\tests\Mitropoulos - Retrospective\disc 4\03 - Valse (Allegro moderato).wav
Peak level 80.0 %
Track quality 99.9 %
Test CRC 7512F6BA
Copy CRC 7512F6BA
Track not present in AccurateRip database
Copy OK
Track 4
Filename D:\tests\Mitropoulos - Retrospective\disc 4\04 - Finale (Allegro vivace).wav
Peak level 93.6 %
Track quality 99.9 %
Test CRC 3E6D18AF
Copy CRC 3E6D18AF
Track not present in AccurateRip database
Copy OK
None of the tracks are present in the AccurateRip database
No errors occurred
End of status report

CD5

Exact Audio Copy V0.99 prebeta 5 from 4. May 2009
EAC extraction logfile from 5. May 2010, 10:56
Dimitri Mitropoulos / Prokofiev - Lieutenant Kije Suite, Piano Concerto no. 3
Used drive : PLEXTOR CD-R PX-W5224A Adapter: 3 ID: 1
Read mode : Secure
Utilize accurate stream : Yes
Defeat audio cache : Yes
Make use of C2 pointers : No
Read offset correction : 30
Overread into Lead-In and Lead-Out : No
Fill up missing offset samples with silence : Yes
Delete leading and trailing silent blocks : No
Null samples used in CRC calculations : Yes
Used interface : Installed external ASPI interface
Gap handling : Appended to previous track
Used output format : User Defined Encoder
Selected bitrate : 128 kBit/s
Quality : High
Add ID3 tag : No
Command line compressor : C:\Program Files\Exact Audio Copy\flac.exe
Additional command line options : -8 -V -T "ARTIST=%a" -T "TITLE=%t" -T "ALBUM=%g" -T "DATE=%y" -T "TRACKNUMBER=%n" -T "TOTALTRACKS=%x" -T "GENRE=%m" -T "ALBUM ARTIST=%v" -T "ALBUMARTIST=%v" -T "COMMENT=EAC V0.99 prebeta 4, Secure Mode, Test & Copy, Accurat
TOC of the extracted CD
Track | Start | Length | Start sector | End sector
---------------------------------------------------------
1 | 0:00.00 | 3:53.01 | 0 | 17475
2 | 3:53.01 | 4:40.44 | 17476 | 38519
3 | 8:33.45 | 2:50.44 | 38520 | 51313
4 | 11:24.14 | 2:42.40 | 51314 | 63503
5 | 14:06.54 | 6:09.07 | 63504 | 91185
6 | 20:15.61 | 8:49.49 | 91186 | 130909
7 | 29:05.35 | 8:19.53 | 130910 | 168387
8 | 37:25.13 | 8:44.35 | 168388 | 207722
Track 1
Filename C:\Documents and Settings\Mg User\ЕрйцЬнейб есгбуЯбт\Dimitri Mitropoulos - Retrospective\Disc 1-5\d 05\01 - Lieutenant Kije Suite - Kije's Birth.wav
Pre-gap length 0:00:02.00
Peak level 81.4 %
Track quality 100.0 %
Test CRC 4C313513
Copy CRC 4C313513
Track not present in AccurateRip database
Copy OK
Track 2
Filename C:\Documents and Settings\Mg User\ЕрйцЬнейб есгбуЯбт\Dimitri Mitropoulos - Retrospective\Disc 1-5\d 05\02 - Lieutenant Kije Suite - Romance.wav
Pre-gap length 0:00:02.00
Peak level 88.0 %
Track quality 99.9 %
Test CRC F7D45098
Copy CRC F7D45098
Track not present in AccurateRip database
Copy OK
Track 3
Filename C:\Documents and Settings\Mg User\ЕрйцЬнейб есгбуЯбт\Dimitri Mitropoulos - Retrospective\Disc 1-5\d 05\03 - Lieutenant Kije Suite - Kije's Wedding.wav
Pre-gap length 0:00:02.00
Peak level 79.9 %
Track quality 100.0 %
Test CRC 5FF72C0D
Copy CRC 5FF72C0D
Track not present in AccurateRip database
Copy OK
Track 4
Filename C:\Documents and Settings\Mg User\ЕрйцЬнейб есгбуЯбт\Dimitri Mitropoulos - Retrospective\Disc 1-5\d 05\04 - Lieutenant Kije Suite - Troika.wav
Pre-gap length 0:00:02.00
Peak level 83.4 %
Track quality 100.0 %
Test CRC CB3CB303
Copy CRC CB3CB303
Track not present in AccurateRip database
Copy OK
Track 5
Filename C:\Documents and Settings\Mg User\ЕрйцЬнейб есгбуЯбт\Dimitri Mitropoulos - Retrospective\Disc 1-5\d 05\05 - Lieutenant Kije Suite - Kije's Burial.wav
Pre-gap length 0:00:02.00
Peak level 72.6 %
Track quality 100.0 %
Test CRC 1AE3E3ED
Copy CRC 1AE3E3ED
Track not present in AccurateRip database
Copy OK
Track 6
Filename C:\Documents and Settings\Mg User\ЕрйцЬнейб есгбуЯбт\Dimitri Mitropoulos - Retrospective\Disc 1-5\d 05\06 - Piano Concerto no.3 - Andante - Allegro.wav
Pre-gap length 0:00:02.00
Peak level 93.1 %
Track quality 99.9 %
Test CRC 436D9F45
Copy CRC 436D9F45
Track not present in AccurateRip database
Copy OK
Track 7
Filename C:\Documents and Settings\Mg User\ЕрйцЬнейб есгбуЯбт\Dimitri Mitropoulos - Retrospective\Disc 1-5\d 05\07 - Piano Concerto no.3 - Theme & Variations.wav
Pre-gap length 0:00:02.00
Peak level 89.3 %
Track quality 100.0 %
Test CRC 4F66E65B
Copy CRC 4F66E65B
Track not present in AccurateRip database
Copy OK
Track 8
Filename C:\Documents and Settings\Mg User\ЕрйцЬнейб есгбуЯбт\Dimitri Mitropoulos - Retrospective\Disc 1-5\d 05\08 - Piano Concerto no.3 - Allegro ma non troppo.wav
Pre-gap length 0:00:02.00
Peak level 85.1 %
Track quality 100.0 %
Test CRC 70D07F6D
Copy CRC 70D07F6D
Track not present in AccurateRip database
Copy OK
None of the tracks are present in the AccurateRip database
No errors occurred
End of status report

CD6

Exact Audio Copy V0.99 prebeta 5 from 4. May 2009
EAC extraction logfile from 7. May 2010, 12:10
Dimitri Mitropoulos - Minneapolis SO / Mahler - Symphony No 1
Used drive : PLEXTOR CD-R PX-W5224A Adapter: 3 ID: 1
Read mode : Secure
Utilize accurate stream : Yes
Defeat audio cache : Yes
Make use of C2 pointers : No
Read offset correction : 30
Overread into Lead-In and Lead-Out : No
Fill up missing offset samples with silence : Yes
Delete leading and trailing silent blocks : No
Null samples used in CRC calculations : Yes
Used interface : Installed external ASPI interface
Gap handling : Appended to previous track
Used output format : User Defined Encoder
Selected bitrate : 128 kBit/s
Quality : High
Add ID3 tag : No
Command line compressor : C:\Program Files\Exact Audio Copy\flac.exe
Additional command line options : -8 -V -T "ARTIST=%a" -T "TITLE=%t" -T "ALBUM=%g" -T "DATE=%y" -T "TRACKNUMBER=%n" -T "TOTALTRACKS=%x" -T "GENRE=%m" -T "ALBUM ARTIST=%v" -T "ALBUMARTIST=%v" -T "COMMENT=EAC V0.99 prebeta 4, Secure Mode, Test & Copy, Accurat
TOC of the extracted CD
Track | Start | Length | Start sector | End sector
---------------------------------------------------------
1 | 0:00.00 | 13:37.25 | 0 | 61299
2 | 13:37.25 | 6:19.35 | 61300 | 89759
3 | 19:56.60 | 10:27.60 | 89760 | 136844
4 | 30:24.45 | 17:21.41 | 136845 | 214960
Track 1
Filename C:\My Torrents\Dimitri Mitropoulos - Retrospective\Disc 6-10\disc 06\01 - Langsam Schleppend Immer sehr gemachlich.wav
Pre-gap length 0:00:02.00
Peak level 98.8 %
Track quality 100.0 %
Test CRC 0D6B4E99
Copy CRC 0D6B4E99
Track not present in AccurateRip database
Copy OK
Track 2
Filename C:\My Torrents\Dimitri Mitropoulos - Retrospective\Disc 6-10\disc 06\02 - Kraftig bewegt - Trio Recht gemachlich.wav
Pre-gap length 0:00:02.00
Peak level 98.8 %
Track quality 100.0 %
Test CRC AEC08991
Copy CRC AEC08991
Track not present in AccurateRip database
Copy OK
Track 3
Filename C:\My Torrents\Dimitri Mitropoulos - Retrospective\Disc 6-10\disc 06\03 - Feierlich und gemessen, ohne zu schleppen.wav
Pre-gap length 0:00:02.00
Peak level 68.7 %
Track quality 100.0 %
Test CRC D3B50836
Copy CRC D3B50836
Track not present in AccurateRip database
Copy OK
Track 4
Filename C:\My Torrents\Dimitri Mitropoulos - Retrospective\Disc 6-10\disc 06\04 - Sturmisch bewegt - Energisch.wav
Pre-gap length 0:00:02.00
Peak level 98.8 %
Track quality 100.0 %
Test CRC F49CE6BB
Copy CRC F49CE6BB
Track not present in AccurateRip database
Copy OK
None of the tracks are present in the AccurateRip database
No errors occurred
End of status report

CD7

Exact Audio Copy V0.99 prebeta 5 from 4. May 2009
EAC extraction logfile from 7. May 2010, 18:17
Dimitri Mitropoulos, New York PO / Shostakovich - Symphony No 5
Used drive : PLEXTOR DVDR PX-755A Adapter: 3 ID: 0
Read mode : Secure
Utilize accurate stream : Yes
Defeat audio cache : Yes
Make use of C2 pointers : No
Read offset correction : 30
Overread into Lead-In and Lead-Out : No
Fill up missing offset samples with silence : Yes
Delete leading and trailing silent blocks : No
Null samples used in CRC calculations : Yes
Used interface : Installed external ASPI interface
Gap handling : Appended to previous track
Used output format : User Defined Encoder
Selected bitrate : 128 kBit/s
Quality : High
Add ID3 tag : No
Command line compressor : C:\Program Files\Exact Audio Copy\flac.exe
Additional command line options : -8 -V -T "ARTIST=%a" -T "TITLE=%t" -T "ALBUM=%g" -T "DATE=%y" -T "TRACKNUMBER=%n" -T "TOTALTRACKS=%x" -T "GENRE=%m" -T "ALBUM ARTIST=%v" -T "ALBUMARTIST=%v" -T "COMMENT=EAC V0.99 prebeta 4, Secure Mode, Test & Copy, Accurat
TOC of the extracted CD
Track | Start | Length | Start sector | End sector
---------------------------------------------------------
1 | 0:00.00 | 16:49.07 | 0 | 75681
2 | 16:49.07 | 5:14.62 | 75682 | 99293
3 | 22:03.69 | 14:31.31 | 99294 | 164649
4 | 36:35.25 | 8:47.06 | 164650 | 204180
Track 1
Filename C:\My Torrents\Dimitri Mitropoulos - Retrospective\Disc 6-10\d 07\01 - Moderato.wav
Pre-gap length 0:00:02.00
Peak level 81.7 %
Track quality 100.0 %
Test CRC 5D0E693A
Copy CRC 5D0E693A
Track not present in AccurateRip database
Copy OK
Track 2
Filename C:\My Torrents\Dimitri Mitropoulos - Retrospective\Disc 6-10\d 07\02 - Allegretto.wav
Peak level 84.9 %
Track quality 100.0 %
Test CRC D9430E9F
Copy CRC D9430E9F
Track not present in AccurateRip database
Copy OK
Track 3
Filename C:\My Torrents\Dimitri Mitropoulos - Retrospective\Disc 6-10\d 07\03 - Largo.wav
Peak level 79.0 %
Track quality 100.0 %
Test CRC ECF48366
Copy CRC ECF48366
Track not present in AccurateRip database
Copy OK
Track 4
Filename C:\My Torrents\Dimitri Mitropoulos - Retrospective\Disc 6-10\d 07\04 - Allegro non troppo.wav
Peak level 84.4 %
Track quality 100.0 %
Test CRC 673D79BB
Copy CRC 673D79BB
Track not present in AccurateRip database
Copy OK
None of the tracks are present in the AccurateRip database
No errors occurred
End of status report

CD8

Exact Audio Copy V0.99 prebeta 5 from 4. May 2009
EAC extraction logfile from 7. May 2010, 19:28
Dimitri Mitropoulos, New York PO / Prokofiev - Romeo and Juliet Ballet, Op. 64 (Excerpts)
Used drive : PLEXTOR DVDR PX-755A Adapter: 3 ID: 0
Read mode : Secure
Utilize accurate stream : Yes
Defeat audio cache : Yes
Make use of C2 pointers : No
Read offset correction : 30
Overread into Lead-In and Lead-Out : No
Fill up missing offset samples with silence : Yes
Delete leading and trailing silent blocks : No
Null samples used in CRC calculations : Yes
Used interface : Installed external ASPI interface
Gap handling : Appended to previous track
Used output format : User Defined Encoder
Selected bitrate : 128 kBit/s
Quality : High
Add ID3 tag : No
Command line compressor : C:\Program Files\Exact Audio Copy\flac.exe
Additional command line options : -8 -V -T "ARTIST=%a" -T "TITLE=%t" -T "ALBUM=%g" -T "DATE=%y" -T "TRACKNUMBER=%n" -T "TOTALTRACKS=%x" -T "GENRE=%m" -T "ALBUM ARTIST=%v" -T "ALBUMARTIST=%v" -T "COMMENT=EAC V0.99 prebeta 4, Secure Mode, Test & Copy, Accurat
TOC of the extracted CD
Track | Start | Length | Start sector | End sector
---------------------------------------------------------
1 | 0:00.00 | 5:15.46 | 0 | 23670
2 | 5:15.46 | 4:12.28 | 23671 | 42598
3 | 9:27.74 | 4:17.18 | 42599 | 61891
4 | 13:45.17 | 2:13.37 | 61892 | 71903
5 | 15:58.54 | 6:37.24 | 71904 | 101702
6 | 22:36.03 | 4:40.56 | 101703 | 122758
7 | 27:16.59 | 8:18.53 | 122759 | 160161
8 | 35:35.37 | 2:38.45 | 160162 | 172056
9 | 38:14.07 | 5:45.45 | 172057 | 197976
Track 1
Filename C:\My Torrents\Dimitri Mitropoulos - Retrospective\Disc 6-10\d 08\01 - Montagues and Capulets (No. 1 from Suite No. 2, Op. 64ter).wav
Pre-gap length 0:00:02.00
Peak level 83.9 %
Track quality 100.0 %
Test CRC 9187F7C9
Copy CRC 9187F7C9
Track not present in AccurateRip database
Copy OK
Track 2
Filename C:\My Torrents\Dimitri Mitropoulos - Retrospective\Disc 6-10\d 08\02 - Juliet, the Young Girl (No. 2 from Suite No. 2, Op. 64ter).wav
Pre-gap length 0:00:02.00
Peak level 66.4 %
Track quality 99.9 %
Test CRC 883667FD
Copy CRC 883667FD
Track not present in AccurateRip database
Copy OK
Track 3
Filename C:\My Torrents\Dimitri Mitropoulos - Retrospective\Disc 6-10\d 08\03 - Folk Dance (No. 1 from Suite No. 1, Op. 64bis).wav
Pre-gap length 0:00:02.00
Peak level 80.8 %
Track quality 100.0 %
Test CRC 4FB1C552
Copy CRC 4FB1C552
Track not present in AccurateRip database
Copy OK
Track 4
Filename C:\My Torrents\Dimitri Mitropoulos - Retrospective\Disc 6-10\d 08\04 - Masks (No. 5 from Suite No. 1, Op. 64bis).wav
Pre-gap length 0:00:02.00
Peak level 80.6 %
Track quality 99.9 %
Test CRC A74943AB
Copy CRC A74943AB
Track not present in AccurateRip database
Copy OK
Track 5
Filename C:\My Torrents\Dimitri Mitropoulos - Retrospective\Disc 6-10\d 08\05 - Romeo and Juliet (No. 6 from Suite No. 1, Op. 64bis).wav
Pre-gap length 0:00:02.00
Peak level 78.8 %
Track quality 100.0 %
Test CRC 6777DDC2
Copy CRC 6777DDC2
Track not present in AccurateRip database
Copy OK
Track 6
Filename C:\My Torrents\Dimitri Mitropoulos - Retrospective\Disc 6-10\d 08\06 - Death of Tybalt (No. 7 from Suite No. 1, Op. 64bis).wav
Pre-gap length 0:00:02.00
Peak level 93.6 %
Track quality 100.0 %
Test CRC 8FCC2088
Copy CRC 8FCC2088
Track not present in AccurateRip database
Copy OK
Track 7
Filename C:\My Torrents\Dimitri Mitropoulos - Retrospective\Disc 6-10\d 08\07 - Romeo at Juliet's before Parting (No. 5 from Suite No. 2, Op. 64ter).wav
Pre-gap length 0:00:02.00
Peak level 74.2 %
Track quality 100.0 %
Test CRC 4A1B6A62
Copy CRC 4A1B6A62
Track not present in AccurateRip database
Copy OK
Track 8
Filename C:\My Torrents\Dimitri Mitropoulos - Retrospective\Disc 6-10\d 08\08 - Friar Laurence (No. 3 from Suite No. 2, Op. 64ter).wav
Pre-gap length 0:00:02.00
Peak level 60.2 %
Track quality 100.0 %
Test CRC 145045BC
Copy CRC 145045BC
Track not present in AccurateRip database
Copy OK
Track 9
Filename C:\My Torrents\Dimitri Mitropoulos - Retrospective\Disc 6-10\d 08\09 - Romeo at the Grave of Juliet (No. 7 from Suite No. 2, Op. 64ter).wav
Pre-gap length 0:00:02.00
Peak level 89.1 %
Track quality 100.0 %
Test CRC 1ED3CEBF
Copy CRC 1ED3CEBF
Track not present in AccurateRip database
Copy OK
None of the tracks are present in the AccurateRip database
No errors occurred
End of status report

CD9

Exact Audio Copy V0.99 prebeta 5 from 4. May 2009
EAC extraction logfile from 7. May 2010, 20:07
Dimitri Mitropoulos, New York PO / Mussorgsky - Night On Bald Mountain; Prokofiev - Lieutenant Kije Suite
Used drive : PLEXTOR DVDR PX-755A Adapter: 3 ID: 0
Read mode : Secure
Utilize accurate stream : Yes
Defeat audio cache : Yes
Make use of C2 pointers : No
Read offset correction : 30
Overread into Lead-In and Lead-Out : No
Fill up missing offset samples with silence : Yes
Delete leading and trailing silent blocks : No
Null samples used in CRC calculations : Yes
Used interface : Installed external ASPI interface
Gap handling : Appended to previous track
Used output format : User Defined Encoder
Selected bitrate : 128 kBit/s
Quality : High
Add ID3 tag : No
Command line compressor : C:\Program Files\Exact Audio Copy\flac.exe
Additional command line options : -8 -V -T "ARTIST=%a" -T "TITLE=%t" -T "ALBUM=%g" -T "DATE=%y" -T "TRACKNUMBER=%n" -T "TOTALTRACKS=%x" -T "GENRE=%m" -T "ALBUM ARTIST=%v" -T "ALBUMARTIST=%v" -T "COMMENT=EAC V0.99 prebeta 4, Secure Mode, Test & Copy, Accurat
TOC of the extracted CD
Track | Start | Length | Start sector | End sector
---------------------------------------------------------
1 | 0:00.00 | 11:05.34 | 0 | 49908
2 | 11:05.34 | 3:46.70 | 49909 | 66928
3 | 14:52.29 | 4:33.16 | 66929 | 87419
4 | 19:25.45 | 2:44.66 | 87420 | 99785
5 | 22:10.36 | 2:36.25 | 99786 | 111510
6 | 24:46.61 | 6:02.05 | 111511 | 138665
Track 1
Filename C:\My Torrents\Dimitri Mitropoulos - Retrospective\Disc 6-10\d 09\01 - Night On Bald Mountain.wav
Pre-gap length 0:00:02.00
Peak level 100.0 %
Track quality 99.9 %
Test CRC AD28B421
Copy CRC AD28B421
Track not present in AccurateRip database
Copy OK
Track 2
Filename C:\My Torrents\Dimitri Mitropoulos - Retrospective\Disc 6-10\d 09\02 - Lieutenant Kije Suite - I. The Birth of Kije. Andante assai - Doppio movimento.wav
Pre-gap length 0:00:02.00
Peak level 87.1 %
Track quality 100.0 %
Test CRC 2DA63EE7
Copy CRC 2DA63EE7
Track not present in AccurateRip database
Copy OK
Track 3
Filename C:\My Torrents\Dimitri Mitropoulos - Retrospective\Disc 6-10\d 09\03 - Lieutenant Kije Suite - II. Romance. Andante - Allegretto - Andante come prima.wav
Pre-gap length 0:00:02.00
Peak level 64.5 %
Track quality 100.0 %
Test CRC 9650A65D
Copy CRC 9650A65D
Track not present in AccurateRip database
Copy OK
Track 4
Filename C:\My Torrents\Dimitri Mitropoulos - Retrospective\Disc 6-10\d 09\04 - Lieutenant Kije Suite - III. Kije's Wedding. Allegro fastoso - Piu animato.wav
Pre-gap length 0:00:02.00
Peak level 98.0 %
Track quality 100.0 %
Test CRC 641A00AD
Copy CRC 641A00AD
Track not present in AccurateRip database
Copy OK
Track 5
Filename C:\My Torrents\Dimitri Mitropoulos - Retrospective\Disc 6-10\d 09\05 - Lieutenant Kije Suite - IV. Troika. Moderato - Allegro con brio.wav
Pre-gap length 0:00:02.00
Peak level 100.0 %
Track quality 100.0 %
Test CRC EC31120D
Copy CRC EC31120D
Track not present in AccurateRip database
Copy OK
Track 6
Filename C:\My Torrents\Dimitri Mitropoulos - Retrospective\Disc 6-10\d 09\06 - Lieutenant Kije Suite - V. Kije's Funeral. Andante assai - Allegro moderato.wav
Pre-gap length 0:00:02.00
Peak level 54.0 %
Track quality 100.0 %
Test CRC B3E25383
Copy CRC B3E25383
Track not present in AccurateRip database
Copy OK
None of the tracks are present in the AccurateRip database
No errors occurred
End of status report

CD10

Exact Audio Copy V0.99 prebeta 5 from 4. May 2009
EAC extraction logfile from 10. May 2010, 9:20
Dimitri Mitropoulos / Skalkotas - Greek Dances; Rachmaninov - The Isle Of The Dead
Used drive : PLEXTOR DVDR PX-755A Adapter: 3 ID: 0
Read mode : Secure
Utilize accurate stream : Yes
Defeat audio cache : Yes
Make use of C2 pointers : No
Read offset correction : 30
Overread into Lead-In and Lead-Out : No
Fill up missing offset samples with silence : Yes
Delete leading and trailing silent blocks : No
Null samples used in CRC calculations : Yes
Used interface : Installed external ASPI interface
Gap handling : Appended to previous track
Used output format : User Defined Encoder
Selected bitrate : 128 kBit/s
Quality : High
Add ID3 tag : No
Command line compressor : C:\Program Files\Exact Audio Copy\flac.exe
Additional command line options : -8 -V -T "ARTIST=%a" -T "TITLE=%t" -T "ALBUM=%g" -T "DATE=%y" -T "TRACKNUMBER=%n" -T "TOTALTRACKS=%x" -T "GENRE=%m" -T "ALBUM ARTIST=%v" -T "ALBUMARTIST=%v" -T "COMMENT=EAC V0.99 prebeta 4, Secure Mode, Test & Copy, Accurat
TOC of the extracted CD
Track | Start | Length | Start sector | End sector
---------------------------------------------------------
1 | 0:00.00 | 2:00.37 | 0 | 9036
2 | 2:00.37 | 1:54.33 | 9037 | 17619
3 | 3:54.70 | 3:32.42 | 17620 | 33561
4 | 7:27.37 | 2:06.64 | 33562 | 43075
5 | 9:34.26 | 20:14.58 | 43076 | 134183
Track 1
Filename C:\My Torrents\Dimitri Mitropoulos - Retrospective\Disc 6-10\d 10\01 - Skalkotas - Greek Dances - Hostianos.wav
Pre-gap length 0:00:02.00
Peak level 93.2 %
Track quality 100.0 %
Test CRC 517A8362
Copy CRC 517A8362
Track not present in AccurateRip database
Copy OK
Track 2
Filename C:\My Torrents\Dimitri Mitropoulos - Retrospective\Disc 6-10\d 10\02 - Skalkotas - Greek Dances - Kleftikos.wav
Pre-gap length 0:00:02.00
Peak level 95.0 %
Track quality 100.0 %
Test CRC 81F50AE4
Copy CRC 81F50AE4
Track not present in AccurateRip database
Copy OK
Track 3
Filename C:\My Torrents\Dimitri Mitropoulos - Retrospective\Disc 6-10\d 10\03 - Skalkotas - Greek Dances - Peloponnisiakos.wav
Pre-gap length 0:00:02.00
Peak level 90.8 %
Track quality 100.0 %
Test CRC 6ADE3031
Copy CRC 6ADE3031
Track not present in AccurateRip database
Copy OK
Track 4
Filename C:\My Torrents\Dimitri Mitropoulos - Retrospective\Disc 6-10\d 10\04 - Skalkotas - Greek Dances - Ipirotikos.wav
Pre-gap length 0:00:02.00
Peak level 91.3 %
Track quality 99.9 %
Test CRC 2DA64706
Copy CRC 2DA64706
Track not present in AccurateRip database
Copy OK
Track 5
Filename C:\My Torrents\Dimitri Mitropoulos - Retrospective\Disc 6-10\d 10\05 - Rachmaninov - The Isle Of The Dead.wav
Pre-gap length 0:00:02.00
Peak level 96.8 %
Track quality 100.0 %
Test CRC 3430613B
Copy CRC 3430613B
Track not present in AccurateRip database
Copy OK
None of the tracks are present in the AccurateRip database
No errors occurred
End of status report

CD11

Exact Audio Copy V0.99 prebeta 5 from 4. May 2009
EAC extraction logfile from 21. May 2010, 10:54
Dimitri Mitropoulos / Shostakovich - Violin Concerto No 1
Used drive : PLEXTOR DVDR PX-755A Adapter: 3 ID: 0
Read mode : Secure
Utilize accurate stream : Yes
Defeat audio cache : Yes
Make use of C2 pointers : No
Read offset correction : 30
Overread into Lead-In and Lead-Out : No
Fill up missing offset samples with silence : Yes
Delete leading and trailing silent blocks : No
Null samples used in CRC calculations : Yes
Used interface : Installed external ASPI interface
Gap handling : Appended to previous track
Used output format : User Defined Encoder
Selected bitrate : 128 kBit/s
Quality : High
Add ID3 tag : No
Command line compressor : C:\Program Files\Exact Audio Copy\flac.exe
Additional command line options : -8 -V -T "ARTIST=%a" -T "TITLE=%t" -T "ALBUM=%g" -T "DATE=%y" -T "TRACKNUMBER=%n" -T "TOTALTRACKS=%x" -T "GENRE=%m" -T "ALBUM ARTIST=%v" -T "ALBUMARTIST=%v" -T "COMMENT=EAC V0.99 prebeta 4, Secure Mode, Test & Copy, Accurat
TOC of the extracted CD
Track | Start | Length | Start sector | End sector
---------------------------------------------------------
1 | 0:00.00 | 11:58.52 | 0 | 53901
2 | 11:58.52 | 6:11.70 | 53902 | 81796
3 | 18:10.47 | 13:21.68 | 81797 | 141939
4 | 31:32.40 | 4:43.30 | 141940 | 163194
Track 1
Filename C:\My Torrents\Dimitri Mitropoulos - Retrospective\Disc 11-15\cd 11\01 - I. Nocturne.wav
Pre-gap length 0:00:02.00
Peak level 53.3 %
Track quality 100.0 %
Test CRC 8044CC9C
Copy CRC 8044CC9C
Track not present in AccurateRip database
Copy OK
Track 2
Filename C:\My Torrents\Dimitri Mitropoulos - Retrospective\Disc 11-15\cd 11\02 - II. Scherzo.wav
Pre-gap length 0:00:02.00
Peak level 79.0 %
Track quality 100.0 %
Test CRC 5C47BAD7
Copy CRC 5C47BAD7
Track not present in AccurateRip database
Copy OK
Track 3
Filename C:\My Torrents\Dimitri Mitropoulos - Retrospective\Disc 11-15\cd 11\03 - III. Passacaglia.wav
Pre-gap length 0:00:02.00
Peak level 68.2 %
Track quality 100.0 %
Test CRC DE57CDB7
Copy CRC DE57CDB7
Track not present in AccurateRip database
Copy OK
Track 4
Filename C:\My Torrents\Dimitri Mitropoulos - Retrospective\Disc 11-15\cd 11\04 - IV. Burlesca.wav
Pre-gap length 0:00:02.00
Peak level 79.7 %
Track quality 100.0 %
Test CRC 298BB957
Copy CRC 298BB957
Track not present in AccurateRip database
Copy OK
None of the tracks are present in the AccurateRip database
No errors occurred
End of status report

CD12

Exact Audio Copy V0.99 prebeta 5 from 4. May 2009
EAC extraction logfile from 21. May 2010, 12:43
Dimitri Mitropoulos / Samuel Barber - Vanessa (act 1)
Used drive : PLEXTOR DVDR PX-755A Adapter: 3 ID: 0
Read mode : Secure
Utilize accurate stream : Yes
Defeat audio cache : Yes
Make use of C2 pointers : No
Read offset correction : 30
Overread into Lead-In and Lead-Out : No
Fill up missing offset samples with silence : Yes
Delete leading and trailing silent blocks : No
Null samples used in CRC calculations : Yes
Used interface : Installed external ASPI interface
Gap handling : Appended to previous track
Used output format : User Defined Encoder
Selected bitrate : 128 kBit/s
Quality : High
Add ID3 tag : No
Command line compressor : C:\Program Files\Exact Audio Copy\flac.exe
Additional command line options : -8 -V -T "ARTIST=%a" -T "TITLE=%t" -T "ALBUM=%g" -T "DATE=%y" -T "TRACKNUMBER=%n" -T "TOTALTRACKS=%x" -T "GENRE=%m" -T "ALBUM ARTIST=%v" -T "ALBUMARTIST=%v" -T "COMMENT=EAC V0.99 prebeta 4, Secure Mode, Test & Copy, Accurat
TOC of the extracted CD
Track | Start | Length | Start sector | End sector
---------------------------------------------------------
1 | 0:00.00 | 3:32.65 | 0 | 15964
2 | 3:32.65 | 5:01.62 | 15965 | 38601
3 | 8:34.52 | 2:18.35 | 38602 | 48986
4 | 10:53.12 | 1:41.13 | 48987 | 56574
5 | 12:34.25 | 4:47.47 | 56575 | 78146
6 | 17:21.72 | 1:52.58 | 78147 | 86604
7 | 19:14.55 | 5:38.47 | 86605 | 112001
Track 1
Filename C:\My Torrents\Dimitri Mitropoulos - Retrospective\Disc 11-15\cd 12\01 - Potage Creme Aux Perles.wav
Pre-gap length 0:00:02.00
Peak level 76.3 %
Track quality 99.9 %
Test CRC 14748080
Copy CRC 14748080
Track not present in AccurateRip database
Copy OK
Track 2
Filename C:\My Torrents\Dimitri Mitropoulos - Retrospective\Disc 11-15\cd 12\02 - No, I Cannot Understand.wav
Pre-gap length 0:00:02.00
Peak level 69.6 %
Track quality 99.9 %
Test CRC 5FF891AE
Copy CRC 5FF891AE
Track not present in AccurateRip database
Copy OK
Track 3
Filename C:\My Torrents\Dimitri Mitropoulos - Retrospective\Disc 11-15\cd 12\03 - Must The Winter Come So Soon.wav
Pre-gap length 0:00:02.00
Peak level 33.8 %
Track quality 99.9 %
Test CRC FB29F8C7
Copy CRC FB29F8C7
Track not present in AccurateRip database
Copy OK
Track 4
Filename C:\My Torrents\Dimitri Mitropoulos - Retrospective\Disc 11-15\cd 12\04 - Listen... They Are Here.wav
Pre-gap length 0:00:02.00
Peak level 81.0 %
Track quality 100.0 %
Test CRC 26BA062B
Copy CRC 26BA062B
Track not present in AccurateRip database
Copy OK
Track 5
Filename C:\My Torrents\Dimitri Mitropoulos - Retrospective\Disc 11-15\cd 12\05 - Do Not Utter A Word, Anatol.wav
Pre-gap length 0:00:02.00
Peak level 85.3 %
Track quality 100.0 %
Test CRC 913AC4A6
Copy CRC 913AC4A6
Track not present in AccurateRip database
Copy OK
Track 6
Filename C:\My Torrents\Dimitri Mitropoulos - Retrospective\Disc 11-15\cd 12\06 - Yes, I Believe I Shall Love You.wav
Pre-gap length 0:00:02.00
Peak level 79.9 %
Track quality 100.0 %
Test CRC 96B56413
Copy CRC 96B56413
Track not present in AccurateRip database
Copy OK
Track 7
Filename C:\My Torrents\Dimitri Mitropoulos - Retrospective\Disc 11-15\cd 12\07 - Who Are You.wav
Pre-gap length 0:00:02.00
Peak level 64.3 %
Track quality 100.0 %
Test CRC 433DFB07
Copy CRC 433DFB07
Track not present in AccurateRip database
Copy OK
None of the tracks are present in the AccurateRip database
No errors occurred
End of status report

CD13

Exact Audio Copy V0.99 prebeta 5 from 4. May 2009
EAC extraction logfile from 28. May 2010, 11:42
Dimitri Mitropoulos / Samuel Barber - Vanessa (act 2)
Used drive : PLEXTOR CD-R PX-W5224A Adapter: 3 ID: 1
Read mode : Secure
Utilize accurate stream : Yes
Defeat audio cache : Yes
Make use of C2 pointers : No
Read offset correction : 30
Overread into Lead-In and Lead-Out : No
Fill up missing offset samples with silence : Yes
Delete leading and trailing silent blocks : No
Null samples used in CRC calculations : Yes
Used interface : Installed external ASPI interface
Gap handling : Appended to previous track
Used output format : User Defined Encoder
Selected bitrate : 128 kBit/s
Quality : High
Add ID3 tag : No
Command line compressor : C:\Program Files\Exact Audio Copy\flac.exe
Additional command line options : -8 -V -T "ARTIST=%a" -T "TITLE=%t" -T "ALBUM=%g" -T "DATE=%y" -T "TRACKNUMBER=%n" -T "TOTALTRACKS=%x" -T "GENRE=%m" -T "ALBUM ARTIST=%v" -T "ALBUMARTIST=%v" -T "COMMENT=EAC V0.99 prebeta 4, Secure Mode, Test & Copy, Accurat
TOC of the extracted CD
Track | Start | Length | Start sector | End sector
---------------------------------------------------------
1 | 0:00.00 | 4:10.67 | 0 | 18816
2 | 4:10.67 | 3:01.70 | 18817 | 32461
3 | 7:12.62 | 2:23.35 | 32462 | 43221
4 | 9:36.22 | 1:21.03 | 43222 | 49299
5 | 10:57.25 | 4:06.07 | 49300 | 67756
6 | 15:03.32 | 4:03.08 | 67757 | 85989
7 | 19:06.40 | 5:11.10 | 85990 | 109324
8 | 24:17.50 | 4:32.45 | 109325 | 129769
Track 1
Filename C:\My Torrents\Dimitri Mitropoulos - Retrospective\Disc 11-15\cd 13\01 - And then.wav
Pre-gap length 0:00:02.00
Peak level 53.1 %
Track quality 100.0 %
Test CRC 0D80EFB5
Copy CRC 0D80EFB5
Track not present in AccurateRip database
Copy OK
Track 2
Filename C:\My Torrents\Dimitri Mitropoulos - Retrospective\Disc 11-15\cd 13\02 - No, you are not as good a skater.wav
Pre-gap length 0:00:02.00
Peak level 34.4 %
Track quality 99.9 %
Test CRC A5EF8041
Copy CRC A5EF8041
Track not present in AccurateRip database
Copy OK
Track 3
Filename C:\My Torrents\Dimitri Mitropoulos - Retrospective\Disc 11-15\cd 13\03 - Under the willow tree.wav
Pre-gap length 0:00:02.00
Peak level 64.4 %
Track quality 99.9 %
Test CRC 50F60F8A
Copy CRC 50F60F8A
Track not present in AccurateRip database
Copy OK
Track 4
Filename C:\My Torrents\Dimitri Mitropoulos - Retrospective\Disc 11-15\cd 13\04 - Erika, I'm so happy.wav
Pre-gap length 0:00:02.00
Peak level 45.3 %
Track quality 99.8 %
Test CRC 3C39FBF7
Copy CRC 3C39FBF7
Track not present in AccurateRip database
Copy OK
Track 5
Filename C:\My Torrents\Dimitri Mitropoulos - Retrospective\Disc 11-15\cd 13\05 - Our arms entwined.wav
Pre-gap length 0:00:02.00
Peak level 59.2 %
Track quality 100.0 %
Test CRC E7A0201C
Copy CRC E7A0201C
Track not present in AccurateRip database
Copy OK
Track 6
Filename C:\My Torrents\Dimitri Mitropoulos - Retrospective\Disc 11-15\cd 13\06 - Did you hear her.wav
Pre-gap length 0:00:02.00
Peak level 47.7 %
Track quality 100.0 %
Test CRC 78703F19
Copy CRC 78703F19
Track not present in AccurateRip database
Copy OK
Track 7
Filename C:\My Torrents\Dimitri Mitropoulos - Retrospective\Disc 11-15\cd 13\07 - Outside this house the world has changed.wav
Pre-gap length 0:00:02.00
Peak level 43.5 %
Track quality 99.9 %
Test CRC 38634B99
Copy CRC 38634B99
Track not present in AccurateRip database
Copy OK
Track 8
Filename C:\My Torrents\Dimitri Mitropoulos - Retrospective\Disc 11-15\cd 13\08 - Orchestral Interlude - Hymn.wav
Pre-gap length 0:00:02.00
Peak level 71.3 %
Track quality 99.9 %
Test CRC B85CC9BE
Copy CRC B85CC9BE
Track not present in AccurateRip database
Copy OK
None of the tracks are present in the AccurateRip database
No errors occurred
End of status report

CD14

Exact Audio Copy V0.99 prebeta 5 from 4. May 2009
EAC extraction logfile from 28. May 2010, 10:34
Dimitri Mitropoulos / Samuel Barber - Vanessa (act 3)
Used drive : PLEXTOR CD-R PX-W5224A Adapter: 3 ID: 1
Read mode : Secure
Utilize accurate stream : Yes
Defeat audio cache : Yes
Make use of C2 pointers : No
Read offset correction : 30
Overread into Lead-In and Lead-Out : No
Fill up missing offset samples with silence : Yes
Delete leading and trailing silent blocks : No
Null samples used in CRC calculations : Yes
Used interface : Installed external ASPI interface
Gap handling : Appended to previous track
Used output format : User Defined Encoder
Selected bitrate : 128 kBit/s
Quality : High
Add ID3 tag : No
Command line compressor : C:\Program Files\Exact Audio Copy\flac.exe
Additional command line options : -8 -V -T "ARTIST=%a" -T "TITLE=%t" -T "ALBUM=%g" -T "DATE=%y" -T "TRACKNUMBER=%n" -T "TOTALTRACKS=%x" -T "GENRE=%m" -T "ALBUM ARTIST=%v" -T "ALBUMARTIST=%v" -T "COMMENT=EAC V0.99 prebeta 4, Secure Mode, Test & Copy, Accurat
TOC of the extracted CD
Track | Start | Length | Start sector | End sector
---------------------------------------------------------
1 | 0:00.00 | 3:17.30 | 0 | 14804
2 | 3:17.30 | 3:16.50 | 14805 | 29554
3 | 6:34.05 | 1:26.32 | 29555 | 36036
4 | 8:00.37 | 6:24.00 | 36037 | 64836
5 | 14:24.37 | 6:25.63 | 64837 | 93774
Track 1
Filename C:\My Torrents\Dimitri Mitropoulos - Retrospective\Disc 11-15\cd 14\01 - The Count and the Countess d'Albany.wav
Pre-gap length 0:00:02.00
Peak level 57.4 %
Track quality 100.0 %
Test CRC 48DAC163
Copy CRC 48DAC163
Track not present in AccurateRip database
Copy OK
Track 2
Filename C:\My Torrents\Dimitri Mitropoulos - Retrospective\Disc 11-15\cd 14\02 - I Should Never Have Been A Doctor.wav
Pre-gap length 0:00:02.00
Peak level 45.1 %
Track quality 100.0 %
Test CRC 4AC5A5D7
Copy CRC 4AC5A5D7
Track not present in AccurateRip database
Copy OK
Track 3
Filename C:\My Torrents\Dimitri Mitropoulos - Retrospective\Disc 11-15\cd 14\03 - Here You Are.wav
Pre-gap length 0:00:02.00
Peak level 28.4 %
Track quality 100.0 %
Test CRC 9EE16D60
Copy CRC 9EE16D60
Track not present in AccurateRip database
Copy OK
Track 4
Filename C:\My Torrents\Dimitri Mitropoulos - Retrospective\Disc 11-15\cd 14\04 - At Last I Found You.wav
Pre-gap length 0:00:02.00
Peak level 68.5 %
Track quality 100.0 %
Test CRC 5230F732
Copy CRC 5230F732
Track not present in AccurateRip database
Copy OK
Track 5
Filename C:\My Torrents\Dimitri Mitropoulos - Retrospective\Disc 11-15\cd 14\05 - Nothing To Worry About.wav
Pre-gap length 0:00:02.00
Peak level 92.6 %
Track quality 99.9 %
Test CRC 222DFE5E
Copy CRC 222DFE5E
Track not present in AccurateRip database
Copy OK
None of the tracks are present in the AccurateRip database
No errors occurred
End of status report

CD15

Exact Audio Copy V0.99 prebeta 5 from 4. May 2009
EAC extraction logfile from 28. May 2010, 13:18
Dimitri Mitropoulos / Samuel Barber - Vanessa (act 4)
Used drive : PLEXTOR CD-R PX-W5224A Adapter: 3 ID: 1
Read mode : Secure
Utilize accurate stream : Yes
Defeat audio cache : Yes
Make use of C2 pointers : No
Read offset correction : 30
Overread into Lead-In and Lead-Out : No
Fill up missing offset samples with silence : Yes
Delete leading and trailing silent blocks : No
Null samples used in CRC calculations : Yes
Used interface : Installed external ASPI interface
Gap handling : Appended to previous track
Used output format : User Defined Encoder
Selected bitrate : 128 kBit/s
Quality : High
Add ID3 tag : No
Command line compressor : C:\Program Files\Exact Audio Copy\flac.exe
Additional command line options : -8 -V -T "ARTIST=%a" -T "TITLE=%t" -T "ALBUM=%g" -T "DATE=%y" -T "TRACKNUMBER=%n" -T "TOTALTRACKS=%x" -T "GENRE=%m" -T "ALBUM ARTIST=%v" -T "ALBUMARTIST=%v" -T "COMMENT=EAC V0.99 prebeta 4, Secure Mode, Test & Copy, Accurat
TOC of the extracted CD
Track | Start | Length | Start sector | End sector
---------------------------------------------------------
1 | 0:00.00 | 4:29.10 | 0 | 20184
2 | 4:29.10 | 2:04.22 | 20185 | 29506
3 | 6:33.32 | 5:28.65 | 29507 | 54171
4 | 12:02.22 | 1:07.53 | 54172 | 59249
5 | 13:10.00 | 1:38.67 | 59250 | 66666
6 | 14:48.67 | 2:07.28 | 66667 | 76219
7 | 16:56.20 | 3:34.10 | 76220 | 92279
8 | 20:30.30 | 1:12.05 | 92280 | 97684
9 | 21:42.35 | 2:19.03 | 97685 | 108112
10 | 24:01.38 | 6:07.12 | 108113 | 135649
11 | 30:08.50 | 3:46.08 | 135650 | 152607
12 | 33:54.58 | 6:13.00 | 152608 | 180582
Track 1
Filename C:\My Torrents\Dimitri Mitropoulos - Retrospective\Disc 11-15\cd 15\01 - Why did no-one warn me.wav
Pre-gap length 0:00:02.00
Peak level 85.0 %
Track quality 100.0 %
Test CRC 953BAA1F
Copy CRC 953BAA1F
Track not present in AccurateRip database
Copy OK
Track 2
Filename C:\My Torrents\Dimitri Mitropoulos - Retrospective\Disc 11-15\cd 15\02 - Why must the greatest sorrows.wav
Pre-gap length 0:00:02.00
Peak level 88.5 %
Track quality 100.0 %
Test CRC 84224E32
Copy CRC 84224E32
Track not present in AccurateRip database
Copy OK
Track 3
Filename C:\My Torrents\Dimitri Mitropoulos - Retrospective\Disc 11-15\cd 15\03 - There, look.wav
Pre-gap length 0:00:02.00
Peak level 99.9 %
Track quality 100.0 %
Test CRC 2B47D6B8
Copy CRC 2B47D6B8
Track not present in AccurateRip database
Copy OK
Track 4
Filename C:\My Torrents\Dimitri Mitropoulos - Retrospective\Disc 11-15\cd 15\04 - Anatol, tell me the truth.wav
Pre-gap length 0:00:02.00
Peak level 68.6 %
Track quality 100.0 %
Test CRC 9A70D35B
Copy CRC 9A70D35B
Track not present in AccurateRip database
Copy OK
Track 5
Filename C:\My Torrents\Dimitri Mitropoulos - Retrospective\Disc 11-15\cd 15\05 - Take me away.wav
Pre-gap length 0:00:02.00
Peak level 73.5 %
Track quality 100.0 %
Test CRC C05CDDCB
Copy CRC C05CDDCB
Track not present in AccurateRip database
Copy OK
Track 6
Filename C:\My Torrents\Dimitri Mitropoulos - Retrospective\Disc 11-15\cd 15\06 - Grandmother.wav
Pre-gap length 0:00:02.00
Peak level 81.4 %
Track quality 100.0 %
Test CRC 2009C6C6
Copy CRC 2009C6C6
Track not present in AccurateRip database
Copy OK
Track 7
Filename C:\My Torrents\Dimitri Mitropoulos - Retrospective\Disc 11-15\cd 15\07 - Intermezzo.wav
Pre-gap length 0:00:02.00
Peak level 63.9 %
Track quality 100.0 %
Test CRC 1E115C39
Copy CRC 1E115C39
Track not present in AccurateRip database
Copy OK
Track 8
Filename C:\My Torrents\Dimitri Mitropoulos - Retrospective\Disc 11-15\cd 15\08 - By the time we arrive.wav
Pre-gap length 0:00:02.00
Peak level 34.3 %
Track quality 99.8 %
Test CRC C1A46F62
Copy CRC C1A46F62
Track not present in AccurateRip database
Copy OK
Track 9
Filename C:\My Torrents\Dimitri Mitropoulos - Retrospective\Disc 11-15\cd 15\09 - For every love.wav
Pre-gap length 0:00:02.00
Peak level 61.3 %
Track quality 100.0 %
Test CRC 63828E90
Copy CRC 63828E90
Track not present in AccurateRip database
Copy OK
Track 10
Filename C:\My Torrents\Dimitri Mitropoulos - Retrospective\Disc 11-15\cd 15\10 - And you, my friend.wav
Pre-gap length 0:00:02.00
Peak level 83.2 %
Track quality 100.0 %
Test CRC 805CB774
Copy CRC 805CB774
Track not present in AccurateRip database
Copy OK
Track 11
Filename C:\My Torrents\Dimitri Mitropoulos - Retrospective\Disc 11-15\cd 15\11 - To leave, to break.wav
Pre-gap length 0:00:02.00
Peak level 90.3 %
Track quality 99.9 %
Test CRC A426C650
Copy CRC A426C650
Track not present in AccurateRip database
Copy OK
Track 12
Filename C:\My Torrents\Dimitri Mitropoulos - Retrospective\Disc 11-15\cd 15\12 - Goodbye, Erika.wav
Pre-gap length 0:00:02.00
Peak level 100.0 %
Track quality 100.0 %
Test CRC 0EE22AA8
Copy CRC 0EE22AA8
Track not present in AccurateRip database
Copy OK
None of the tracks are present in the AccurateRip database
No errors occurred
End of status report
Доп. информация:
Димитрис Митропулос (греч. Δημήτρης Μητρόπουλος; 18 февраля (1 марта по новому стилю) 1896, Афины — 2 ноября 1960, Милан) — греческо-американский дирижёр, пианист и композитор.
Музыкальная одарённость Митропулоса проявилась в отрочестве, когда с 11- до 14-летнего возраста он проводил у себя дома каждую субботу музыкальные собрания; известно, что к этому времени относится его первое сочинение — соната для скрипки и фортепиано (не сохранилась). Митропулос учился в Афинской консерватории, потом в Брюсселе и наконец в Берлине у Ферруччо Бузони, а затем в 1921—1925 гг. был ассистентом дирижёра Берлинской оперы Эриха Кляйбера. В дальнейшем Митропулос занимал ряд музыкальных должностей в Греции, продолжая часто выступать в Германии; интересно, что в 1930 г. он выступил в Берлине в качестве пианиста и дирижёра одновременно, при исполнении фортепианного концерта руководя оркестром из-за фортепиано, — практика, обычная для старинного музицирования и довольно неожиданная для этого времени.
В 1936 г. Митропулос впервые гастролировал в США, и в конце 1930-х фактически переселился в Америку, получив гражданство в 1946 г. В 1937—1949 гг. он был главным дирижёром Миннеаполисского симфонического оркестра, в 1951—1957 гг. возглавлял Нью-Йоркский филармонический оркестр, уступив этот последний пост своему ученику Леонарду Бернстайну. Одновременно с 1954 г. и до самой смерти Митропулос руководил оркестром нью-йоркской Метрополитен Опера.
Митропулос скончался в Милане во время репетиции Третьей симфонии Густава Малера — одного из важнейших авторов своего репертуара. В число важных для Митропулоса авторов входили также композиторы Второй Венской школы. Как пианист Митропулос впервые исполнил и записал фортепианный концерт Эрнста Кшенека.
Митропулос был известен своей фотографической памятью, позволявшей ему практически не пользоваться партитурами (не только на концертах, но и на репетициях), и почти монашеским образом жизни, вызванной глубокой приверженностью православию.
[teatrix.ru].t9750.torrent 
Торрент: Зарегистрирован [ 2015-10-23 17:26 ] · 10C8DE64A4A326834378E60D7F1BBD659C4B481E

Скачать .torrent

Скачать

28 KB

Статус: проверено
Скачан: 0 раз
Размер: 2.19 GB
terms.php



Быстрый ответ

Имя:

      
Для отправки сообщений необходимо включить JavaScript
Показать сообщения:    

Текущее время: 19-Янв 16:04

Часовой пояс: UTC + 3


Вы можете начинать темы
Вы можете отвечать на сообщения
Вы не можете редактировать свои сообщения
Вы не можете удалять свои сообщения
Вы не можете голосовать в опросах
Вы не можете прикреплять файлы к сообщениям
Вы можете скачивать файлы