(classical) Pierre Boulez conducts Bela Bartok (8 CD) - 2009, FLAC (tracks+.cue), lossless


Статистика раздачи [Обновить пиров]
Размер:  2.1 GB   |    Зарегистрирован:  1 год 1 месяц   |    Скачан:  1 раз

Полного источника не было: 16 дней

Личеров:  1  [  0 KB/s  ]   Подробная статистика пиров
 
   
 
 
 

[Цитировать]

Pierre Boulez conducts Bartok (8 CD)
Жанр: classical
Год выпуска диска: 2009
Производитель диска: Deutsche Grammophon - 477 8125
Аудио кодек: FLAC
Тип рипа: tracks+.cue
Битрейт аудио: lossless
Продолжительность: 9:05:10 (59:50 + 1:12:07 + 1:16:08 + 1:10:19 + 1:03:17 + 57:59 + 1:13:06 + 1:02:06)
Источник: ClassicBlog
Boulez conducts Bela Bartok
Complete Recordings
on Deutsche Grammophon
Zimerman · Grimaud
Chicago Symphony Orchestra
Berliner Philharmoniker
London Symphony Orchestra a.o.

CD1

CD 1:Bela Bartok: Concerto for Orchestra; Orchestral Pieces, Op.12
Four Orchestral Pieces op.12 (Sz 51)
1 1. Preludio [6:32]
2 2. Scherzo: allegro [6:13]
3 3. Intermezzo: Moderato [5:03]
4 4. Marcia funebre: Maestoso [4:57]
Concerto for Orchestra, Sz. 116
5 1. Introduzione (Andante non troppo - Allegro vivace [9:30]
6 2. Giuoco della coppie (Allegretto scherzando) [6:26]
7 3. Elegia (Andante, non troppo)[7:43]
8 4. Intermezzo interrotto (Allegretto)[4:02]
9 5. Finale (Pesante - Presto)[9:24]
Chicago Symphony Orchestra, Pierre Boulez

CD2

CD 2: Bela Bartok: Divertimento; Dance Suite; Hungarian Sketches; Two Pictures
Dance Suite, Sz. 77
1 1. Moderato [3:41]
2 2. Allegro molto [2:16]
3 3. Allegro vivace [2:57]
4 4. Molto tranquillo [2:36]
5 5. Comodo [1:01]
6 6. Finale (Allegro) [4:05]
2 Pictures, (Op.10) Sz. 46
7 In voller Blüte [8:42]
8 Dorftanz [9:46]
Hungarian Sketches, Sz. 97
9 1. An Evening in the Village [2:48]
10 2. Bear Melody [1:29]
11 3. Melody [2:21]
12 4. Slightly Tipsy [2:11]
13 5. Swineherd's Dance [2:02]
Divertimento for Strings, Sz. 113
14 1. Allegro non troppo [9:02]
15 2. Molto adagio [9:35]
16 3. Allegro assai [7:35]
Chicago Symphony Orchestra, Pierre Boulez

CD3

CD 3: Bela Bartok: Piano Concertos Nos.1 - 3
Piano Concerto No.1, BB 91, Sz. 83
1 1. Allegro moderato - Allegro [8:45]
2 2. Andante [7:52]
3 Allegro - 3. Allegro molto [6:38]
Krystian Zimerman, Chicago Symphony Orchestra, Pierre Boulez
Piano Concerto No.2, BB 101, Sz. 95
4 1. Allegro [9:25]
5 2. Adagio - Più adagio - Presto [11:26]
6 3. Allegro molto [6:13]
Leif Ove Andsnes, Berliner Philharmoniker, Pierre Boulez
Piano Concerto No.3, BB 127, Sz. 119
7 1. Allegretto [7:33]
8 2. Adagio religioso [11:13]
9 3. Allegro vivace [7:03]
Hélène Grimaud, London Symphony Orchestra, Pierre Boulez

CD4

CD 4: Bela Bartok: Concerto for Two Pianos, Percussion and Orchestra; Violin Concerto No.1; Viola Concerto
Concerto for 2 Pianos, Percussion, and Orchestra, Sz.115
1 Assai lento - Allegro molto [12:48]
2 Lento ma non troppo [6:29]
3 Allegro ma non troppo [6:18]
Pierre-Laurent Aimard, Tamara Stefanovich, Neil Percy, Nigel Thomas, London Symphony Orchestra, Pierre Boulez
Violin Concerto No.1 (Op.posth), Sz36
4 1. Andante sostenuto [9:33]
5 2. Allegro giocoso [11:47]
Gidon Kremer, Berliner Philharmoniker, Pierre Boulez
Concerto for Viola and Orchestra, op.post.
Version: Tibor Serly
6 1. Moderato - Lento parlando [14:31]
7 2. Adagio religioso - Allegretto [4:37]
8 3. Allegro vivace [4:16]
Yuri Bashmet, Berliner Philharmoniker, Pierre Boulez

CD5

CD 5: Bela Bartok: Violin Concerto No.2; Rhapsodies Nos.1 & 2
Violin Concerto No.2, Sz.112
1 1. Allegro non troppo [16:39]
2 2. Andante tranquillo [10:50]
3 3. Allegro molto [12:59]
Rhapsody No.1 for Violin and Orchestra, Sz. 87
4 1. Moderato [5:15]
5 2. Allegretto moderato [5:57]
Rhapsody for Violin and Orchestra no.2 Sz 90
6 1. Lassú: Moderato [5:15]
7 2. Friss: Allegro moderato [6:22]
Gil Shaham, Chicago Symphony Orchestra, Pierre Boulez

CD6

CD 6: Bela Bartok: Bluebeard's Castle
Bluebeard's Castle, Sz. 48 (Op.11)
1 Prologue - Opening Scene. "Megérkeztünk" [5:06]
2 "Ez a Kékszakállú véra?" [5:16]
3 "Nagy csukott ajtókat" [5:23]
4 Door 1. "Jaj!" "Mit látsz? Mit látsz?" "Láncok, kések" [4:25]
5 Door 2. "Mit látsz?" "Százkegyetlen szörnyü fegyver" [3:55]
6 Door 3. "Oh, be sok kincs! Oh, be sok kincs!" [2:25]
7 Door 4. "Oh! virágok! Oh! ilatoskert!" [4:18]
8 Fifth Door. Kékszakállú: "Nézd hogy derül már a váram" [6:35]
9 Door 6. "Csendes fehér tavat látok" [4:32]
10 "Az utolsót nem nyitom ki" [4:09]
11 "Tudom, tudom, Kékszakállú" [3:24]
12 Door 7. "Lásd a régi aszszonyokat" [8:31]
Jessye Norman, László Polgár, Chicago Symphony Orchestra, Pierre Boulez

CD7

CD 7: Bela Bartok: Cantata profana, Sz94; The Wooden Prince, Op.13
Cantata Profana, BB.100, Sz.94 - The Nine Splendid Stags
1 1. Molto moderato [7:00]
2 2. Andante [8:00]
3 3. Moderato [3:07]
John Aler, John Tomlinson, Chicago Symphony Orchestra, Pierre Boulez, Chicago Symphony Chorus, Margaret Hillis
The Wooden Prince, Sz. 60 (Op.13)
4 Introduction [5:14]
5 1st Dance: Dance of the Princess in the Forest [5:05]
6 2nd Dance: Dance of the Trees [5:27]
7 3rd Dance: Dance of the Waves [11:36]
8 4th Dance: Dance of the Princess with the Wooden Doll [15:21]
9 5th Dance: The Princess pulls and tugs at the Wooden Prince and tries to make him dance [1:55]
10 6th Dance: She tries to attract the real Prince with her seductive dancing [1:38]
11 7th Dance: Dismayed, the Princess attempts to hurry after the Prince, but the Forest bars her way [8:43]
Chicago Symphony Orchestra, Pierre Boulez

CD8

CD 8: Bela Bartok: The Miraculous Mandarin, Op.19; Music for Strings, Precussion and Celesta, Sz 106
The Miraculous Mandarin, BB 82, Sz. 73 (Op.19)
1 Allegro: Introduction n[3:03]
2 Moderato: First decoy game [3:44]
3 Second decoy game [3:13]
4 Sostenuto: Third decoy game [1:41]
5 Maestoso: The Mandarin enters [6:52]
6 Allegro: The girl sinks down to embrace him [2:29]
7 Sempre vivo: The tramps leap out [2:06]
8 Adagio: Suddenly the Mandarin's head appears[3:01]
9 Agitato: Again, the frightened tramps discuss how to eliminate the Mandarin [1:25]
Chicago Symphony Orchestra, Pierre Boulez
10 Molto moderato: The body of the Mandarin begins to glow with a greenish blue light [1:47]
Chicago Symphony Orchestra, Pierre Boulez, Chicago Symphony Chorus, Duain Wolfe
11 Più mosso - Vivo - She resists no longer, - they embrace.[2:21]
Music for Strings, Percussion and Celesta, Sz. 106
12 1. Andante tranquillo [7:55]
13 2. Allegro [7:35]
14 3. Adagio [7:27]
15 4. Allegro molto [7:27]
Chicago Symphony Orchestra, Pierre Boulez

Дщп EAC CD1

Exact Audio Copy V0.99 prebeta 5 from 4. May 2009
EAC extraction logfile from 31. January 2010, 17:07
Bartók - Boulez cd 1 / Four Orchestral Pieces - Concerto For Orchestra
Used drive : Optiarc DVD RW AD-7561S Adapter: 0 ID: 1
Read mode : Secure
Utilize accurate stream : Yes
Defeat audio cache : No
Make use of C2 pointers : No
Read offset correction : 6
Overread into Lead-In and Lead-Out : No
Fill up missing offset samples with silence : Yes
Delete leading and trailing silent blocks : No
Null samples used in CRC calculations : Yes
Used interface : Native Win32 interface for Win NT & 2000
Gap handling : Appended to previous track
Used output format : User Defined Encoder
Selected bitrate : 640 kBit/s
Quality : High
Add ID3 tag : No
Command line compressor : C:\Program Files (x86)\FLAC\flac.exe
Additional command line options : -8 -V -T "artist=%a" -T "title=%t" -T "album=%g" -T "date=%y" -T "tracknumber=%n" -T "genre=%m" %s
TOC of the extracted CD
Track | Start | Length | Start sector | End sector
---------------------------------------------------------
1 | 0:00.32 | 6:32.00 | 32 | 29431
2 | 6:32.32 | 6:13.00 | 29432 | 57406
3 | 12:45.32 | 5:03.00 | 57407 | 80131
4 | 17:48.32 | 5:06.00 | 80132 | 103081
5 | 22:54.32 | 9:30.00 | 103082 | 145831
6 | 32:24.32 | 6:26.00 | 145832 | 174781
7 | 38:50.32 | 7:43.00 | 174782 | 209506
8 | 46:33.32 | 4:02.00 | 209507 | 227656
9 | 50:35.32 | 9:24.00 | 227657 | 269956
Track 1
Filename D:\Bartok-Boulez-DG\Bartók - Boulez cd 1 - Four Orchestral Pieces - Concerto For Orchestra\01 - Four Orchestral Pieces Op. 12 (Sz 51) - 1. Preludio - Moderato.wav
Pre-gap length 0:00:02.32
Peak level 88.9 %
Track quality 100.0 %
Test CRC DF028306
Copy CRC DF028306
Cannot be verified as accurate (confidence 12) [E4D9593F], AccurateRip returned [48EBBC76]
Copy OK
Track 2
Filename D:\Bartok-Boulez-DG\Bartók - Boulez cd 1 - Four Orchestral Pieces - Concerto For Orchestra\02 - 2. Scherzo - Allegro.wav
Peak level 99.9 %
Track quality 99.9 %
Test CRC 2DF0E119
Copy CRC 2DF0E119
Cannot be verified as accurate (confidence 12) [D8CF7FF4], AccurateRip returned [7BA5D1E6]
Copy OK
Track 3
Filename D:\Bartok-Boulez-DG\Bartók - Boulez cd 1 - Four Orchestral Pieces - Concerto For Orchestra\03 - 3. Intermezzo - Moderato.wav
Peak level 70.7 %
Track quality 99.9 %
Test CRC 4D59EE1C
Copy CRC 4D59EE1C
Cannot be verified as accurate (confidence 12) [DCA965BA], AccurateRip returned [11F7A132]
Copy OK
Track 4
Filename D:\Bartok-Boulez-DG\Bartók - Boulez cd 1 - Four Orchestral Pieces - Concerto For Orchestra\04 - 4. Marcia Funebre - Maestoso.wav
Peak level 99.9 %
Track quality 99.8 %
Test CRC E2A63F46
Copy CRC E2A63F46
Cannot be verified as accurate (confidence 12) [84F1420F], AccurateRip returned [491A8EED]
Copy OK
Track 5
Filename D:\Bartok-Boulez-DG\Bartók - Boulez cd 1 - Four Orchestral Pieces - Concerto For Orchestra\05 - Concerto For Orchestra (Sz 116) - 1. Introduzione - Andante Non Troppo - Allegro vivace - Tempo I.wav
Pre-gap length 0:00:09.00
Peak level 99.9 %
Track quality 99.9 %
Test CRC 830DCDA5
Copy CRC 830DCDA5
Cannot be verified as accurate (confidence 11) [C32D9508], AccurateRip returned [176E85BE]
Copy OK
Track 6
Filename D:\Bartok-Boulez-DG\Bartók - Boulez cd 1 - Four Orchestral Pieces - Concerto For Orchestra\06 - 2. Giuoco Delle Coppie - Allegretto Scherzando.wav
Peak level 34.3 %
Track quality 99.9 %
Test CRC B5DA7C1D
Copy CRC B5DA7C1D
Cannot be verified as accurate (confidence 12) [394878FC], AccurateRip returned [FAC47181]
Copy OK
Track 7
Filename D:\Bartok-Boulez-DG\Bartók - Boulez cd 1 - Four Orchestral Pieces - Concerto For Orchestra\07 - 3. Elegia - Andante, Non Troppo.wav
Peak level 99.9 %
Track quality 99.9 %
Test CRC F2FCC87D
Copy CRC F2FCC87D
Cannot be verified as accurate (confidence 12) [389B2127], AccurateRip returned [4463FF00]
Copy OK
Track 8
Filename D:\Bartok-Boulez-DG\Bartók - Boulez cd 1 - Four Orchestral Pieces - Concerto For Orchestra\08 - 4. Intermezzo Interrotto - Allegretto.wav
Peak level 68.4 %
Track quality 100.0 %
Test CRC DB47A8F4
Copy CRC DB47A8F4
Cannot be verified as accurate (confidence 12) [3F185D4D], AccurateRip returned [E58A9175]
Copy OK
Track 9
Filename D:\Bartok-Boulez-DG\Bartók - Boulez cd 1 - Four Orchestral Pieces - Concerto For Orchestra\09 - 5. Finale - Pesante - Presto.wav
Peak level 99.9 %
Track quality 100.0 %
Test CRC CC10ABDD
Copy CRC CC10ABDD
Cannot be verified as accurate (confidence 12) [FB96098A], AccurateRip returned [A5E27F9C]
Copy OK
No tracks could be verified as accurate
You may have a different pressing from the one(s) in the database
No errors occurred
End of status report

Дщп EAC CD2

Exact Audio Copy V0.99 prebeta 5 from 4. May 2009
EAC extraction logfile from 31. January 2010, 17:49
Bartók - Boulez cd 2 / Tanz Suite - Two Pictures - Hungarian Sketches - Divertimento
Used drive : Optiarc DVD RW AD-7561S Adapter: 0 ID: 1
Read mode : Secure
Utilize accurate stream : Yes
Defeat audio cache : No
Make use of C2 pointers : No
Read offset correction : 6
Overread into Lead-In and Lead-Out : No
Fill up missing offset samples with silence : Yes
Delete leading and trailing silent blocks : No
Null samples used in CRC calculations : Yes
Used interface : Native Win32 interface for Win NT & 2000
Gap handling : Appended to previous track
Used output format : User Defined Encoder
Selected bitrate : 640 kBit/s
Quality : High
Add ID3 tag : No
Command line compressor : C:\Program Files (x86)\FLAC\flac.exe
Additional command line options : -8 -V -T "artist=%a" -T "title=%t" -T "album=%g" -T "date=%y" -T "tracknumber=%n" -T "genre=%m" %s
TOC of the extracted CD
Track | Start | Length | Start sector | End sector
---------------------------------------------------------
1 | 0:00.32 | 3:40.60 | 32 | 16591
2 | 3:41.17 | 2:16.15 | 16592 | 26806
3 | 5:57.32 | 2:57.25 | 26807 | 40106
4 | 8:54.57 | 2:35.63 | 40107 | 51794
5 | 11:30.45 | 1:01.37 | 51795 | 56406
6 | 12:32.07 | 4:12.25 | 56407 | 75331
7 | 16:44.32 | 8:42.00 | 75332 | 114481
8 | 25:26.32 | 9:53.00 | 114482 | 158956
9 | 35:19.32 | 2:48.00 | 158957 | 171556
10 | 38:07.32 | 1:29.00 | 171557 | 178231
11 | 39:36.32 | 2:21.00 | 178232 | 188806
12 | 41:57.32 | 2:10.63 | 188807 | 198619
13 | 44:08.20 | 2:09.12 | 198620 | 208306
14 | 46:17.32 | 9:02.00 | 208307 | 248956
15 | 55:19.32 | 9:35.00 | 248957 | 292081
16 | 64:54.32 | 7:35.00 | 292082 | 326206
Track 1
Filename D:\Bartok-Boulez-DG\Bartók - Boulez cd 2 - Tanz Suite - Two Pictures - Hungarian Sketches - Divertimento\01 - Tanz Suite Sz77 - 1. Moderato.wav
Pre-gap length 0:00:02.32
Peak level 99.9 %
Track quality 99.9 %
Test CRC A944AC39
Copy CRC A944AC39
Accurately ripped (confidence 2) [1814F585]
Copy OK
Track 2
Filename D:\Bartok-Boulez-DG\Bartók - Boulez cd 2 - Tanz Suite - Two Pictures - Hungarian Sketches - Divertimento\02 - 2. Allegro molto.wav
Peak level 99.9 %
Track quality 100.0 %
Test CRC DA29CB8D
Copy CRC DA29CB8D
Accurately ripped (confidence 2) [4B22BFAF]
Copy OK
Track 3
Filename D:\Bartok-Boulez-DG\Bartók - Boulez cd 2 - Tanz Suite - Two Pictures - Hungarian Sketches - Divertimento\03 - 3. Allegro vivace.wav
Peak level 99.9 %
Track quality 99.9 %
Test CRC 6A28CD9F
Copy CRC 6A28CD9F
Accurately ripped (confidence 2) [37F64987]
Copy OK
Track 4
Filename D:\Bartok-Boulez-DG\Bartók - Boulez cd 2 - Tanz Suite - Two Pictures - Hungarian Sketches - Divertimento\04 - 4. Molto tranquillo.wav
Peak level 17.3 %
Track quality 100.0 %
Test CRC 0296E294
Copy CRC 0296E294
Accurately ripped (confidence 2) [437CBA3A]
Copy OK
Track 5
Filename D:\Bartok-Boulez-DG\Bartók - Boulez cd 2 - Tanz Suite - Two Pictures - Hungarian Sketches - Divertimento\05 - 5. Comodo.wav
Peak level 53.1 %
Track quality 100.0 %
Test CRC 7A3AA064
Copy CRC 7A3AA064
Accurately ripped (confidence 2) [3E413773]
Copy OK
Track 6
Filename D:\Bartok-Boulez-DG\Bartók - Boulez cd 2 - Tanz Suite - Two Pictures - Hungarian Sketches - Divertimento\06 - 6. Finale- Allegro.wav
Peak level 99.9 %
Track quality 99.9 %
Test CRC 138D0185
Copy CRC 138D0185
Accurately ripped (confidence 2) [5A7134FF]
Copy OK
Track 7
Filename D:\Bartok-Boulez-DG\Bartók - Boulez cd 2 - Tanz Suite - Two Pictures - Hungarian Sketches - Divertimento\07 - Two Pictures op10 Sz746 - 1. In voller Bluete.wav
Pre-gap length 0:00:07.00
Peak level 99.9 %
Track quality 99.9 %
Test CRC 8AAEE03C
Copy CRC 8AAEE03C
Accurately ripped (confidence 2) [7875DB4E]
Copy OK
Track 8
Filename D:\Bartok-Boulez-DG\Bartók - Boulez cd 2 - Tanz Suite - Two Pictures - Hungarian Sketches - Divertimento\08 - 2. Dorftanz.wav
Peak level 99.9 %
Track quality 100.0 %
Test CRC 587972D7
Copy CRC 587972D7
Accurately ripped (confidence 2) [091FF717]
Copy OK
Track 9
Filename D:\Bartok-Boulez-DG\Bartók - Boulez cd 2 - Tanz Suite - Two Pictures - Hungarian Sketches - Divertimento\09 - Hungarian Sketches Sz97 - 1. Ein Abend auf dem Lande - Lento rubato - Allegro.wav
Pre-gap length 0:00:07.00
Peak level 27.8 %
Track quality 99.9 %
Test CRC D5561852
Copy CRC D5561852
Accurately ripped (confidence 2) [5D65FB98]
Copy OK
Track 10
Filename D:\Bartok-Boulez-DG\Bartók - Boulez cd 2 - Tanz Suite - Two Pictures - Hungarian Sketches - Divertimento\10 - 2. Barentanz - Allegro vivace.wav
Peak level 69.6 %
Track quality 99.8 %
Test CRC 24CB6C01
Copy CRC 24CB6C01
Accurately ripped (confidence 2) [CFC206AC]
Copy OK
Track 11
Filename D:\Bartok-Boulez-DG\Bartók - Boulez cd 2 - Tanz Suite - Two Pictures - Hungarian Sketches - Divertimento\11 - 3. Melodie - Andante.wav
Peak level 57.2 %
Track quality 100.0 %
Test CRC FF31F3D2
Copy CRC FF31F3D2
Accurately ripped (confidence 2) [FEC7D345]
Copy OK
Track 12
Filename D:\Bartok-Boulez-DG\Bartók - Boulez cd 2 - Tanz Suite - Two Pictures - Hungarian Sketches - Divertimento\12 - 4.Etwas angeheitert - Leggermente ubriaco.wav
Peak level 50.6 %
Track quality 99.9 %
Test CRC 37C48A89
Copy CRC 37C48A89
Accurately ripped (confidence 2) [A5413406]
Copy OK
Track 13
Filename D:\Bartok-Boulez-DG\Bartók - Boulez cd 2 - Tanz Suite - Two Pictures - Hungarian Sketches - Divertimento\13 - 5. Ueroeger Schweinehirtentanz - Allegro molto.wav
Peak level 99.9 %
Track quality 99.9 %
Test CRC 6C109D15
Copy CRC 6C109D15
Accurately ripped (confidence 2) [E4230EC9]
Copy OK
Track 14
Filename D:\Bartok-Boulez-DG\Bartók - Boulez cd 2 - Tanz Suite - Two Pictures - Hungarian Sketches - Divertimento\14 - Divertimento Sz113 - 1. Allegro non troppo.wav
Pre-gap length 0:00:07.00
Peak level 86.8 %
Track quality 100.0 %
Test CRC 568CE9B4
Copy CRC 568CE9B4
Accurately ripped (confidence 2) [5AE1A430]
Copy OK
Track 15
Filename D:\Bartok-Boulez-DG\Bartók - Boulez cd 2 - Tanz Suite - Two Pictures - Hungarian Sketches - Divertimento\15 - 2. Molto adagio.wav
Peak level 49.3 %
Track quality 100.0 %
Test CRC 9F4C7094
Copy CRC 9F4C7094
Accurately ripped (confidence 2) [0F0D6ECA]
Copy OK
Track 16
Filename D:\Bartok-Boulez-DG\Bartók - Boulez cd 2 - Tanz Suite - Two Pictures - Hungarian Sketches - Divertimento\16 - 3. Allegro assai.wav
Peak level 79.0 %
Track quality 100.0 %
Test CRC 1994B81F
Copy CRC 1994B81F
Accurately ripped (confidence 2) [A105F85A]
Copy OK
All tracks accurately ripped
No errors occurred
End of status report

Дщп EAC CD3

Exact Audio Copy V0.99 prebeta 5 from 4. May 2009
EAC extraction logfile from 31. January 2010, 20:49
Bartók - Boulez cd 3 / Piano Concertos 1 - 3
Used drive : Optiarc DVD RW AD-7561S Adapter: 0 ID: 1
Read mode : Secure
Utilize accurate stream : Yes
Defeat audio cache : No
Make use of C2 pointers : No
Read offset correction : 6
Overread into Lead-In and Lead-Out : No
Fill up missing offset samples with silence : Yes
Delete leading and trailing silent blocks : No
Null samples used in CRC calculations : Yes
Used interface : Native Win32 interface for Win NT & 2000
Gap handling : Appended to previous track
Used output format : User Defined Encoder
Selected bitrate : 640 kBit/s
Quality : High
Add ID3 tag : No
Command line compressor : C:\Program Files (x86)\FLAC\flac.exe
Additional command line options : -8 -V -T "artist=%a" -T "title=%t" -T "album=%g" -T "date=%y" -T "tracknumber=%n" -T "genre=%m" %s
TOC of the extracted CD
Track | Start | Length | Start sector | End sector
---------------------------------------------------------
1 | 0:00.00 | 8:45.00 | 0 | 39374
2 | 8:45.00 | 7:52.36 | 39375 | 74810
3 | 16:37.36 | 6:47.39 | 74811 | 105374
4 | 23:25.00 | 9:25.00 | 105375 | 147749
5 | 32:50.00 | 11:26.00 | 147750 | 199199
6 | 44:16.00 | 6:21.00 | 199200 | 227774
7 | 50:37.00 | 7:33.00 | 227775 | 261749
8 | 58:10.00 | 11:12.50 | 261750 | 312199
9 | 69:22.50 | 7:02.46 | 312200 | 343895
Track 1
Filename D:\Bartok-Boulez-DG\Bartók - Boulez cd 3 - Piano Concertos 1 - 3\01 - Piano Concerto No.1 in E minor, Sz.83 (1926) - 1. Allegro moderato - Allegro.wav
Pre-gap length 0:00:02.00
Peak level 99.9 %
Track quality 99.9 %
Test CRC DD9E193B
Copy CRC DD9E193B
Accurately ripped (confidence 30) [569D2671]
Copy OK
Track 2
Filename D:\Bartok-Boulez-DG\Bartók - Boulez cd 3 - Piano Concertos 1 - 3\02 - 2. Andante - Allegro - attacca-.wav
Peak level 67.2 %
Track quality 100.0 %
Test CRC 1ED9D17E
Copy CRC 1ED9D17E
Accurately ripped (confidence 31) [ACFBBAF8]
Copy OK
Track 3
Filename D:\Bartok-Boulez-DG\Bartók - Boulez cd 3 - Piano Concertos 1 - 3\03 - 3. Allegro molto.wav
Peak level 99.7 %
Track quality 100.0 %
Test CRC DBABF2BD
Copy CRC DBABF2BD
Accurately ripped (confidence 30) [DE2D6143]
Copy OK
Track 4
Filename D:\Bartok-Boulez-DG\Bartók - Boulez cd 3 - Piano Concertos 1 - 3\04 - Piano Concerto No.2 in G major, Sz.95 (1930-1) - 1. Allegro.wav
Pre-gap length 0:00:10.00
Peak level 99.9 %
Track quality 100.0 %
Test CRC E4DB02D1
Copy CRC E4DB02D1
Accurately ripped (confidence 30) [26522117]
Copy OK
Track 5
Filename D:\Bartok-Boulez-DG\Bartók - Boulez cd 3 - Piano Concertos 1 - 3\05 - 2. Adagio - Presto - Adagio.wav
Peak level 95.2 %
Track quality 100.0 %
Test CRC F3A0E52D
Copy CRC F3A0E52D
Accurately ripped (confidence 30) [E06D859F]
Copy OK
Track 6
Filename D:\Bartok-Boulez-DG\Bartók - Boulez cd 3 - Piano Concertos 1 - 3\06 - 3. Allegro molto - Presto.wav
Peak level 99.5 %
Track quality 100.0 %
Test CRC AA6D5010
Copy CRC AA6D5010
Accurately ripped (confidence 30) [05580453]
Copy OK
Track 7
Filename D:\Bartok-Boulez-DG\Bartók - Boulez cd 3 - Piano Concertos 1 - 3\07 - Piano Concerto No.3 in E major, Sz.119 (1945, Tibor Serly) - 1. Allegretto.wav
Pre-gap length 0:00:08.00
Peak level 95.5 %
Track quality 100.0 %
Test CRC DC77685D
Copy CRC DC77685D
Accurately ripped (confidence 30) [24819D2E]
Copy OK
Track 8
Filename D:\Bartok-Boulez-DG\Bartók - Boulez cd 3 - Piano Concertos 1 - 3\08 - 2. Adagio religioso.wav
Peak level 41.1 %
Track quality 100.0 %
Test CRC C3E80882
Copy CRC C3E80882
Accurately ripped (confidence 29) [7E430BA9]
Copy OK
Track 9
Filename D:\Bartok-Boulez-DG\Bartók - Boulez cd 3 - Piano Concertos 1 - 3\09 - 3. Allegro vivace.wav
Peak level 99.9 %
Track quality 100.0 %
Test CRC 63EA96C9
Copy CRC 63EA96C9
Accurately ripped (confidence 31) [C4A5554D]
Copy OK
All tracks accurately ripped
No errors occurred
End of status report

Дщп EAC CD4

Exact Audio Copy V0.99 prebeta 5 from 4. May 2009
EAC extraction logfile from 31. January 2010, 19:42
Bartók - Boulez cd 4 / Concertos
Used drive : Optiarc DVD RW AD-7561S Adapter: 0 ID: 1
Read mode : Secure
Utilize accurate stream : Yes
Defeat audio cache : No
Make use of C2 pointers : No
Read offset correction : 6
Overread into Lead-In and Lead-Out : No
Fill up missing offset samples with silence : Yes
Delete leading and trailing silent blocks : No
Null samples used in CRC calculations : Yes
Used interface : Native Win32 interface for Win NT & 2000
Gap handling : Appended to previous track
Used output format : User Defined Encoder
Selected bitrate : 640 kBit/s
Quality : High
Add ID3 tag : No
Command line compressor : C:\Program Files (x86)\FLAC\flac.exe
Additional command line options : -8 -V -T "artist=%a" -T "title=%t" -T "album=%g" -T "date=%y" -T "tracknumber=%n" -T "genre=%m" %s
TOC of the extracted CD
Track | Start | Length | Start sector | End sector
---------------------------------------------------------
1 | 0:00.00 | 12:48.18 | 0 | 57617
2 | 12:48.18 | 6:28.51 | 57618 | 86768
3 | 19:16.69 | 6:27.13 | 86769 | 115806
4 | 25:44.07 | 9:33.01 | 115807 | 158782
5 | 35:17.08 | 11:55.43 | 158783 | 212450
6 | 47:12.51 | 14:31.37 | 212451 | 277812
7 | 61:44.13 | 4:36.54 | 277813 | 298566
8 | 66:20.67 | 4:15.74 | 298567 | 317765
Track 1
Filename D:\Bartok-Boulez-DG\Bartók - Boulez cd 4 - Concertos\01 - Concerto for two pianos, Percussion and Orchestra - 1 Assai Lento.wav
Pre-gap length 0:00:02.00
Peak level 98.8 %
Track quality 100.0 %
Test CRC E76EBFC6
Copy CRC E76EBFC6
Accurately ripped (confidence 8) [4F302D86]
Copy OK
Track 2
Filename D:\Bartok-Boulez-DG\Bartók - Boulez cd 4 - Concertos\02 - Concerto for two pianos, Percussion and Orchestra - 2 Lento Ma Non Troppo.wav
Peak level 59.0 %
Track quality 100.0 %
Test CRC 74EA1CBF
Copy CRC 74EA1CBF
Accurately ripped (confidence 8) [8E247CF4]
Copy OK
Track 3
Filename D:\Bartok-Boulez-DG\Bartók - Boulez cd 4 - Concertos\03 - Concerto for two pianos, Percussion and Orchestra - 3 Allegro Ma Non Troppo.wav
Peak level 98.6 %
Track quality 99.9 %
Test CRC 10C07DA1
Copy CRC 10C07DA1
Accurately ripped (confidence 8) [BB15BC35]
Copy OK
Track 4
Filename D:\Bartok-Boulez-DG\Bartók - Boulez cd 4 - Concertos\04 - Concerto for violin and Orchestra 1 - 1 Andante Sostenuto.wav
Pre-gap length 0:00:09.49
Peak level 87.7 %
Track quality 100.0 %
Test CRC A351E71C
Copy CRC A351E71C
Accurately ripped (confidence 8) [C3FF5898]
Copy OK
Track 5
Filename D:\Bartok-Boulez-DG\Bartók - Boulez cd 4 - Concertos\05 - Concerto for violin and Orchestra 1 - 2 Allegro giocoso.wav
Peak level 99.3 %
Track quality 99.9 %
Test CRC 80A1A5E5
Copy CRC 80A1A5E5
Accurately ripped (confidence 8) [A06ED8E8]
Copy OK
Track 6
Filename D:\Bartok-Boulez-DG\Bartók - Boulez cd 4 - Concertos\06 - Concerto for viola and Orchestra - 1 Moderato.wav
Pre-gap length 0:00:08.39
Peak level 96.0 %
Track quality 100.0 %
Test CRC CA793972
Copy CRC CA793972
Accurately ripped (confidence 8) [EDDC2680]
Copy OK
Track 7
Filename D:\Bartok-Boulez-DG\Bartók - Boulez cd 4 - Concertos\07 - Concerto for viola and Orchestra - 2 Adagio Religioso.wav
Peak level 71.2 %
Track quality 100.0 %
Test CRC 0647EC58
Copy CRC 0647EC58
Accurately ripped (confidence 8) [9782527D]
Copy OK
Track 8
Filename D:\Bartok-Boulez-DG\Bartók - Boulez cd 4 - Concertos\08 - Concerto for viola and Orchestra - 3 Allegro vivace.wav
Peak level 96.0 %
Track quality 100.0 %
Test CRC FB7B39DF
Copy CRC FB7B39DF
Accurately ripped (confidence 8) [31171B7F]
Copy OK
All tracks accurately ripped
No errors occurred
End of status report

Дщп EAC CD5

Exact Audio Copy V0.99 prebeta 5 from 4. May 2009
EAC extraction logfile from 31. January 2010, 18:41
Bartók - Boulez cd 5 / Violin Concerto no.2 - Rhapsody for Violin and Orchestra nos. 1 & 2
Used drive : Optiarc DVD RW AD-7561S Adapter: 0 ID: 1
Read mode : Secure
Utilize accurate stream : Yes
Defeat audio cache : No
Make use of C2 pointers : No
Read offset correction : 6
Overread into Lead-In and Lead-Out : No
Fill up missing offset samples with silence : Yes
Delete leading and trailing silent blocks : No
Null samples used in CRC calculations : Yes
Used interface : Native Win32 interface for Win NT & 2000
Gap handling : Appended to previous track
Used output format : User Defined Encoder
Selected bitrate : 640 kBit/s
Quality : High
Add ID3 tag : No
Command line compressor : C:\Program Files (x86)\FLAC\flac.exe
Additional command line options : -8 -V -T "artist=%a" -T "title=%t" -T "album=%g" -T "date=%y" -T "tracknumber=%n" -T "genre=%m" %s
TOC of the extracted CD
Track | Start | Length | Start sector | End sector
---------------------------------------------------------
1 | 0:00.00 | 16:39.00 | 0 | 74924
2 | 16:39.00 | 10:50.00 | 74925 | 123674
3 | 27:29.00 | 13:06.00 | 123675 | 182624
4 | 40:35.00 | 5:15.00 | 182625 | 206249
5 | 45:50.00 | 6:02.00 | 206250 | 233399
6 | 51:52.00 | 5:15.00 | 233400 | 257024
7 | 57:07.00 | 6:22.00 | 257025 | 285674
Track 1
Filename D:\Bartok-Boulez-DG\Bartók - Boulez cd 5 - Violin Concerto no.2 - Rhapsody for Violin and Orchestra nos. 1 & 2\01 - Concerto for Violin and Orchestra no.2 Sz112 - 1. Allegro non troppo.wav
Pre-gap length 0:00:02.00
Peak level 95.6 %
Track quality 100.0 %
Test CRC 6CACEEF3
Copy CRC 6CACEEF3
Accurately ripped (confidence 2) [AA18D63B]
Copy OK
Track 2
Filename D:\Bartok-Boulez-DG\Bartók - Boulez cd 5 - Violin Concerto no.2 - Rhapsody for Violin and Orchestra nos. 1 & 2\02 - 2. Andante tranquillo.wav
Peak level 41.2 %
Track quality 100.0 %
Test CRC 5897F88E
Copy CRC 5897F88E
Accurately ripped (confidence 2) [166574D0]
Copy OK
Track 3
Filename D:\Bartok-Boulez-DG\Bartók - Boulez cd 5 - Violin Concerto no.2 - Rhapsody for Violin and Orchestra nos. 1 & 2\03 - 3. Allegro molto.wav
Peak level 99.9 %
Track quality 99.9 %
Test CRC 8FE65704
Copy CRC 8FE65704
Accurately ripped (confidence 2) [681A5C58]
Copy OK
Track 4
Filename D:\Bartok-Boulez-DG\Bartók - Boulez cd 5 - Violin Concerto no.2 - Rhapsody for Violin and Orchestra nos. 1 & 2\04 - Rhapsody for Violin and Orchestra - 1. Lassú. Moderato.wav
Pre-gap length 0:00:07.00
Peak level 40.7 %
Track quality 100.0 %
Test CRC 9E5D87DB
Copy CRC 9E5D87DB
Accurately ripped (confidence 2) [63D1427F]
Copy OK
Track 5
Filename D:\Bartok-Boulez-DG\Bartók - Boulez cd 5 - Violin Concerto no.2 - Rhapsody for Violin and Orchestra nos. 1 & 2\05 - 2. Friss. Allegretto moderato.wav
Peak level 56.7 %
Track quality 100.0 %
Test CRC EEA6FD92
Copy CRC EEA6FD92
Accurately ripped (confidence 2) [64A4776E]
Copy OK
Track 6
Filename D:\Bartok-Boulez-DG\Bartók - Boulez cd 5 - Violin Concerto no.2 - Rhapsody for Violin and Orchestra nos. 1 & 2\06 - Rhapsody for Violin and Orchestra no.2 Sz90 - 1. Lassú. Moderato.wav
Pre-gap length 0:00:05.00
Peak level 47.4 %
Track quality 100.0 %
Test CRC 5390140C
Copy CRC 5390140C
Accurately ripped (confidence 2) [4C66F851]
Copy OK
Track 7
Filename D:\Bartok-Boulez-DG\Bartók - Boulez cd 5 - Violin Concerto no.2 - Rhapsody for Violin and Orchestra nos. 1 & 2\07 - 2. Friss. Allegro moderato.wav
Peak level 79.2 %
Track quality 100.0 %
Test CRC 783ABB18
Copy CRC 783ABB18
Accurately ripped (confidence 2) [21B2E902]
Copy OK
All tracks accurately ripped
No errors occurred
End of status report

Дщп EAC CD6

Exact Audio Copy V0.99 prebeta 5 from 4. May 2009
EAC extraction logfile from 31. January 2010, 19:06
Bartók - Boulez cd 6 / Bluebeard's Castle
Used drive : Optiarc DVD RW AD-7561S Adapter: 0 ID: 1
Read mode : Secure
Utilize accurate stream : Yes
Defeat audio cache : No
Make use of C2 pointers : No
Read offset correction : 6
Overread into Lead-In and Lead-Out : No
Fill up missing offset samples with silence : Yes
Delete leading and trailing silent blocks : No
Null samples used in CRC calculations : Yes
Used interface : Native Win32 interface for Win NT & 2000
Gap handling : Appended to previous track
Used output format : User Defined Encoder
Selected bitrate : 640 kBit/s
Quality : High
Add ID3 tag : No
Command line compressor : C:\Program Files (x86)\FLAC\flac.exe
Additional command line options : -8 -V -T "artist=%a" -T "title=%t" -T "album=%g" -T "date=%y" -T "tracknumber=%n" -T "genre=%m" %s
TOC of the extracted CD
Track | Start | Length | Start sector | End sector
---------------------------------------------------------
1 | 0:00.00 | 5:06.12 | 0 | 22961
2 | 5:06.12 | 5:15.63 | 22962 | 46649
3 | 10:22.00 | 5:23.00 | 46650 | 70874
4 | 15:45.00 | 4:25.00 | 70875 | 90749
5 | 20:10.00 | 3:55.00 | 90750 | 108374
6 | 24:05.00 | 2:25.00 | 108375 | 119249
7 | 26:30.00 | 4:17.67 | 119250 | 138591
8 | 30:47.67 | 6:35.08 | 138592 | 168224
9 | 37:23.00 | 4:32.00 | 168225 | 188624
10 | 41:55.00 | 4:09.37 | 188625 | 207336
11 | 46:04.37 | 3:24.25 | 207337 | 222661
12 | 49:28.62 | 8:31.13 | 222662 | 260999
Track 1
Filename D:\Bartok-Boulez-DG\Bartók - Boulez cd 6 - Bluebeard's Castle\01 - Prologue - 'The Tale Is Old' - 'Here We Are Now'.wav
Pre-gap length 0:00:02.00
Peak level 79.3 %
Track quality 99.9 %
Test CRC F34B4782
Copy CRC F34B4782
Cannot be verified as accurate (confidence 4) [7CC33181], AccurateRip returned [895A20D9]
Copy OK
Track 2
Filename D:\Bartok-Boulez-DG\Bartók - Boulez cd 6 - Bluebeard's Castle\02 - Judith - 'Is This Really Bluebeard's Castle'.wav
Peak level 99.9 %
Track quality 100.0 %
Test CRC AB99099F
Copy CRC AB99099F
Cannot be verified as accurate (confidence 3) [A0128374], AccurateRip returned [324016DB]
Copy OK
Track 3
Filename D:\Bartok-Boulez-DG\Bartók - Boulez cd 6 - Bluebeard's Castle\03 - Judith - 'Ah, I See Seven Great Shut Doorways'.wav
Peak level 99.9 %
Track quality 100.0 %
Test CRC A4CA1A7B
Copy CRC A4CA1A7B
Cannot be verified as accurate (confidence 3) [0E734A1F], AccurateRip returned [BD0007B1]
Copy OK
Track 4
Filename D:\Bartok-Boulez-DG\Bartók - Boulez cd 6 - Bluebeard's Castle\04 - First Door - Judith - 'Woe!' - 'What Seest Thou'.wav
Peak level 83.0 %
Track quality 99.9 %
Test CRC 64075B89
Copy CRC 64075B89
Cannot be verified as accurate (confidence 3) [0754D735], AccurateRip returned [4EE97202]
Copy OK
Track 5
Filename D:\Bartok-Boulez-DG\Bartók - Boulez cd 6 - Bluebeard's Castle\05 - Second Door - Bluebeard - 'What Seest Thou'.wav
Peak level 94.9 %
Track quality 100.0 %
Test CRC 7D9253DF
Copy CRC 7D9253DF
Cannot be verified as accurate (confidence 3) [DB5F0F75], AccurateRip returned [0DAD818E]
Copy OK
Track 6
Filename D:\Bartok-Boulez-DG\Bartók - Boulez cd 6 - Bluebeard's Castle\06 - Third Door - Judith - 'Mountains Of Gold!'.wav
Peak level 61.4 %
Track quality 100.0 %
Test CRC 0CB675AC
Copy CRC 0CB675AC
Cannot be verified as accurate (confidence 3) [67EB9D1C], AccurateRip returned [6C175C32]
Copy OK
Track 7
Filename D:\Bartok-Boulez-DG\Bartók - Boulez cd 6 - Bluebeard's Castle\07 - Fourth Door - Judith - 'Ah! Lovely Flowers'.wav
Peak level 93.5 %
Track quality 100.0 %
Test CRC 3B5376C7
Copy CRC 3B5376C7
Cannot be verified as accurate (confidence 3) [7F05C743], AccurateRip returned [611AD299]
Copy OK
Track 8
Filename D:\Bartok-Boulez-DG\Bartók - Boulez cd 6 - Bluebeard's Castle\08 - Fifth Door - Bluebeard - Look, My Castle Gleams And Brightens'.wav
Peak level 99.9 %
Track quality 100.0 %
Test CRC 3741A49B
Copy CRC 3741A49B
Cannot be verified as accurate (confidence 3) [341BD01A], AccurateRip returned [72200E07]
Copy OK
Track 9
Filename D:\Bartok-Boulez-DG\Bartók - Boulez cd 6 - Bluebeard's Castle\09 - Sixth Door - Judith - 'I Can See A Sheet Of Water'.wav
Peak level 18.7 %
Track quality 100.0 %
Test CRC 04002C04
Copy CRC 04002C04
Cannot be verified as accurate (confidence 3) [DB073CBA], AccurateRip returned [D49A7B86]
Copy OK
Track 10
Filename D:\Bartok-Boulez-DG\Bartók - Boulez cd 6 - Bluebeard's Castle\10 - Bluebeard 'The Last Of My Doors Must Stay Shut'.wav
Peak level 30.5 %
Track quality 100.0 %
Test CRC 65DC8242
Copy CRC 65DC8242
Cannot be verified as accurate (confidence 3) [EE9C85D2], AccurateRip returned [5E77BC13]
Copy OK
Track 11
Filename D:\Bartok-Boulez-DG\Bartók - Boulez cd 6 - Bluebeard's Castle\11 - Judith - 'Now I Know It All, O Bluebeard'.wav
Peak level 99.9 %
Track quality 100.0 %
Test CRC 59841BD4
Copy CRC 59841BD4
Cannot be verified as accurate (confidence 3) [5B2155A9], AccurateRip returned [B46CA372]
Copy OK
Track 12
Filename D:\Bartok-Boulez-DG\Bartók - Boulez cd 6 - Bluebeard's Castle\12 - Bluebeard - 'Hearts That I Have Loved And Cherished'.wav
Peak level 82.0 %
Track quality 100.0 %
Test CRC FBE09ED3
Copy CRC FBE09ED3
Cannot be verified as accurate (confidence 3) [8DC7B9A7], AccurateRip returned [DA87A54E]
Copy OK
No tracks could be verified as accurate
You may have a different pressing from the one(s) in the database
No errors occurred
End of status report

Дщп EAC CD7

Exact Audio Copy V0.99 prebeta 5 from 4. May 2009
EAC extraction logfile from 31. January 2010, 20:16
Bartók - Boulez cd 7 / Cantata Profana - The Wooden Prince
Used drive : Optiarc DVD RW AD-7561S Adapter: 0 ID: 1
Read mode : Secure
Utilize accurate stream : Yes
Defeat audio cache : No
Make use of C2 pointers : No
Read offset correction : 6
Overread into Lead-In and Lead-Out : No
Fill up missing offset samples with silence : Yes
Delete leading and trailing silent blocks : No
Null samples used in CRC calculations : Yes
Used interface : Native Win32 interface for Win NT & 2000
Gap handling : Appended to previous track
Used output format : User Defined Encoder
Selected bitrate : 640 kBit/s
Quality : High
Add ID3 tag : No
Command line compressor : C:\Program Files (x86)\FLAC\flac.exe
Additional command line options : -8 -V -T "artist=%a" -T "title=%t" -T "album=%g" -T "date=%y" -T "tracknumber=%n" -T "genre=%m" %s
TOC of the extracted CD
Track | Start | Length | Start sector | End sector
---------------------------------------------------------
1 | 0:00.33 | 6:59.40 | 33 | 31497
2 | 6:59.73 | 8:00.20 | 31498 | 67517
3 | 15:00.18 | 3:17.15 | 67518 | 82307
4 | 18:17.33 | 5:13.62 | 82308 | 105844
5 | 23:31.20 | 5:04.45 | 105845 | 128689
6 | 28:35.65 | 5:26.43 | 128690 | 153182
7 | 34:02.33 | 11:35.57 | 153183 | 205364
8 | 45:38.15 | 15:20.45 | 205365 | 274409
9 | 60:58.60 | 1:55.08 | 274410 | 283042
10 | 62:53.68 | 1:37.40 | 283043 | 290357
11 | 64:31.33 | 8:43.00 | 290358 | 329582
Track 1
Filename D:\Bartok-Boulez-DG\Bartók - Boulez cd 7 - Cantata Profana - The Wooden Prince\01 - Cantata Profana I. there was once an old man.wav
Pre-gap length 0:00:02.33
Peak level 98.4 %
Track quality 100.0 %
Test CRC 9A947988
Copy CRC 9A947988
Cannot be verified as accurate (confidence 9) [06CC7100], AccurateRip returned [67F472EE]
Copy OK
Track 2
Filename D:\Bartok-Boulez-DG\Bartók - Boulez cd 7 - Cantata Profana - The Wooden Prince\02 - II. but their father grew impatient.wav
Peak level 98.4 %
Track quality 100.0 %
Test CRC F1A126B3
Copy CRC F1A126B3
Cannot be verified as accurate (confidence 9) [971B96BE], AccurateRip returned [B4F22591]
Copy OK
Track 3
Filename D:\Bartok-Boulez-DG\Bartók - Boulez cd 7 - Cantata Profana - The Wooden Prince\03 - III. Volt egy oreg apo.wav
Peak level 52.1 %
Track quality 100.0 %
Test CRC AE79A24F
Copy CRC AE79A24F
Cannot be verified as accurate (confidence 9) [D825B282], AccurateRip returned [3A7368C1]
Copy OK
Track 4
Filename D:\Bartok-Boulez-DG\Bartók - Boulez cd 7 - Cantata Profana - The Wooden Prince\04 - The Wooden Prince - Introduction.wav
Pre-gap length 0:00:10.25
Peak level 98.4 %
Track quality 100.0 %
Test CRC 040CA670
Copy CRC 040CA670
Cannot be verified as accurate (confidence 9) [07441612], AccurateRip returned [D908A501]
Copy OK
Track 5
Filename D:\Bartok-Boulez-DG\Bartók - Boulez cd 7 - Cantata Profana - The Wooden Prince\05 - First Dance.wav
Peak level 98.4 %
Track quality 100.0 %
Test CRC 580C1207
Copy CRC 580C1207
Cannot be verified as accurate (confidence 9) [D5CE1018], AccurateRip returned [3C32552C]
Copy OK
Track 6
Filename D:\Bartok-Boulez-DG\Bartók - Boulez cd 7 - Cantata Profana - The Wooden Prince\06 - Second Dance.wav
Peak level 98.4 %
Track quality 100.0 %
Test CRC 4F5C0C0A
Copy CRC 4F5C0C0A
Cannot be verified as accurate (confidence 9) [892145F1], AccurateRip returned [B1BBB7D8]
Copy OK
Track 7
Filename D:\Bartok-Boulez-DG\Bartók - Boulez cd 7 - Cantata Profana - The Wooden Prince\07 - Third Dance.wav
Peak level 98.4 %
Track quality 100.0 %
Test CRC 7672685B
Copy CRC 7672685B
Cannot be verified as accurate (confidence 9) [8A09D159], AccurateRip returned [5720218F]
Copy OK
Track 8
Filename D:\Bartok-Boulez-DG\Bartók - Boulez cd 7 - Cantata Profana - The Wooden Prince\08 - Fourth Dance.wav
Peak level 98.4 %
Track quality 100.0 %
Test CRC 776B8B34
Copy CRC 776B8B34
Cannot be verified as accurate (confidence 9) [2333E31A], AccurateRip returned [DF0B0647]
Copy OK
Track 9
Filename D:\Bartok-Boulez-DG\Bartók - Boulez cd 7 - Cantata Profana - The Wooden Prince\09 - Fifth Dance.wav
Peak level 63.3 %
Track quality 100.0 %
Test CRC 80B62053
Copy CRC 80B62053
Cannot be verified as accurate (confidence 9) [9882974D], AccurateRip returned [B0DD3E2F]
Copy OK
Track 10
Filename D:\Bartok-Boulez-DG\Bartók - Boulez cd 7 - Cantata Profana - The Wooden Prince\10 - Sixth Dance.wav
Peak level 98.4 %
Track quality 100.0 %
Test CRC 8F9790FE
Copy CRC 8F9790FE
Cannot be verified as accurate (confidence 9) [472E31E1], AccurateRip returned [0B246732]
Copy OK
Track 11
Filename D:\Bartok-Boulez-DG\Bartók - Boulez cd 7 - Cantata Profana - The Wooden Prince\11 - Seventh Dance.wav
Peak level 98.4 %
Track quality 99.9 %
Test CRC 72623CC5
Copy CRC 72623CC5
Cannot be verified as accurate (confidence 9) [8B19AC3C], AccurateRip returned [92CA06D9]
Copy OK
No tracks could be verified as accurate
You may have a different pressing from the one(s) in the database
No errors occurred
End of status report

Дщп EAC CD8

Exact Audio Copy V0.99 prebeta 5 from 4. May 2009
EAC extraction logfile from 31. January 2010, 16:37
Bartók - Boulez cd 8 / The Miraculous Mandarin; Music for Strings, Percussion and Celesta
Used drive : Optiarc DVD RW AD-7561S Adapter: 0 ID: 1
Read mode : Secure
Utilize accurate stream : Yes
Defeat audio cache : No
Make use of C2 pointers : No
Read offset correction : 6
Overread into Lead-In and Lead-Out : No
Fill up missing offset samples with silence : Yes
Delete leading and trailing silent blocks : No
Null samples used in CRC calculations : Yes
Used interface : Native Win32 interface for Win NT & 2000
Gap handling : Appended to previous track
Used output format : User Defined Encoder
Selected bitrate : 640 kBit/s
Quality : High
Add ID3 tag : No
Command line compressor : C:\Program Files (x86)\FLAC\flac.exe
Additional command line options : -8 -V -T "artist=%a" -T "title=%t" -T "album=%g" -T "date=%y" -T "tracknumber=%n" -T "genre=%m" %s
TOC of the extracted CD
Track | Start | Length | Start sector | End sector
---------------------------------------------------------
1 | 0:00.32 | 3:02.38 | 32 | 13719
2 | 3:02.70 | 3:44.05 | 13720 | 30524
3 | 6:47.00 | 3:12.62 | 30525 | 44986
4 | 9:59.62 | 1:40.70 | 44987 | 52556
5 | 11:40.57 | 6:52.18 | 52557 | 83474
6 | 18:33.00 | 2:29.30 | 83475 | 94679
7 | 21:02.30 | 2:06.00 | 94680 | 104129
8 | 23:08.30 | 3:00.62 | 104130 | 117691
9 | 26:09.17 | 1:25.25 | 117692 | 124091
10 | 27:34.42 | 1:47.25 | 124092 | 132141
11 | 29:21.67 | 2:33.00 | 132142 | 143616
12 | 31:54.67 | 7:55.00 | 143617 | 179241
13 | 39:49.67 | 7:35.00 | 179242 | 213366
14 | 47:24.67 | 7:27.00 | 213367 | 246891
15 | 54:51.67 | 7:27.00 | 246892 | 280416
Track 1
Filename D:\Bartok-Boulez-DG\Bartók - Boulez cd 8 - The Miraculous Mandarin; Music for Strings, Percussion and Celesta\01 - The Miraculous Mandarin, Op. 19, Sz 73- Beginning (Allegro).wav
Pre-gap length 0:00:02.32
Peak level 99.9 %
Track quality 100.0 %
Test CRC 2DBDAAA5
Copy CRC 2DBDAAA5
Cannot be verified as accurate (confidence 3) [58CCC7ED], AccurateRip returned [E9378D88]
Copy OK
Track 2
Filename D:\Bartok-Boulez-DG\Bartók - Boulez cd 8 - The Miraculous Mandarin; Music for Strings, Percussion and Celesta\02 - First seduction game- the shabby old rake (Moderato).wav
Peak level 99.9 %
Track quality 100.0 %
Test CRC 224D4C83
Copy CRC 224D4C83
Cannot be verified as accurate (confidence 3) [AD509DCC], AccurateRip returned [51FB81F3]
Copy OK
Track 3
Filename D:\Bartok-Boulez-DG\Bartók - Boulez cd 8 - The Miraculous Mandarin; Music for Strings, Percussion and Celesta\03 - Second seduction game.wav
Peak level 99.9 %
Track quality 100.0 %
Test CRC C216E67E
Copy CRC C216E67E
Cannot be verified as accurate (confidence 3) [439EC8E0], AccurateRip returned [9E3B0417]
Copy OK
Track 4
Filename D:\Bartok-Boulez-DG\Bartók - Boulez cd 8 - The Miraculous Mandarin; Music for Strings, Percussion and Celesta\04 - Third seduction game (Sostenuto).wav
Peak level 62.5 %
Track quality 99.8 %
Test CRC 10252F4A
Copy CRC 10252F4A
Cannot be verified as accurate (confidence 3) [317D1C6F], AccurateRip returned [A41DEA24]
Copy OK
Track 5
Filename D:\Bartok-Boulez-DG\Bartók - Boulez cd 8 - The Miraculous Mandarin; Music for Strings, Percussion and Celesta\05 - The Mandarin enters and remains immobile in the doorway... (Maestoso).wav
Peak level 99.9 %
Track quality 100.0 %
Test CRC 4E5892FE
Copy CRC 4E5892FE
Cannot be verified as accurate (confidence 3) [A26BBB8F], AccurateRip returned [623457A9]
Copy OK
Track 6
Filename D:\Bartok-Boulez-DG\Bartók - Boulez cd 8 - The Miraculous Mandarin; Music for Strings, Percussion and Celesta\06 - The girl sinks down to embrace him... (Allegro).wav
Peak level 99.9 %
Track quality 99.9 %
Test CRC 74816D0F
Copy CRC 74816D0F
Cannot be verified as accurate (confidence 3) [6FB9B9BC], AccurateRip returned [EDD5036F]
Copy OK
Track 7
Filename D:\Bartok-Boulez-DG\Bartók - Boulez cd 8 - The Miraculous Mandarin; Music for Strings, Percussion and Celesta\07 - The tramps leap out, seize the Mandarin and tear him away from the girl.wav
Peak level 96.3 %
Track quality 100.0 %
Test CRC FD99A0AB
Copy CRC FD99A0AB
Cannot be verified as accurate (confidence 3) [88A0E642], AccurateRip returned [80BCB94C]
Copy OK
Track 8
Filename D:\Bartok-Boulez-DG\Bartók - Boulez cd 8 - The Miraculous Mandarin; Music for Strings, Percussion and Celesta\08 - Suddenly the Mandarin's head appears between the pillows and he looks longingly at the gio.wav
Peak level 99.9 %
Track quality 100.0 %
Test CRC 4D81AA0C
Copy CRC 4D81AA0C
Cannot be verified as accurate (confidence 3) [E07D0E35], AccurateRip returned [AEECE310]
Copy OK
Track 9
Filename D:\Bartok-Boulez-DG\Bartók - Boulez cd 8 - The Miraculous Mandarin; Music for Strings, Percussion and Celesta\09 - The terrified tramps discuss how they are to get rid of the Mandarin at last. (Agitato).wav
Peak level 64.1 %
Track quality 99.8 %
Test CRC 7D1630DA
Copy CRC 7D1630DA
Cannot be verified as accurate (confidence 3) [6AA7C9A4], AccurateRip returned [4B60BBDA]
Copy OK
Track 10
Filename D:\Bartok-Boulez-DG\Bartók - Boulez cd 8 - The Miraculous Mandarin; Music for Strings, Percussion and Celesta\10 - The body of the Mandarin begins to glow with a greenish blue light. (Molto moderato).wav
Peak level 57.0 %
Track quality 100.0 %
Test CRC 3A1E38C8
Copy CRC 3A1E38C8
Cannot be verified as accurate (confidence 3) [C6D0501A], AccurateRip returned [B79BE560]
Copy OK
Track 11
Filename D:\Bartok-Boulez-DG\Bartók - Boulez cd 8 - The Miraculous Mandarin; Music for Strings, Percussion and Celesta\11 - She resists no longer; they embrace (Più mosso - Vivo).wav
Peak level 63.4 %
Track quality 100.0 %
Test CRC 0A58F5A1
Copy CRC 0A58F5A1
Cannot be verified as accurate (confidence 3) [82844AA8], AccurateRip returned [80B631BB]
Copy OK
Track 12
Filename D:\Bartok-Boulez-DG\Bartók - Boulez cd 8 - The Miraculous Mandarin; Music for Strings, Percussion and Celesta\12 - Music for Strings, Percussion and Celesta, Sz 106- Andante tranquillo.wav
Pre-gap length 0:00:12.00
Peak level 83.1 %
Track quality 100.0 %
Test CRC 88CC4748
Copy CRC 88CC4748
Cannot be verified as accurate (confidence 3) [C726E788], AccurateRip returned [2F60CDC1]
Copy OK
Track 13
Filename D:\Bartok-Boulez-DG\Bartók - Boulez cd 8 - The Miraculous Mandarin; Music for Strings, Percussion and Celesta\13 - Allegro.wav
Peak level 85.2 %
Track quality 100.0 %
Test CRC 3DCBD422
Copy CRC 3DCBD422
Cannot be verified as accurate (confidence 3) [629AA1D2], AccurateRip returned [C27D3860]
Copy OK
Track 14
Filename D:\Bartok-Boulez-DG\Bartók - Boulez cd 8 - The Miraculous Mandarin; Music for Strings, Percussion and Celesta\14 - Adagio.wav
Peak level 62.7 %
Track quality 100.0 %
Test CRC 6FF462AB
Copy CRC 6FF462AB
Cannot be verified as accurate (confidence 3) [B3A01C96], AccurateRip returned [E01663AF]
Copy OK
Track 15
Filename D:\Bartok-Boulez-DG\Bartók - Boulez cd 8 - The Miraculous Mandarin; Music for Strings, Percussion and Celesta\15 - Allegro molto.wav
Peak level 99.9 %
Track quality 100.0 %
Test CRC 9C13102C
Copy CRC 9C13102C
Cannot be verified as accurate (confidence 3) [A9814F2F], AccurateRip returned [FD230990]
Copy OK
No tracks could be verified as accurate
You may have a different pressing from the one(s) in the database
No errors occurred
End of status report

О компании:

In 1958 writing for the Encyclopédie de la Musique Pierre Boulez somewhat reluctantly included Bartók as one of his greatest five composers of the 20th Century. In his general and brief essay accompanying this big set Wolfgang Stähr writes only about Boulez’s views on Bartók and reminds us that Boulez “viewed with unconcealed scepticism Bartók’s use of folk music and that the composer’s last works went into “incipient decline”. Boulez does admit to loving Bartók’s aggressive outbursts” and the “vitality of the music with its wild impetuousness” although he has continued to believe that Bartók “appreciably limited the range of his language”. Incidentally the booklet has no information about any of the music itself.
In the light of that it might seem odd that Boulez has for a decade or more now performed Bartók regularly and has recorded all of the orchestral works gathered together here. But he has … and now we can assess his work as a whole.
CD 1 begins with the little played Four Orchestral Pieces; perhaps one of Bartók’s least known compositions. One might think of a symphony here but apart from an early effort Bartók steered clear of that form quite consciously. It was perhaps Schoenberg who inspired the work and whose own ‘Five Orchestral pieces’ pre-date Bartók’s by three years, or more especially Alban Berg as in movement 1, the ‘Prelude’. This is followed by a very dissonant and aggressive Scherzo, then a gentler Intermezzo before an almost nihilistic funeral march to end with. Here, perhaps, its Webern’s Op. 6 no. 4 Funeral March of 1909, in his ‘Five Orchestral Pieces’ which was the inspiration. At any rate Boulez is very much at home in these pieces and CD 1 makes an impressive start to the set.
The main focus of this first disc is the ‘Concerto for Orchestra’ and if this for you the most important piece in the collection then you will not be disappointed. Boulez gets the very best out of the Chicago, Symphony. I would however have preferred either Boulez or the recording engineers to have brought out a little more string detail in quieter passages here and there. It’s interesting that when Boulez is left alone, as it were, without soloists, his inclination is towards fastish tempi. Some of you might find the fourth movement a little quick and matter-of-fact yet its length fits in with Bartók’s suggestion in the score as do the other movements; Boulez is just a fraction faster in places. Much to my surprise the version by Frühbeck de Burgos which I’ve always liked (Collins Classics 10912 - nla) is overall even faster. Nevertheless Boulez does find space for a hint of sentimentality in the third movement which makes a happy contrast.
CD 2 comprises several ‘Hungarian’ pieces: those inspired by folk melodies - an aspect of Bartók Boulez appears not to relate to. Kodaly, Bartók’s life-long friend is not far away both in the way the tunes are treated and in their harmonization.
The ‘Dance Suite’ could almost be thought of as a dance-symphony being in five connected movements of contrasting tempi. It was commissioned in 1923 along with longer works by Kodály and Dohnányi. Bartók tells us the sources of his dances. The first rather bizarre dance is Arab, the second Hungarian and later there are some from Rumania. These are melodies he had picked up on his pre-war travels, all mixed together. The piece became his first major success and under Boulez it works very well.
The Hungarian Sketches go well enough here. There are five of them: orchestrations of piano pieces which had been written when the composer was in his 20s. Paul Griffiths in his book on Bartók, which I will refer to again, in ‘The Master Musician’ series (Dent 1984) quotes a letter from Bartók to his mother: “… This is the sort of thing that will be performed because the music is pleasing, it is not very difficult to play and it is by a ‘known’ composer.”
The ‘Two Pictures’ form a typical Bartók triptych. They play without a break. The first is translated here as ‘In Full Flower’ which is often considered Bartók’s most Debussian work, Paul Griffiths remarks “the handling of the orchestra still owes at least as much to Strauss”. Although the second picture is ‘Village Dance’ it also has, in its Scherzo-with-two-trios format some Debussian interludes and whole tone scale passages. Whole-tone scales, like pentatonic and modal ones can be found also in the folk music that Bartók was still in the midst of collecting. Boulez has his own way with Debussy which he adopts here - that is he allows every detail through but I feel tends to lack warmth and suavity.
The disc ends with the three movement Divertimento, which confirms for me the fact that Boulez just does not consistently ‘get’ this aspect of Bartók with his lack of authentic ‘bite’. The middle movement drags and loses its way; the third one is generally too slow. I am still drawn to Jean-Jacques Kantorow on BIS (CD 740) with the Tapiola Sinfonietta who really lets rip, knocking four minutes off Boulez’s rendition.
CD 3 is full of concertos. In the Piano Concerto No 1 Boulez with Krystian Zimermann emphasises the Stravinskian quality of the forceful rhythmic opening and of the finale. They are appreciably faster and rather stiffer in the middle movement than say Stephen Bishop-Kovacevich with Sir Colin Davis in 1975 (Philips 426 660-2). This does therefore rather remove some of the mystery. The piano is also a little too forward. However the finale zips along and is very exciting.
After the great worldwide success of the 1st Bartók tackled a Second Concerto. It testifies to his firm belief that the piano is basically a percussion instrument. Not only do the timpani and bass drum play important roles throughout but the two cadenzas are punctuated by them, and it’s important that the balancing of the recording is carefully handled as happens here. The first movement in fact is for wind and percussion and only at the start of the second do the strings come in with a marvellously strange homophonic passage in broad, wide fifths. There are though more lyrical passages than in the 1st Concerto and Andsnes and Boulez and the superb Berlin Phil, are alert to these, creating it seems to me, an exuberantly unbeatable performance.
Bartók finished his last concerto just days before his sudden death. He wrote it with his wife’s pianism in mind. There are those who prefer the 3rd Concerto (contrary to the Boulez view mentioned above) because of its emphasis, in the first movement especially, on lyricism. The whole work is imbued with a certain mellowness despite the wild ending to the third movement. Hélène Grimaud and Boulez certainly have the measure of this slightly enigmatic piece with a beautiful and even nonchalant start. Everything is clearly articulated and following with the score I heard things not noticed before.
It was a good idea and quite revealing for this disc to have three different pianists and orchestras mostly at the very top of their game.
CD 4. In the summer of 1940 Bartók and his wife settled in Long Island. There he completed his more often heard ‘Sonata for Two Pianos and Percussion’. Two years later he was working on the orchestration of this ‘Concerto’ written for Ditta and himself to perform. Many do not like the outcome; I most certainly do. He added colour through doublings but rarely inflated the textures. He adds a wondrous Celesta which he much liked and various pedal notes which light up certain passages. This territory is most definitely Boulez-proof, witness his own ‘Eclat/multiples’ of 1964/70 and even ‘Répons’. Thus he and his ‘dream team’ of soloists work magically together especially in the typically nocturnal middle movement. Wonderfully caught by the Abbey Road engineers, it’s the best version imaginable.
The middle work on this CD is what we now call the 1st Violin Concerto. Bartók simply called his second his Violin Concerto. Why? Why was the First work not published for many years after his death. It had been written for Stefi Geyer whom Bartók probably loved but who eventually rejected him and his concerto. It falls into two movements: slow-fast. The first is very romantic and was re-used by the composer as the first of his Orchestral ‘Portraits’ Op 5. The second movement starts aggressively enough but regularly moves around between fast tempi and a wondrously romantic and dreamy idea which seems to be at odds. Much lies behind this enigmatic work which I feel should be better known. Those of you who know well the Second Concerto will recognize several fingerprints. Gidon Kremer understands the work very well even if Boulez seems unable to drag out of the Berlin Phil that much interest.
It’s difficult I think to form a relationship with the Viola Concerto. Bartók left it incomplete and Tibor Serly tried to bring it to life although he only had a torso with the viola line given throughout and little indication of the orchestration. It’s an elegiac work whose form is somewhat odd: a long ‘moderato’ opening movement, a slightly slower Adagio and then a brief, rather broken-up village dance Allegro vivace. These latter movements coming to less than two-thirds the length of the first. One rarely hears the work but I think I can recall getting to know a Menuhin recording in the early 1980s. Anyway this version with Yuri Bashmet makes the most convincing case possible and Boulez seems happy to let the work float along to Bashmet’s will.
CD 5 begins with the late Second Violin Concerto which is one of those pieces which Boulez has castigated presumably because of its modal/pentatonic material. Curiously Gil Shaham and Boulez bring out the romantic aspects of the work beautifully especially in the slow movement. Bartók writes a sonata-form 1st movement and Finale which is itself something of a variation of the 1st. The second movement has a gorgeous theme, almost in G major with six contrasting variations. Even Simon Rattle and Kyung-Wha Chung (EMI 7 54211 2) do not linger over the details anywhere near as much as Boulez. Although they are not much faster in the outer movements in the middle movement they are a minute faster. Both versions however are nowhere near to Bartók’s unreasonable speeds suggested in the score, timing the first movement four minutes faster than Boulez and the middle movement even faster than Rattle.
The ‘Two Rhapsodies’ for violin and orchestra follow, as they do for the Kyung-Wha Chung disc. These works have many similarities and one hopes that Boulez enjoyed them. He seems to have done as he and Shaham put them across enjoyably and with a real sense of direction. They are each of almost equal length. Each is of two movements: first a ‘Lassu’ and then a ‘Friss’. Written, as they were, to make the composer a little ‘more loot’ they bring together in a sort of medley Hungarian gypsy and Rumanian peasant dances and melodies. The first rhapsody even includes what is for Bartók a rare outing for the cimbalom.
CD 6 offers only of a complete performance of the one act opera ‘Duke Bluebeard’s Castle, with a text by Béla Balázs. Jessye Norman makes a mature, strong-minded but passionate Judith and László Olgár an imposing but sympathetic Bluebeard. The recorded balance is excellent but quite static. What I mean is that on stage the characters - yes there are only two - move around. On this recording they do not. Yet as a piece of theatre this is not successful anyway as Bartók’s contemporaries realized in their reluctance to put the work on. In a sense this is a drama of the mind and works much better behind headphones. The plot concerns Judith, Bluebeard’s latest conquest who on arrival at his castle wants to open the doors and windows to let in the light. After some persuasion the first five doors are opened and each reveals a bloody scene which horrifies but fascinates her. The sixth door opens onto a watery scene which she is told represents ‘the water of tears’. He does not want the seventh door to be opened but like all women she has her way and Bluebeard’s three previous wives appear exquisitely attired. He assures her that she, Judith will be his last love and fetches a cloak and crown for her. The doors close one by one and after a few final words Judith exits through the seventh door leaving Bluebeard alone again and disconsolate so well represented in the orchestral postlude. The booklet has no text and the performance is in Hungarian. The track-listings do offer the opening line and its English translation. My advice is to try to find the text in some publication or on the net: it will help you to hold your concentration and follow Bartók’s orchestral descriptive writing more clearly.
CD 7 - what a terrific piece the ‘Cantata Profana’. Its difficulties cannot be underestimated which is why we hear it so rarely. The work, which here has three track-listings, plays without a break. It has a text by Bartók himself telling a Rumanian folk-tale of a father who teaches his sons to hunt. He then discovers them turned into stags almost shooting them by accident but never ever having them home again. John Aler fights heroically with the punishingly high tessitura of the tenor part but John Tomlinson seems to be a little out of sorts with too much vibrato in the head register. The chorus is, for my taste anyway, a little too far back. Nevertheless, although one rarely hears this work, this is a fine rendition. It is sung in Hungarian which the chorus tackle with verve.
The ‘Wooden Prince’ was written with the intention that it would form the second half of a double-bill with Bluebeard. Its eventual success led to that dream being realized. Indeed ‘The Wooden Prince’ was to prove one of Bartók’s greatest moments. The story, which is divided into seven dance scenes each generally preceded by a brief Interlude, concerns the wooden Prince figure that a fairy tries to protect from love. He is sometimes characterized by col legno in the strings and by a xylophone in the fourth dance. The Prince eventually is able to love and embrace the princess at the very end but he consequently forsakes the power and knowledge he has gained. The score almost sounds as if it could be earlier than Bluebeard and this may be because, as Paul Griffiths remarks (pages 71-73) the music is modal and even diatonic. The long introduction before the curtain, is a quiet and hushed C major triad pierced by an occasional F#. It is also at times quite Impressionistic as in the first Dance. The modality Griffiths mentions is created by melodic inflexions influenced by Rumanian folk melody. Bartók loved that country and the war, which he was not fit enough to qualify, prevented him from visiting. Ironically if he had have fought (thank goodness for posterity that he couldn’t) for the Hungarians he would have been opposed to the Rumanians who were on the opposing side.
Boulez and the Chicago orchestra are superb and it would be churlish to criticize this evocative performance. I only wish, as the libretti can easily be divided up a little more, that DG had been more generous in tracking the work, say into fourteen portions. This would have marked off the Interludes and postludes also.
CD 8 Since it emerged in 2005 I have thought very highly of Marin Alsop’s version of ‘The Miraculous Mandarin’ which Naxos calls a ballet (8.557433) but Deutsche Grammophon call by its proper name, a ‘Pantomime in 1 Act’, Boulez brings out its garish nature, Alsop is just a little more calm especially in its final scenes but both are excellent as are their orchestras. The Bournemouth Symphony has a stronger chorus. Boulez’s is a little more recessed but the Chicago strings have more power and lyrical warmth. Bartók finished the work over six years before orchestrating it. Then after a few performances in Cologne it was banned because of its story of seduction and murder. Although seen elsewhere the following year it was never done in Hungary until after Bartók died. The score has sounds reminiscent of ‘The Rite of Spring’. The wordless chorus whose brief appearance in section 11 is quite magical was inspired, extraordinarily enough, by Delius’s ‘Mass of Life’ which Bartók had recently heard and admired.
The disc ends as does the whole set with an undisputed masterwork: the ‘Music for Strings, Percussion and Celesta’. It’s a four movement work in the pattern Slow-fast-slow-fast. With a tightly constructed overall structure it is both mathematically remarkable and musically natural. Its opening theme rises arch-like over a group of seven notes. The construction is Schoenberg-like and at times almost atonal. In other words Boulez is totally in sympathy with this work as is his team. Actually the strings are divided into two ‘choirs’ and the recording engineers have divided them nicely across the stereo space. This is especially noticeable in the Stravinskian second movement with its jagged rhythms and dialogue between the groups. Altogether this is a terrific performance and brings the set to a fine and up-beat finish.
Like all box sets there are swings and roundabouts and some other versions of certain works I shall not dispense with. That said, Boulez is generally masterful in his over-arching understanding of what Bartók actually wants and is able to bring out the form and detail. He is not in full sympathy with every work but that is hardly surprising. The recordings are, almost without exception, top quality and the orchestral work and solo work likewise. This is a good addition to your Bartók collection and some performances will be difficult to improve on.
Gary Higginson

CUE CD1

REM GENRE Classical
REM DATE 2009
REM DISCID 810E0F09
REM COMMENT "ExactAudioCopy v0.99pb5"
PERFORMER "Bartók - Boulez cd 1"
TITLE "Four Orchestral Pieces - Concerto For Orchestra"
FILE "Bartók - Boulez cd 1 - Four Orchestral Pieces - Concerto For Orchestra\01 - Four Orchestral Pieces Op. 12 (Sz 51) - 1. Preludio - Moderato.wav" WAVE
TRACK 01 AUDIO
TITLE "Four Orchestral Pieces Op. 12 (Sz 51) - 1. Preludio - Moderato"
PERFORMER "Bartók - Boulez cd 1"
PREGAP 00:00:32
INDEX 01 00:00:00
FILE "Bartók - Boulez cd 1 - Four Orchestral Pieces - Concerto For Orchestra\02 - 2. Scherzo - Allegro.wav" WAVE
TRACK 02 AUDIO
TITLE "2. Scherzo - Allegro"
PERFORMER "Bartók - Boulez cd 1"
INDEX 01 00:00:00
FILE "Bartók - Boulez cd 1 - Four Orchestral Pieces - Concerto For Orchestra\03 - 3. Intermezzo - Moderato.wav" WAVE
TRACK 03 AUDIO
TITLE "3. Intermezzo - Moderato"
PERFORMER "Bartók - Boulez cd 1"
INDEX 01 00:00:00
FILE "Bartók - Boulez cd 1 - Four Orchestral Pieces - Concerto For Orchestra\04 - 4. Marcia Funebre - Maestoso.wav" WAVE
TRACK 04 AUDIO
TITLE "4. Marcia Funebre - Maestoso"
PERFORMER "Bartók - Boulez cd 1"
INDEX 01 00:00:00
TRACK 05 AUDIO
TITLE "Concerto For Orchestra (Sz 116) - 1. Introduzione - Andante Non Troppo - Alle..."
PERFORMER "Bartók - Boulez cd 1"
INDEX 00 04:57:00
FILE "Bartók - Boulez cd 1 - Four Orchestral Pieces - Concerto For Orchestra\05 - Concerto For Orchestra (Sz 116) - 1. Introduzione - Andante Non Troppo - Allegro vivace - Tempo I.wav" WAVE
INDEX 01 00:00:00
FILE "Bartók - Boulez cd 1 - Four Orchestral Pieces - Concerto For Orchestra\06 - 2. Giuoco Delle Coppie - Allegretto Scherzando.wav" WAVE
TRACK 06 AUDIO
TITLE "2. Giuoco Delle Coppie - Allegretto Scherzando"
PERFORMER "Bartók - Boulez cd 1"
INDEX 01 00:00:00
FILE "Bartók - Boulez cd 1 - Four Orchestral Pieces - Concerto For Orchestra\07 - 3. Elegia - Andante, Non Troppo.wav" WAVE
TRACK 07 AUDIO
TITLE "3. Elegia - Andante, Non Troppo"
PERFORMER "Bartók - Boulez cd 1"
INDEX 01 00:00:00
FILE "Bartók - Boulez cd 1 - Four Orchestral Pieces - Concerto For Orchestra\08 - 4. Intermezzo Interrotto - Allegretto.wav" WAVE
TRACK 08 AUDIO
TITLE "4. Intermezzo Interrotto - Allegretto"
PERFORMER "Bartók - Boulez cd 1"
INDEX 01 00:00:00
FILE "Bartók - Boulez cd 1 - Four Orchestral Pieces - Concerto For Orchestra\09 - 5. Finale - Pesante - Presto.wav" WAVE
TRACK 09 AUDIO
TITLE "5. Finale - Pesante - Presto"
PERFORMER "Bartók - Boulez cd 1"
INDEX 01 00:00:00

CUE CD2

REM GENRE Classical
REM DATE 2009
REM DISCID E910FD10
REM COMMENT "ExactAudioCopy v0.99pb5"
PERFORMER "Bartók - Boulez cd 2"
TITLE "Tanz Suite - Two Pictures - Hungarian Sketches - Divertimento"
FILE "Bartók - Boulez cd 2 - Tanz Suite - Two Pictures - Hungarian Sketches - Divertimento\01 - Tanz Suite Sz77 - 1. Moderato.wav" WAVE
TRACK 01 AUDIO
TITLE "Tanz Suite Sz77 - 1. Moderato"
PERFORMER "Bartók - Boulez cd 2"
PREGAP 00:00:32
INDEX 01 00:00:00
FILE "Bartók - Boulez cd 2 - Tanz Suite - Two Pictures - Hungarian Sketches - Divertimento\02 - 2. Allegro molto.wav" WAVE
TRACK 02 AUDIO
TITLE "2. Allegro molto"
PERFORMER "Bartók - Boulez cd 2"
INDEX 01 00:00:00
FILE "Bartók - Boulez cd 2 - Tanz Suite - Two Pictures - Hungarian Sketches - Divertimento\03 - 3. Allegro vivace.wav" WAVE
TRACK 03 AUDIO
TITLE "3. Allegro vivace"
PERFORMER "Bartók - Boulez cd 2"
INDEX 01 00:00:00
FILE "Bartók - Boulez cd 2 - Tanz Suite - Two Pictures - Hungarian Sketches - Divertimento\04 - 4. Molto tranquillo.wav" WAVE
TRACK 04 AUDIO
TITLE "4. Molto tranquillo"
PERFORMER "Bartók - Boulez cd 2"
INDEX 01 00:00:00
FILE "Bartók - Boulez cd 2 - Tanz Suite - Two Pictures - Hungarian Sketches - Divertimento\05 - 5. Comodo.wav" WAVE
TRACK 05 AUDIO
TITLE "5. Comodo"
PERFORMER "Bartók - Boulez cd 2"
INDEX 01 00:00:00
FILE "Bartók - Boulez cd 2 - Tanz Suite - Two Pictures - Hungarian Sketches - Divertimento\06 - 6. Finale- Allegro.wav" WAVE
TRACK 06 AUDIO
TITLE "6. Finale: Allegro"
PERFORMER "Bartók - Boulez cd 2"
INDEX 01 00:00:00
TRACK 07 AUDIO
TITLE "Two Pictures op10 Sz746 - 1. In voller Bluete"
PERFORMER "Bartók - Boulez cd 2"
INDEX 00 04:05:25
FILE "Bartók - Boulez cd 2 - Tanz Suite - Two Pictures - Hungarian Sketches - Divertimento\07 - Two Pictures op10 Sz746 - 1. In voller Bluete.wav" WAVE
INDEX 01 00:00:00
FILE "Bartók - Boulez cd 2 - Tanz Suite - Two Pictures - Hungarian Sketches - Divertimento\08 - 2. Dorftanz.wav" WAVE
TRACK 08 AUDIO
TITLE "2. Dorftanz"
PERFORMER "Bartók - Boulez cd 2"
INDEX 01 00:00:00
TRACK 09 AUDIO
TITLE "Hungarian Sketches Sz97 - 1. Ein Abend auf dem Lande - Lento rubato - Allegro"
PERFORMER "Bartók - Boulez cd 2"
INDEX 00 09:46:00
FILE "Bartók - Boulez cd 2 - Tanz Suite - Two Pictures - Hungarian Sketches - Divertimento\09 - Hungarian Sketches Sz97 - 1. Ein Abend auf dem Lande - Lento rubato - Allegro.wav" WAVE
INDEX 01 00:00:00
FILE "Bartók - Boulez cd 2 - Tanz Suite - Two Pictures - Hungarian Sketches - Divertimento\10 - 2. Barentanz - Allegro vivace.wav" WAVE
TRACK 10 AUDIO
TITLE "2. Barentanz - Allegro vivace"
PERFORMER "Bartók - Boulez cd 2"
INDEX 01 00:00:00
FILE "Bartók - Boulez cd 2 - Tanz Suite - Two Pictures - Hungarian Sketches - Divertimento\11 - 3. Melodie - Andante.wav" WAVE
TRACK 11 AUDIO
TITLE "3. Melodie - Andante"
PERFORMER "Bartók - Boulez cd 2"
INDEX 01 00:00:00
FILE "Bartók - Boulez cd 2 - Tanz Suite - Two Pictures - Hungarian Sketches - Divertimento\12 - 4.Etwas angeheitert - Leggermente ubriaco.wav" WAVE
TRACK 12 AUDIO
TITLE "4.Etwas angeheitert - Leggermente ubriaco"
PERFORMER "Bartók - Boulez cd 2"
INDEX 01 00:00:00
FILE "Bartók - Boulez cd 2 - Tanz Suite - Two Pictures - Hungarian Sketches - Divertimento\13 - 5. Ueroeger Schweinehirtentanz - Allegro molto.wav" WAVE
TRACK 13 AUDIO
TITLE "5. Ueroeger Schweinehirtentanz - Allegro molto"
PERFORMER "Bartók - Boulez cd 2"
INDEX 01 00:00:00
TRACK 14 AUDIO
TITLE "Divertimento Sz113 - 1. Allegro non troppo"
PERFORMER "Bartók - Boulez cd 2"
INDEX 00 02:02:12
FILE "Bartók - Boulez cd 2 - Tanz Suite - Two Pictures - Hungarian Sketches - Divertimento\14 - Divertimento Sz113 - 1. Allegro non troppo.wav" WAVE
INDEX 01 00:00:00
FILE "Bartók - Boulez cd 2 - Tanz Suite - Two Pictures - Hungarian Sketches - Divertimento\15 - 2. Molto adagio.wav" WAVE
TRACK 15 AUDIO
TITLE "2. Molto adagio"
PERFORMER "Bartók - Boulez cd 2"
INDEX 01 00:00:00
FILE "Bartók - Boulez cd 2 - Tanz Suite - Two Pictures - Hungarian Sketches - Divertimento\16 - 3. Allegro assai.wav" WAVE
TRACK 16 AUDIO
TITLE "3. Allegro assai"
PERFORMER "Bartók - Boulez cd 2"
INDEX 01 00:00:00

CUE CD3

REM GENRE Classical
REM DATE 2009
REM DISCID 8F11E909
REM COMMENT "ExactAudioCopy v0.99pb5"
PERFORMER "Bartók - Boulez cd 3"
TITLE "Piano Concertos 1 - 3"
FILE "Bartók - Boulez cd 3 - Piano Concertos 1 - 3\01 - Piano Concerto No.1 in E minor, Sz.83 (1926) - 1. Allegro moderato - Allegro.wav" WAVE
TRACK 01 AUDIO
TITLE "Piano Concerto No.1 in E minor, Sz.83 (1926) - 1. Allegro moderato - Allegro"
PERFORMER "Bartók - Boulez cd 3"
INDEX 01 00:00:00
FILE "Bartók - Boulez cd 3 - Piano Concertos 1 - 3\02 - 2. Andante - Allegro - attacca-.wav" WAVE
TRACK 02 AUDIO
TITLE "2. Andante - Allegro - attacca:"
PERFORMER "Bartók - Boulez cd 3"
INDEX 01 00:00:00
FILE "Bartók - Boulez cd 3 - Piano Concertos 1 - 3\03 - 3. Allegro molto.wav" WAVE
TRACK 03 AUDIO
TITLE "3. Allegro molto"
PERFORMER "Bartók - Boulez cd 3"
INDEX 01 00:00:00
TRACK 04 AUDIO
TITLE "Piano Concerto No.2 in G major, Sz.95 (1930-1) - 1. Allegro"
PERFORMER "Bartók - Boulez cd 3"
INDEX 00 06:37:39
FILE "Bartók - Boulez cd 3 - Piano Concertos 1 - 3\04 - Piano Concerto No.2 in G major, Sz.95 (1930-1) - 1. Allegro.wav" WAVE
INDEX 01 00:00:00
FILE "Bartók - Boulez cd 3 - Piano Concertos 1 - 3\05 - 2. Adagio - Presto - Adagio.wav" WAVE
TRACK 05 AUDIO
TITLE "2. Adagio - Presto - Adagio"
PERFORMER "Bartók - Boulez cd 3"
INDEX 01 00:00:00
FILE "Bartók - Boulez cd 3 - Piano Concertos 1 - 3\06 - 3. Allegro molto - Presto.wav" WAVE
TRACK 06 AUDIO
TITLE "3. Allegro molto - Presto"
PERFORMER "Bartók - Boulez cd 3"
INDEX 01 00:00:00
TRACK 07 AUDIO
TITLE "Piano Concerto No.3 in E major, Sz.119 (1945, Tibor Serly) - 1. Allegretto"
PERFORMER "Bartók - Boulez cd 3"
INDEX 00 06:13:00
FILE "Bartók - Boulez cd 3 - Piano Concertos 1 - 3\07 - Piano Concerto No.3 in E major, Sz.119 (1945, Tibor Serly) - 1. Allegretto.wav" WAVE
INDEX 01 00:00:00
FILE "Bartók - Boulez cd 3 - Piano Concertos 1 - 3\08 - 2. Adagio religioso.wav" WAVE
TRACK 08 AUDIO
TITLE "2. Adagio religioso"
PERFORMER "Bartók - Boulez cd 3"
INDEX 01 00:00:00
FILE "Bartók - Boulez cd 3 - Piano Concertos 1 - 3\09 - 3. Allegro vivace.wav" WAVE
TRACK 09 AUDIO
TITLE "3. Allegro vivace"
PERFORMER "Bartók - Boulez cd 3"
INDEX 01 00:00:00

CUE CD4

REM GENRE Classical
REM DATE 2009
REM DISCID 73108C08
REM COMMENT "ExactAudioCopy v0.99pb5"
PERFORMER "Bartók - Boulez cd 4"
TITLE "Concertos"
FILE "Bartók - Boulez cd 4 - Concertos\01 - Concerto for two pianos, Percussion and Orchestra - 1 Assai Lento.wav" WAVE
TRACK 01 AUDIO
TITLE "Concerto for two pianos, Percussion and Orchestra - 1 Assai Lento"
PERFORMER "Bartók - Boulez cd 4"
INDEX 01 00:00:00
FILE "Bartók - Boulez cd 4 - Concertos\02 - Concerto for two pianos, Percussion and Orchestra - 2 Lento Ma Non Troppo.wav" WAVE
TRACK 02 AUDIO
TITLE "Concerto for two pianos, Percussion and Orchestra - 2 Lento Ma Non Troppo"
PERFORMER "Bartók - Boulez cd 4"
INDEX 01 00:00:00
FILE "Bartók - Boulez cd 4 - Concertos\03 - Concerto for two pianos, Percussion and Orchestra - 3 Allegro Ma Non Troppo.wav" WAVE
TRACK 03 AUDIO
TITLE "Concerto for two pianos, Percussion and Orchestra - 3 Allegro Ma Non Troppo"
PERFORMER "Bartók - Boulez cd 4"
INDEX 01 00:00:00
TRACK 04 AUDIO
TITLE "Concerto for violin and Orchestra 1 - 1 Andante Sostenuto"
PERFORMER "Bartók - Boulez cd 4"
INDEX 00 06:17:39
FILE "Bartók - Boulez cd 4 - Concertos\04 - Concerto for violin and Orchestra 1 - 1 Andante Sostenuto.wav" WAVE
INDEX 01 00:00:00
FILE "Bartók - Boulez cd 4 - Concertos\05 - Concerto for violin and Orchestra 1 - 2 Allegro giocoso.wav" WAVE
TRACK 05 AUDIO
TITLE "Concerto for violin and Orchestra 1 - 2 Allegro giocoso"
PERFORMER "Bartók - Boulez cd 4"
INDEX 01 00:00:00
TRACK 06 AUDIO
TITLE "Concerto for viola and Orchestra - 1 Moderato"
PERFORMER "Bartók - Boulez cd 4"
INDEX 00 11:47:04
FILE "Bartók - Boulez cd 4 - Concertos\06 - Concerto for viola and Orchestra - 1 Moderato.wav" WAVE
INDEX 01 00:00:00
FILE "Bartók - Boulez cd 4 - Concertos\07 - Concerto for viola and Orchestra - 2 Adagio Religioso.wav" WAVE
TRACK 07 AUDIO
TITLE "Concerto for viola and Orchestra - 2 Adagio Religioso"
PERFORMER "Bartók - Boulez cd 4"
INDEX 01 00:00:00
FILE "Bartók - Boulez cd 4 - Concertos\08 - Concerto for viola and Orchestra - 3 Allegro vivace.wav" WAVE
TRACK 08 AUDIO
TITLE "Concerto for viola and Orchestra - 3 Allegro vivace"
PERFORMER "Bartók - Boulez cd 4"
INDEX 01 00:00:00

CUE CD5

REM GENRE Classical
REM DATE 2009
REM DISCID 4C0EE107
REM COMMENT "ExactAudioCopy v0.99pb5"
PERFORMER "Bartók - Boulez cd 5"
TITLE "Violin Concerto no.2 - Rhapsody for Violin and Orchestra nos. 1 & 2"
FILE "Bartók - Boulez cd 5 - Violin Concerto no.2 - Rhapsody for Violin and Orchestra nos. 1 & 2\01 - Concerto for Violin and Orchestra no.2 Sz112 - 1. Allegro non troppo.wav" WAVE
TRACK 01 AUDIO
TITLE "Concerto for Violin and Orchestra no.2 Sz112 - 1. Allegro non troppo"
PERFORMER "Bartók - Boulez cd 5"
INDEX 01 00:00:00
FILE "Bartók - Boulez cd 5 - Violin Concerto no.2 - Rhapsody for Violin and Orchestra nos. 1 & 2\02 - 2. Andante tranquillo.wav" WAVE
TRACK 02 AUDIO
TITLE "2. Andante tranquillo"
PERFORMER "Bartók - Boulez cd 5"
INDEX 01 00:00:00
FILE "Bartók - Boulez cd 5 - Violin Concerto no.2 - Rhapsody for Violin and Orchestra nos. 1 & 2\03 - 3. Allegro molto.wav" WAVE
TRACK 03 AUDIO
TITLE "3. Allegro molto"
PERFORMER "Bartók - Boulez cd 5"
INDEX 01 00:00:00
TRACK 04 AUDIO
TITLE "Rhapsody for Violin and Orchestra - 1. Lassú. Moderato"
PERFORMER "Bartók - Boulez cd 5"
INDEX 00 12:59:00
FILE "Bartók - Boulez cd 5 - Violin Concerto no.2 - Rhapsody for Violin and Orchestra nos. 1 & 2\04 - Rhapsody for Violin and Orchestra - 1. Lassú. Moderato.wav" WAVE
INDEX 01 00:00:00
FILE "Bartók - Boulez cd 5 - Violin Concerto no.2 - Rhapsody for Violin and Orchestra nos. 1 & 2\05 - 2. Friss. Allegretto moderato.wav" WAVE
TRACK 05 AUDIO
TITLE "2. Friss. Allegretto moderato"
PERFORMER "Bartók - Boulez cd 5"
INDEX 01 00:00:00
TRACK 06 AUDIO
TITLE "Rhapsody for Violin and Orchestra no.2 Sz90 - 1. Lassú. Moderato "
PERFORMER "Bartók - Boulez cd 5"
INDEX 00 05:57:00
FILE "Bartók - Boulez cd 5 - Violin Concerto no.2 - Rhapsody for Violin and Orchestra nos. 1 & 2\06 - Rhapsody for Violin and Orchestra no.2 Sz90 - 1. Lassú. Moderato.wav" WAVE
INDEX 01 00:00:00
FILE "Bartók - Boulez cd 5 - Violin Concerto no.2 - Rhapsody for Violin and Orchestra nos. 1 & 2\07 - 2. Friss. Allegro moderato.wav" WAVE
TRACK 07 AUDIO
TITLE "2. Friss. Allegro moderato"
PERFORMER "Bartók - Boulez cd 5"
INDEX 01 00:00:00

CUE CD6

REM GENRE Classical
REM DATE 2009
REM DISCID AD0D980C
REM COMMENT "ExactAudioCopy v0.99pb5"
PERFORMER "Bartók - Boulez cd 6"
TITLE "Bluebeard's Castle"
FILE "Bartók - Boulez cd 6 - Bluebeard's Castle\01 - Prologue - 'The Tale Is Old' - 'Here We Are Now'.wav" WAVE
TRACK 01 AUDIO
TITLE "Prologue - 'The Tale Is Old' - 'Here We Are Now'"
PERFORMER "Bartók - Boulez cd 6"
INDEX 01 00:00:00
FILE "Bartók - Boulez cd 6 - Bluebeard's Castle\02 - Judith - 'Is This Really Bluebeard's Castle'.wav" WAVE
TRACK 02 AUDIO
TITLE "Judith - 'Is This Really Bluebeard's Castle'"
PERFORMER "Bartók - Boulez cd 6"
INDEX 01 00:00:00
FILE "Bartók - Boulez cd 6 - Bluebeard's Castle\03 - Judith - 'Ah, I See Seven Great Shut Doorways'.wav" WAVE
TRACK 03 AUDIO
TITLE "Judith - 'Ah, I See Seven Great Shut Doorways'"
PERFORMER "Bartók - Boulez cd 6"
INDEX 01 00:00:00
FILE "Bartók - Boulez cd 6 - Bluebeard's Castle\04 - First Door - Judith - 'Woe!' - 'What Seest Thou'.wav" WAVE
TRACK 04 AUDIO
TITLE "First Door - Judith - 'Woe!' - 'What Seest Thou'"
PERFORMER "Bartók - Boulez cd 6"
INDEX 01 00:00:00
FILE "Bartók - Boulez cd 6 - Bluebeard's Castle\05 - Second Door - Bluebeard - 'What Seest Thou'.wav" WAVE
TRACK 05 AUDIO
TITLE "Second Door - Bluebeard - 'What Seest Thou'"
PERFORMER "Bartók - Boulez cd 6"
INDEX 01 00:00:00
FILE "Bartók - Boulez cd 6 - Bluebeard's Castle\06 - Third Door - Judith - 'Mountains Of Gold!'.wav" WAVE
TRACK 06 AUDIO
TITLE "Third Door - Judith - 'Mountains Of Gold!'"
PERFORMER "Bartók - Boulez cd 6"
INDEX 01 00:00:00
FILE "Bartók - Boulez cd 6 - Bluebeard's Castle\07 - Fourth Door - Judith - 'Ah! Lovely Flowers'.wav" WAVE
TRACK 07 AUDIO
TITLE "Fourth Door - Judith - 'Ah! Lovely Flowers'"
PERFORMER "Bartók - Boulez cd 6"
INDEX 01 00:00:00
FILE "Bartók - Boulez cd 6 - Bluebeard's Castle\08 - Fifth Door - Bluebeard - Look, My Castle Gleams And Brightens'.wav" WAVE
TRACK 08 AUDIO
TITLE "Fifth Door - Bluebeard - Look, My Castle Gleams And Brightens'"
PERFORMER "Bartók - Boulez cd 6"
INDEX 01 00:00:00
FILE "Bartók - Boulez cd 6 - Bluebeard's Castle\09 - Sixth Door - Judith - 'I Can See A Sheet Of Water'.wav" WAVE
TRACK 09 AUDIO
TITLE "Sixth Door - Judith - 'I Can See A Sheet Of Water'"
PERFORMER "Bartók - Boulez cd 6"
INDEX 01 00:00:00
FILE "Bartók - Boulez cd 6 - Bluebeard's Castle\10 - Bluebeard 'The Last Of My Doors Must Stay Shut'.wav" WAVE
TRACK 10 AUDIO
TITLE "Bluebeard 'The Last Of My Doors Must Stay Shut'"
PERFORMER "Bartók - Boulez cd 6"
INDEX 01 00:00:00
FILE "Bartók - Boulez cd 6 - Bluebeard's Castle\11 - Judith - 'Now I Know It All, O Bluebeard'.wav" WAVE
TRACK 11 AUDIO
TITLE "Judith - 'Now I Know It All, O Bluebeard'"
PERFORMER "Bartók - Boulez cd 6"
INDEX 01 00:00:00
FILE "Bartók - Boulez cd 6 - Bluebeard's Castle\12 - Bluebeard - 'Hearts That I Have Loved And Cherished'.wav" WAVE
TRACK 12 AUDIO
TITLE "Bluebeard - 'Hearts That I Have Loved And Cherished'"
PERFORMER "Bartók - Boulez cd 6"
INDEX 01 00:00:00

CUE CD7

REM GENRE Classical
REM DATE 2009
REM DISCID 91112A0B
REM COMMENT "ExactAudioCopy v0.99pb5"
PERFORMER "Bartók - Boulez cd 7"
TITLE "Cantata Profana - The Wooden Prince"
FILE "Bartók - Boulez cd 7 - Cantata Profana - The Wooden Prince\01 - Cantata Profana I. there was once an old man.wav" WAVE
TRACK 01 AUDIO
TITLE "Cantata Profana I. there was once an old man"
PERFORMER "Bartók - Boulez cd 7"
PREGAP 00:00:33
INDEX 01 00:00:00
FILE "Bartók - Boulez cd 7 - Cantata Profana - The Wooden Prince\02 - II. but their father grew impatient.wav" WAVE
TRACK 02 AUDIO
TITLE "II. but their father grew impatient"
PERFORMER "Bartók - Boulez cd 7"
INDEX 01 00:00:00
FILE "Bartók - Boulez cd 7 - Cantata Profana - The Wooden Prince\03 - III. Volt egy oreg apo.wav" WAVE
TRACK 03 AUDIO
TITLE "III. Volt egy oreg apo"
PERFORMER "Bartók - Boulez cd 7"
INDEX 01 00:00:00
TRACK 04 AUDIO
TITLE "The Wooden Prince - Introduction"
PERFORMER "Bartók - Boulez cd 7"
INDEX 00 03:06:65
FILE "Bartók - Boulez cd 7 - Cantata Profana - The Wooden Prince\04 - The Wooden Prince - Introduction.wav" WAVE
INDEX 01 00:00:00
FILE "Bartók - Boulez cd 7 - Cantata Profana - The Wooden Prince\05 - First Dance.wav" WAVE
TRACK 05 AUDIO
TITLE "First Dance"
PERFORMER "Bartók - Boulez cd 7"
INDEX 01 00:00:00
FILE "Bartók - Boulez cd 7 - Cantata Profana - The Wooden Prince\06 - Second Dance.wav" WAVE
TRACK 06 AUDIO
TITLE "Second Dance"
PERFORMER "Bartók - Boulez cd 7"
INDEX 01 00:00:00
FILE "Bartók - Boulez cd 7 - Cantata Profana - The Wooden Prince\07 - Third Dance.wav" WAVE
TRACK 07 AUDIO
TITLE "Third Dance"
PERFORMER "Bartók - Boulez cd 7"
INDEX 01 00:00:00
FILE "Bartók - Boulez cd 7 - Cantata Profana - The Wooden Prince\08 - Fourth Dance.wav" WAVE
TRACK 08 AUDIO
TITLE "Fourth Dance"
PERFORMER "Bartók - Boulez cd 7"
INDEX 01 00:00:00
FILE "Bartók - Boulez cd 7 - Cantata Profana - The Wooden Prince\09 - Fifth Dance.wav" WAVE
TRACK 09 AUDIO
TITLE "Fifth Dance"
PERFORMER "Bartók - Boulez cd 7"
INDEX 01 00:00:00
FILE "Bartók - Boulez cd 7 - Cantata Profana - The Wooden Prince\10 - Sixth Dance.wav" WAVE
TRACK 10 AUDIO
TITLE "Sixth Dance"
PERFORMER "Bartók - Boulez cd 7"
INDEX 01 00:00:00
FILE "Bartók - Boulez cd 7 - Cantata Profana - The Wooden Prince\11 - Seventh Dance.wav" WAVE
TRACK 11 AUDIO
TITLE "Seventh Dance"
PERFORMER "Bartók - Boulez cd 7"
INDEX 01 00:00:00

CUE CD8

REM GENRE Classical
REM DATE 2009
REM DISCID C40E9A0F
REM COMMENT "ExactAudioCopy v0.99pb5"
PERFORMER "Bartók - Boulez cd 8"
TITLE "The Miraculous Mandarin; Music for Strings, Percussion and Celesta"
FILE "Bartók - Boulez cd 8 - The Miraculous Mandarin; Music for Strings, Percussion and Celesta\01 - The Miraculous Mandarin, Op. 19, Sz 73- Beginning (Allegro).wav" WAVE
TRACK 01 AUDIO
TITLE "The Miraculous Mandarin, Op. 19, Sz 73: Beginning (Allegro)"
PERFORMER "Bartók - Boulez cd 8"
PREGAP 00:00:32
INDEX 01 00:00:00
FILE "Bartók - Boulez cd 8 - The Miraculous Mandarin; Music for Strings, Percussion and Celesta\02 - First seduction game- the shabby old rake (Moderato).wav" WAVE
TRACK 02 AUDIO
TITLE "First seduction game: the shabby old rake (Moderato)"
PERFORMER "Bartók - Boulez cd 8"
INDEX 01 00:00:00
FILE "Bartók - Boulez cd 8 - The Miraculous Mandarin; Music for Strings, Percussion and Celesta\03 - Second seduction game.wav" WAVE
TRACK 03 AUDIO
TITLE "Second seduction game"
PERFORMER "Bartók - Boulez cd 8"
INDEX 01 00:00:00
FILE "Bartók - Boulez cd 8 - The Miraculous Mandarin; Music for Strings, Percussion and Celesta\04 - Third seduction game (Sostenuto).wav" WAVE
TRACK 04 AUDIO
TITLE "Third seduction game (Sostenuto)"
PERFORMER "Bartók - Boulez cd 8"
INDEX 01 00:00:00
FILE "Bartók - Boulez cd 8 - The Miraculous Mandarin; Music for Strings, Percussion and Celesta\05 - The Mandarin enters and remains immobile in the doorway... (Maestoso).wav" WAVE
TRACK 05 AUDIO
TITLE "The Mandarin enters and remains immobile in the doorway... (Maestoso)"
PERFORMER "Bartók - Boulez cd 8"
INDEX 01 00:00:00
FILE "Bartók - Boulez cd 8 - The Miraculous Mandarin; Music for Strings, Percussion and Celesta\06 - The girl sinks down to embrace him... (Allegro).wav" WAVE
TRACK 06 AUDIO
TITLE "The girl sinks down to embrace him... (Allegro)"
PERFORMER "Bartók - Boulez cd 8"
INDEX 01 00:00:00
FILE "Bartók - Boulez cd 8 - The Miraculous Mandarin; Music for Strings, Percussion and Celesta\07 - The tramps leap out, seize the Mandarin and tear him away from the girl.wav" WAVE
TRACK 07 AUDIO
TITLE "The tramps leap out, seize the Mandarin and tear him away from the girl"
PERFORMER "Bartók - Boulez cd 8"
INDEX 01 00:00:00
FILE "Bartók - Boulez cd 8 - The Miraculous Mandarin; Music for Strings, Percussion and Celesta\08 - Suddenly the Mandarin's head appears between the pillows and he looks longingly at the gio.wav" WAVE
TRACK 08 AUDIO
TITLE "Suddenly the Mandarin's head appears between the pillows and he looks longing..."
PERFORMER "Bartók - Boulez cd 8"
INDEX 01 00:00:00
FILE "Bartók - Boulez cd 8 - The Miraculous Mandarin; Music for Strings, Percussion and Celesta\09 - The terrified tramps discuss how they are to get rid of the Mandarin at last. (Agitato).wav" WAVE
TRACK 09 AUDIO
TITLE "The terrified tramps discuss how they are to get rid of the Mandarin at last...."
PERFORMER "Bartók - Boulez cd 8"
INDEX 01 00:00:00
FILE "Bartók - Boulez cd 8 - The Miraculous Mandarin; Music for Strings, Percussion and Celesta\10 - The body of the Mandarin begins to glow with a greenish blue light. (Molto moderato).wav" WAVE
TRACK 10 AUDIO
TITLE "The body of the Mandarin begins to glow with a greenish blue light. (Molto mo..."
PERFORMER "Bartók - Boulez cd 8"
INDEX 01 00:00:00
FILE "Bartók - Boulez cd 8 - The Miraculous Mandarin; Music for Strings, Percussion and Celesta\11 - She resists no longer; they embrace (Più mosso - Vivo).wav" WAVE
TRACK 11 AUDIO
TITLE "She resists no longer; they embrace (Più mosso - Vivo)"
PERFORMER "Bartók - Boulez cd 8"
INDEX 01 00:00:00
TRACK 12 AUDIO
TITLE "Music for Strings, Percussion and Celesta, Sz 106: Andante tranquillo"
PERFORMER "Bartók - Boulez cd 8"
INDEX 00 02:21:00
FILE "Bartók - Boulez cd 8 - The Miraculous Mandarin; Music for Strings, Percussion and Celesta\12 - Music for Strings, Percussion and Celesta, Sz 106- Andante tranquillo.wav" WAVE
INDEX 01 00:00:00
FILE "Bartók - Boulez cd 8 - The Miraculous Mandarin; Music for Strings, Percussion and Celesta\13 - Allegro.wav" WAVE
TRACK 13 AUDIO
TITLE "Allegro"
PERFORMER "Bartók - Boulez cd 8"
INDEX 01 00:00:00
FILE "Bartók - Boulez cd 8 - The Miraculous Mandarin; Music for Strings, Percussion and Celesta\14 - Adagio.wav" WAVE
TRACK 14 AUDIO
TITLE "Adagio"
PERFORMER "Bartók - Boulez cd 8"
INDEX 01 00:00:00
FILE "Bartók - Boulez cd 8 - The Miraculous Mandarin; Music for Strings, Percussion and Celesta\15 - Allegro molto.wav" WAVE
TRACK 15 AUDIO
TITLE "Allegro molto"
PERFORMER "Bartók - Boulez cd 8"
INDEX 01 00:00:00
[teatrix.ru].t9752.torrent 
Торрент: Зарегистрирован [ 2015-10-23 17:26 ] · 07A5CF631D669E085FDEC64830F5EFBDDFA6A615

Скачать .torrent

Скачать

30 KB

Статус: проверено
Скачан: 1 раз
Размер: 2.1 GB
terms.php



Быстрый ответ

Имя:

      
Для отправки сообщений необходимо включить JavaScript
Показать сообщения:    

Текущее время: 10-Дек 23:25

Часовой пояс: UTC + 3


Вы можете начинать темы
Вы можете отвечать на сообщения
Вы не можете редактировать свои сообщения
Вы не можете удалять свои сообщения
Вы не можете голосовать в опросах
Вы не можете прикреплять файлы к сообщениям
Вы можете скачивать файлы