(Classical) Simon Rattle - British Music (Elgar, Vaughan Williams, Walton, Holst, Ades, Matthews, Arnold, Knussen, Grainger, Maw, Turnage) [11CD]- 2009, FLAC (tracks+.cue), lossless


Статистика раздачи [Обновить пиров]
Размер:  2.74 GB   |    Зарегистрирован:  1 год 1 месяц   |    Скачан:  0 раз

Полного источника не было: Никогда

Личеров:  1  [  0 KB/s  ]   Подробная статистика пиров
 
   
 
 
 

[Цитировать]

Simon Rattle: British Music
Жанр: Classical
Год выпуска диска: 2009
Производитель диска: EMI Classics
Аудио кодек: FLAC
Тип рипа: tracks+.cue
Битрейт аудио: lossless
Продолжительность: 78:37+71:50+67:33+62:50+78:28+57:24+70:28+70:01+55:11+62:55+78:54
Трэклист:

CD1 - Edward Elgar - Enigma Variations, Grania & Diarmid, Falstaff Symphonic Study

Edward Elgar
Enigma Variations Op36
1. Theme (Andante)
2. Variation I (L'istesso tempo) "C.A.E."
3. Variation II (Allegro) "H.D.S.-P."
4. Variation III (Allegretto) "R.B.T."
5. Variation IV (Allegro di molto) "W.M.B."
6. Variation V (Moderato) "R.P.A."
7. Variation VI (Andantino) "Ysobel"
8. Variation VII (Presto) "Troyte"
9. Variation VIII (Allegretto) "W.N."
10. Variation IX (Adagio) "Nimrod"
11. Variation X (Intermezzo: Allegretto) "Dorabella"
12. Variation XI (Allegro di molto) "G.R.S."
13. Variation XII (Andante) "B.G.N."
14. Variation XIII (Romanza: Moderato) "* * *"
15. Variation XIV (Finale: Allegro Presto) "E.D.U."
Grania & Diarmid Op42
16. Incidental Music
17. Funeral March
Falstaff Symphonic Study Cm Op68
18. Falstaff & Prince Henry
19. Eastcheap Gadshill The Boars Head Revelry...
20. Dream Interlude
21. Falstaffs March The Return Through Glouce...
22. Interlude Gloucestershire Shallows Orchar...
23. King Henry vs Progress The Repudiation Of ...
City of Birmingham Symphony Orchestra

CD2 - Edward Elgar - Violin Concerto, Ralph Vaughan Williams - The Lark Ascending

Edward Elgar
Violin Concerto in B minor, op.61
1. Allegro
2. Andante
3. Allegro molto - Cadenza
Ralph Vaughan Williams
4. The Lark Ascending - Romance for Violin and Orchestra
Nigel Kennedy - violin
City of Birmingham Symphony Orchestra

CD3 - William Walton - Cello Concerto, Edward Elgar - The Dreams of Gerontius

William Walton
Cello Concerto
1. Moderato
2. Allegro appassionato
3. Lento - Allegro molto
Edward Elgar
The Dreams of Gerontius op. 38
Part 1
4. Prelude: Lento, mistico - Moderato...
5. Jesu, maria - I am near to death (Gerontius)
6. So pray for me ... Kyrie eleison ... Holy mary, pray for him (Gerontius, S...
7. Rouse thee, my fainting soul ... Be merciful (Gerontius, Chorus)
8. Sanctus fortis, Sanctus Deus (Gerontius)
9. I can non more (Gerontius)
10. Rescue him, O Lord (Chorus, Gerontius, Semi-chorus)
11. Novissima hora est (Gerontius)
12. Proficiscere, anima Christiana (Priest)
13. Go in the name of Angels (Chorus, Priest, Semin-chorus)
14. Go forth upon the journey (Priest, Chorus, Semi-chorus)
Lynn Harrell - cello
John Mitchinson - tenor
John Shirley-Quirk - bass-baritone
City of Birmingham Symphony Chorus
City of Birmingham Symphony Orchestra

CD4 - Edward Elgar - The Dreams of Gerontius, Pomp and Circumstance March

Edward Elgar
The Dreams of Gerontius op. 38
Part 2
1. Introduction: Andantino
2. I went to sleep (Soul of Gerontius)
3. Another marvel (Soul)
4. My work is done (Angel, Soul)
5. It is a member of that family (Soul, Angel)
6. But hark! Upon my senses (Soul)
7. Low-born clods of brute earth (Chorus)
8. Dispossessed, aside thrust (Chorus, Angel)
9. The mind bold and independent (Chorus)
10. I see not those false spirits (Soul)
11. There was a mortal (Angel)
12. Praise to the Holiest (Semi-chorus, Chorus, Angel)
13. The sound is like the rushing of the wind (Soul)
14. Glory to Him (Chorus, Semi-chorus)
15. They sing of thy approaching agony (Angel, Semi-chorus, Soul, Chorus)
16. But hark! A grand mysterious harmony (Soul)
17. And now on the threshold (Angel)
18. Praise to the Holiest (Chorus)
19. Thy judgment now is near (Angel, Soul)
20. Jesu! By that shuddering dread ( Angel of the Agony, Soul)
21. Be merciful, be gracious (Semi-chorus, Chorus)
22. Praise to His Name! (Angel)
23. Take me away (Soul)
24. Lord, Thou hast been our refuge (Chorus)
25. Softly and gently (Angel, Chorus, Semi-chorus)
Janet Baker - mezzo-soprano
John Mitchinson - tenor
John Shirley-Quirk - bass-baritone
City of Birmingham Symphony Chorus
City of Birmingham Symphony Orchestra

26. Pomp and Circumstance March Op. 39 No. 4
Berliner Philharmoniker

CD5 - William Walton - Symphony No. 1, Belshazzar'S Feast

William Walton
Symphony No. 1
1. Allegro Assai
2. Presto, Con Malizia
3. Andante Con Malinconia
4. Maestoso - Brioso Ed Ardentemente - Vivacissimo - Maestoso
Belshazzar'S Feast
5. Thus Spake Isaiah (Maestoso)
6. Babylon Was A Great City (Quasi Recitativo)
7. Thus In Babylon, The Mighty City (Allegro Molot)
8. And In That Same Hour As They Feasted (Quasi Recitativo)
9. Then Sing Aloud To God Our Strength (Lento - Allegro Giocoso)
10. Then Sing Aloud To God Our Strength (Allegro)
Thomas Hampson - baritone
City of Birmingham Symphony Chorus
The Cleveland Orchestra Chorus
City of Birmingham Symphony Orchestra

CD6 - Gustav Holst - The Planets, Colin Matthews - Pluto, the Renewer

Gustav Holst
The Planets

1. Jupiter
2. Mars
3. Mercury
4. Neptune
5. Saturn
6. Uranus
7. Venus
Colin Matthews
8. Pluto, the Renewer
Rundfunkchor Berlin
Berliner Philharmoniker

CD7 - Ralph Vaughan Williams - On Wenlock Edge, Songs of Travel, Malcolm Arnold - Guitar Concerto, Oliver Knussen - Flourish with Fireworks

Ralph Vaughan Williams
On Wenlock Edge

1. Wenlock Edge - 01 On Wenlock Edge
2. From far, from eve and morning
3. Is my tem ploughing
4. Oh, when I was in love with you
5. Bredon Hill
6. Clun
Songs of Travel
7. The Vagabond
8. Let beauty awake
9. The Roadside Fire
10. Youth and Love
11. In Dreams
12. The infinite shining heavens
13. Whither must I wander
14. Bright is the ring of words
15. I have trod the upward and the downward slope
Malcolm Arnold
Guitar Concerto

16. Allegro
17. Lento - Vivace - Lento
18. Con brio
Oliver Knussen
19. Flourish with Fireworks
Robert Tear - tenor
Thomas Allen - baritone
Julian Bream - guitar
City of Birmingham Symphony Orchestra

CD8 - Percy Grainger - In a Nutshell, Train Music, Lincolnshire Posy

Percy Grainger
In a Nutshell

1. Arrival Platform Humlet
2. 'Gay but Wistful' (Tune in a popular London style)
3. Pastoral
4. 'The Gum-Suckers' March
5. Train Music (1901)
6. Country Gardens: English Morris Dance Tune
7. La Vallee des cloches (Ravel, arr. Graingerу)
Lincolnshire Posy
8. Lisbon (Sailor's Song)
9. Horkstow Grange (The Miser and his Man - a local tragedy)
10. Rufford Park Poachers (Poaching Song)
11. The Brisk Young Sailor (who returned to wed his True L...
12. Lord Melbourne (War Song)
13. The Lost Lady Found (Dance Song)
14. Pagodes from 'Estampes' (Debussy, arr. Grainger)
15. The Warriors: Music to an imaginary ballet for orchestra and three pianos
City of Birmingham Symphony Orchestra

CD9 - Thomas Ades - Asyla, Nicholas Maw - Odyssey

Thomas Ades
1-4. Asyla op. 17
Nicholas Maw
5-7. Odyssey
City of Birmingham Symphony Orchestra

CD10 - Nicholas Maw - Odyssey

Nicholas Maw
1-3. Odyssey
City of Birmingham Symphony Orchestra

CD11 - Mark-Anrthony Turnage - Drowned Out, Kai for solo cello and ensemble, Momentum, Ceres

Mark-Anrthony Turnage
1. Drowned Out
2. Kai for solo cello and ensemble
3. Three Screaming Popes after Francis Bacon for large ochestra
4. Momentum
5. Ceres*
Birmingham Contemporary Music Group
*Berliner Philharmoniker
Доп. информация:
Conductor: Simon Rattle

cueCD1

REM GENRE ClassicalREM DATE 1992REM DISCID 33126E17REM COMMENT "ExactAudioCopy v0.99pb4"PERFORMER "Elgar"TITLE "Enigma Variations & Grania Diarmid & Falstaff - Rattle"FILE "01 - Elgar - Enigma Variations Op36 01 Theme.flac" WAVE TRACK 01 AUDIO TITLE "Enigma Variations Op36 01 Theme" PERFORMER "Elgar" PREGAP 00:00:32 INDEX 01 00:00:00FILE "02 - Elgar - Enigma Variations Op36 02 01 C A E - The Composers Wife.flac" WAVE TRACK 02 AUDIO TITLE "Enigma Variations Op36 02 01 C A E - The Composers Wife" PERFORMER "Elgar" INDEX 01 00:00:00FILE "03 - Elgar - Enigma Variations Op36 03 02 H D S P - Hew David Steuart Powell.flac" WAVE TRACK 03 AUDIO TITLE "Enigma Variations Op36 03 02 H D S P - Hew David Steuart Powell" PERFORMER "Elgar" INDEX 01 00:00:00FILE "04 - Elgar - Enigma Variations Op36 04 03 R B T - Richard Baxter Townshend.flac" WAVE TRACK 04 AUDIO TITLE "Enigma Variations Op36 04 03 R B T - Richard Baxter Townshend" PERFORMER "Elgar" INDEX 01 00:00:00FILE "05 - Elgar - Enigma Variations Op36 05 04 W M B - William Meath Baker.flac" WAVE TRACK 05 AUDIO TITLE "Enigma Variations Op36 05 04 W M B - William Meath Baker" PERFORMER "Elgar" INDEX 01 00:00:00FILE "06 - Elgar - Enigma Variations Op36 06 05 R P A - Richard Penrose Arnold.flac" WAVE TRACK 06 AUDIO TITLE "Enigma Variations Op36 06 05 R P A - Richard Penrose Arnold" PERFORMER "Elgar" INDEX 01 00:00:00FILE "07 - Elgar - Enigma Variations Op36 07 06 Ysobel - Isabel Fritton.flac" WAVE TRACK 07 AUDIO TITLE "Enigma Variations Op36 07 06 Ysobel - Isabel Fritton" PERFORMER "Elgar" INDEX 01 00:00:00FILE "08 - Elgar - Enigma Variations Op36 08 07 Troyte - Troyte Griffith.flac" WAVE TRACK 08 AUDIO TITLE "Enigma Variations Op36 08 07 Troyte - Troyte Griffith" PERFORMER "Elgar" INDEX 01 00:00:00FILE "09 - Elgar - Enigma Variations Op36 09 08 W N - Winifred Norbury.flac" WAVE TRACK 09 AUDIO TITLE "Enigma Variations Op36 09 08 W N - Winifred Norbury" PERFORMER "Elgar" INDEX 01 00:00:00FILE "10 - Elgar - Enigma Variations Op36 10 09 Nimrod - A J Jaeger.flac" WAVE TRACK 10 AUDIO TITLE "Enigma Variations Op36 10 09 Nimrod - A J Jaeger" PERFORMER "Elgar" INDEX 01 00:00:00FILE "11 - Elgar - Enigma Variations Op36 11 10 Intermezzo Dorabella - Dora Penny.flac" WAVE TRACK 11 AUDIO TITLE "Enigma Variations Op36 11 10 Intermezzo Dorabella - Dora Penny" PERFORMER "Elgar" INDEX 01 00:00:00FILE "12 - Elgar - Enigma Variations Op36 12 11 G R S - George Robertson Sinclair.flac" WAVE TRACK 12 AUDIO TITLE "Enigma Variations Op36 12 11 G R S - George Robertson Sinclair" PERFORMER "Elgar" INDEX 01 00:00:00FILE "13 - Elgar - Enigma Variations Op36 13 12 B G N - Basil G Nevinson.flac" WAVE TRACK 13 AUDIO TITLE "Enigma Variations Op36 13 12 B G N - Basil G Nevinson" PERFORMER "Elgar" INDEX 01 00:00:00FILE "14 - Elgar - Enigma Variations Op36 14 13 Romanza - Lady Mary Lygon.flac" WAVE TRACK 14 AUDIO TITLE "Enigma Variations Op36 14 13 Romanza - Lady Mary Lygon" PERFORMER "Elgar" INDEX 01 00:00:00FILE "15 - Elgar - Enigma Variations Op36 15 14 Finale E D U - The Composer.flac" WAVE TRACK 15 AUDIO TITLE "Enigma Variations Op36 15 14 Finale E D U - The Composer" PERFORMER "Elgar" INDEX 01 00:00:00FILE "16 - Elgar - Grania & Diarmid Op42 1 Incidental Music.flac" WAVE TRACK 16 AUDIO TITLE "Grania & Diarmid Op42 1 Incidental Music" PERFORMER "Elgar" INDEX 01 00:00:00FILE "17 - Elgar - Grania & Diarmid Op42 2 Funeral March.flac" WAVE TRACK 17 AUDIO TITLE "Grania & Diarmid Op42 2 Funeral March" PERFORMER "Elgar" INDEX 01 00:00:00FILE "18 - Elgar - Falstaff Symphonic Study Cm Op68 1 Falstaff & Prince Henry.flac" WAVE TRACK 18 AUDIO TITLE "Falstaff Symphonic Study Cm Op68 1 Falstaff & Prince Henry" PERFORMER "Elgar" INDEX 01 00:00:00FILE "19 - Elgar - Falstaff Symphonic Study Cm Op68 2a Eastcheap Gadshill The Boars Head Revelry & Sleep.flac" WAVE TRACK 19 AUDIO TITLE "Falstaff Symphonic Study Cm Op68 2a Eastcheap Gadshill The Boars Head Revelry..." PERFORMER "Elgar" INDEX 01 00:00:00FILE "20 - Elgar - Falstaff Symphonic Study Cm Op68 2b Dream Interlude.flac" WAVE TRACK 20 AUDIO TITLE "Falstaff Symphonic Study Cm Op68 2b Dream Interlude" PERFORMER "Elgar" INDEX 01 00:00:00FILE "21 - Elgar - Falstaff Symphonic Study Cm Op68 3b Falstaffs March The Return Through Gloucestershire.flac" WAVE TRACK 21 AUDIO TITLE "Falstaff Symphonic Study Cm Op68 3b Falstaffs March The Return Through Glouce..." PERFORMER "Elgar" INDEX 01 00:00:00FILE "22 - Elgar - Falstaff Symphonic Study Cm Op68 3b Interlude Gloucestershire Shallows Orchard The New King The Hurried Ride To London.flac" WAVE TRACK 22 AUDIO TITLE "Falstaff Symphonic Study Cm Op68 3b Interlude Gloucestershire Shallows Orchar..." PERFORMER "Elgar" INDEX 01 00:00:00FILE "23 - Elgar - Falstaff Symphonic Study Cm Op68 4 King Henry vs Progress The Repudiation Of Falstaff & His Death.flac" WAVE TRACK 23 AUDIO TITLE "Falstaff Symphonic Study Cm Op68 4 King Henry vs Progress The Repudiation Of ..." PERFORMER "Elgar" INDEX 01 00:00:00

CD2

REM GENRE ConcertoREM DATE 1997REM DISCID 2E10D604REM COMMENT "ExactAudioCopy v0.99pb4"PERFORMER "Nigel Kennedy - Simon Rattle, City of Birmingham Symphony"TITLE "Elgar: Violin Concerto, The Lark Ascending"FILE "01 - Nigel Kennedy - Simon Rattle, City of Birmingham Symphony - Violin Concerto in B minor, op.61 - 1. Allegro.flac" WAVE TRACK 01 AUDIO TITLE "Violin Concerto in B minor, op.61 - 1. Allegro" PERFORMER "Nigel Kennedy - Simon Rattle, City of Birmingham Symphony" INDEX 01 00:00:00FILE "02 - Nigel Kennedy - Simon Rattle, City of Birmingham Symphony - Violin Concerto in B minor, op.61 - 2. Andante.flac" WAVE TRACK 02 AUDIO TITLE "Violin Concerto in B minor, op.61 - 2. Andante" PERFORMER "Nigel Kennedy - Simon Rattle, City of Birmingham Symphony" INDEX 01 00:00:00FILE "03 - Nigel Kennedy - Simon Rattle, City of Birmingham Symphony - Violin Concerto in B minor, op.61 - 3. Allegro molto - Cadenza.flac" WAVE TRACK 03 AUDIO TITLE "Violin Concerto in B minor, op.61 - 3. Allegro molto - Cadenza" PERFORMER "Nigel Kennedy - Simon Rattle, City of Birmingham Symphony" INDEX 01 00:00:00FILE "04 - Nigel Kennedy - Simon Rattle, City of Birmingham Symphony - Vaughan Williams- The Lark Ascending - Romance for Violin and Orchestra.flac" WAVE TRACK 04 AUDIO TITLE "Vaughan Williams: The Lark Ascending - Romance for Violin and Orchestra" PERFORMER "Nigel Kennedy - Simon Rattle, City of Birmingham Symphony" INDEX 01 00:00:00

CD3

REM GENRE ClassicalREM DATE 1987REM DISCID D00FD50EREM COMMENT "ExactAudioCopy v0.99pb4"PERFORMER "Simon rattle"TITLE "William Walton, Edward Elgar"FILE "01 - Simon rattle - Cello Concerto - 01 Moderato.flac" WAVE TRACK 01 AUDIO TITLE "Cello Concerto - 01 Moderato" PERFORMER "Simon rattle" INDEX 01 00:00:00FILE "02 - Simon rattle - 02 Allegro appassionato.flac" WAVE TRACK 02 AUDIO TITLE "02 Allegro appassionato" PERFORMER "Simon rattle" INDEX 01 00:00:00FILE "03 - Simon rattle - 03 Lento - Allegro molto.flac" WAVE TRACK 03 AUDIO TITLE "03 Lento - Allegro molto" PERFORMER "Simon rattle" INDEX 01 00:00:00FILE "04 - Simon rattle - The Dreams of Gerontius op. 38 Part 1 - 01 Prelude- Lento, mistico - Moderato - Andantino - Come prima.flac" WAVE TRACK 04 AUDIO TITLE "The Dreams of Gerontius op. 38 Part 1 - 01 Prelude: Lento, mistico - Moderato..." PERFORMER "Simon rattle" INDEX 01 00:00:00FILE "05 - Simon rattle - 02 Jesu, maria - I am near to death (Gerontius).flac" WAVE TRACK 05 AUDIO TITLE "02 Jesu, maria - I am near to death (Gerontius)" PERFORMER "Simon rattle" INDEX 01 00:00:00FILE "06 - Simon rattle - 03 So pray for me ... Kyrie eleison ... Holy mary, pray for him (Gerontius, Semi-chorus, Chorus).flac" WAVE TRACK 06 AUDIO TITLE "03 So pray for me ... Kyrie eleison ... Holy mary, pray for him (Gerontius, S..." PERFORMER "Simon rattle" INDEX 01 00:00:00FILE "07 - Simon rattle - 04 Rouse thee, my fainting soul ... Be merciful (Gerontius, Chorus).flac" WAVE TRACK 07 AUDIO TITLE "04 Rouse thee, my fainting soul ... Be merciful (Gerontius, Chorus)" PERFORMER "Simon rattle" INDEX 01 00:00:00FILE "08 - Simon rattle - 05 Sanctus fortis, Sanctus Deus (Gerontius).flac" WAVE TRACK 08 AUDIO TITLE "05 Sanctus fortis, Sanctus Deus (Gerontius)" PERFORMER "Simon rattle" INDEX 01 00:00:00FILE "09 - Simon rattle - 06 I can non more (Gerontius).flac" WAVE TRACK 09 AUDIO TITLE "06 I can non more (Gerontius)" PERFORMER "Simon rattle" INDEX 01 00:00:00FILE "10 - Simon rattle - 07 Rescue him, O Lord (Chorus, Gerontius, Semi-chorus).flac" WAVE TRACK 10 AUDIO TITLE "07 Rescue him, O Lord (Chorus, Gerontius, Semi-chorus)" PERFORMER "Simon rattle" INDEX 01 00:00:00FILE "11 - Simon rattle - 08 Novissima hora est (Gerontius).flac" WAVE TRACK 11 AUDIO TITLE "08 Novissima hora est (Gerontius)" PERFORMER "Simon rattle" INDEX 01 00:00:00FILE "12 - Simon rattle - 09 Proficiscere, anima Christiana (Priest).flac" WAVE TRACK 12 AUDIO TITLE "09 Proficiscere, anima Christiana (Priest)" PERFORMER "Simon rattle" INDEX 01 00:00:00FILE "13 - Simon rattle - 10 Go in the name of Angels (Chorus, Priest, Semin-chorus).flac" WAVE TRACK 13 AUDIO TITLE "10 Go in the name of Angels (Chorus, Priest, Semin-chorus)" PERFORMER "Simon rattle" INDEX 01 00:00:00FILE "14 - Simon rattle - 11 Go forth upon the journey (Priest, Chorus, Semi-chorus).flac" WAVE TRACK 14 AUDIO TITLE "11 Go forth upon the journey (Priest, Chorus, Semi-chorus)" PERFORMER "Simon rattle" INDEX 01 00:00:00

CD4

REM GENRE ClassicalREM DATE 1987REM DISCID 550EBA1AREM COMMENT "ExactAudioCopy v0.99pb4"PERFORMER "Simon Rattle, "TITLE "Edvard Elgar"FILE "01 - Simon Rattle, - the Dream of Gerontius - Part 2 - 01 Introduction- Andantino.flac" WAVE TRACK 01 AUDIO TITLE "the Dream of Gerontius - Part 2 - 01 Introduction: Andantino" PERFORMER "Simon Rattle, " PREGAP 00:00:33 INDEX 01 00:00:00FILE "02 - Simon Rattle, - 02 I went to sleep (Soul of Gerontius).flac" WAVE TRACK 02 AUDIO TITLE "02 I went to sleep (Soul of Gerontius)" PERFORMER "Simon Rattle, " INDEX 01 00:00:00FILE "03 - Simon Rattle, - 03 Another marvel (Soul).flac" WAVE TRACK 03 AUDIO TITLE "03 Another marvel (Soul)" PERFORMER "Simon Rattle, " INDEX 01 00:00:00FILE "04 - Simon Rattle, - 04 My work is done (Angel, Soul).flac" WAVE TRACK 04 AUDIO TITLE "04 My work is done (Angel, Soul)" PERFORMER "Simon Rattle, " INDEX 01 00:00:00FILE "05 - Simon Rattle, - 05 It is a member of that family (Soul, Angel).flac" WAVE TRACK 05 AUDIO TITLE "05 It is a member of that family (Soul, Angel)" PERFORMER "Simon Rattle, " INDEX 01 00:00:00FILE "06 - Simon Rattle, - 06 But hark! Upon my senses (Soul).flac" WAVE TRACK 06 AUDIO TITLE "06 But hark! Upon my senses (Soul)" PERFORMER "Simon Rattle, " INDEX 01 00:00:00FILE "07 - Simon Rattle, - 07 Low-born clods of brute earth (Chorus).flac" WAVE TRACK 07 AUDIO TITLE "07 Low-born clods of brute earth (Chorus)" PERFORMER "Simon Rattle, " INDEX 01 00:00:00FILE "08 - Simon Rattle, - 08 Dispossessed, aside thrust (Chorus, Angel).flac" WAVE TRACK 08 AUDIO TITLE "08 Dispossessed, aside thrust (Chorus, Angel)" PERFORMER "Simon Rattle, " INDEX 01 00:00:00FILE "09 - Simon Rattle, - 09 The mind bold and independent (Chorus).flac" WAVE TRACK 09 AUDIO TITLE "09 The mind bold and independent (Chorus)" PERFORMER "Simon Rattle, " INDEX 01 00:00:00FILE "10 - Simon Rattle, - 10 I see not those false spirits (Soul).flac" WAVE TRACK 10 AUDIO TITLE "10 I see not those false spirits (Soul)" PERFORMER "Simon Rattle, " INDEX 01 00:00:00FILE "11 - Simon Rattle, - 11 There was a mortal (Angel).flac" WAVE TRACK 11 AUDIO TITLE "11 There was a mortal (Angel)" PERFORMER "Simon Rattle, " INDEX 01 00:00:00FILE "12 - Simon Rattle, - 12 Praise to the Holiest (Semi-chorus, Chorus, Angel).flac" WAVE TRACK 12 AUDIO TITLE "12 Praise to the Holiest (Semi-chorus, Chorus, Angel)" PERFORMER "Simon Rattle, " INDEX 01 00:00:00FILE "13 - Simon Rattle, - 13 The sound is like the rushing of the wind (Soul).flac" WAVE TRACK 13 AUDIO TITLE "13 The sound is like the rushing of the wind (Soul)" PERFORMER "Simon Rattle, " INDEX 01 00:00:00FILE "14 - Simon Rattle, - 14 Glory to Him (Chorus, Semi-chorus).flac" WAVE TRACK 14 AUDIO TITLE "14 Glory to Him (Chorus, Semi-chorus)" PERFORMER "Simon Rattle, " INDEX 01 00:00:00FILE "15 - Simon Rattle, - 15 They sing of thy approaching agony (Angel, Semi-chorus, Soul, Chorus).flac" WAVE TRACK 15 AUDIO TITLE "15 They sing of thy approaching agony (Angel, Semi-chorus, Soul, Chorus)" PERFORMER "Simon Rattle, " INDEX 01 00:00:00FILE "16 - Simon Rattle, - 16 But hark! A grand mysterious harmony (Soul).flac" WAVE TRACK 16 AUDIO TITLE "16 But hark! A grand mysterious harmony (Soul)" PERFORMER "Simon Rattle, " INDEX 01 00:00:00FILE "17 - Simon Rattle, - 17 And now on the threshold (Angel).flac" WAVE TRACK 17 AUDIO TITLE "17 And now on the threshold (Angel)" PERFORMER "Simon Rattle, " INDEX 01 00:00:00FILE "18 - Simon Rattle, - 18 Praise to the Holiest (Chorus).flac" WAVE TRACK 18 AUDIO TITLE "18 Praise to the Holiest (Chorus)" PERFORMER "Simon Rattle, " INDEX 01 00:00:00FILE "19 - Simon Rattle, - 19 Thy judgment now is near (Angel, Soul).flac" WAVE TRACK 19 AUDIO TITLE "19 Thy judgment now is near (Angel, Soul)" PERFORMER "Simon Rattle, " INDEX 01 00:00:00FILE "20 - Simon Rattle, - 20 Jesu! By that shuddering dread ( Angel of the Agony, Soul).flac" WAVE TRACK 20 AUDIO TITLE "20 Jesu! By that shuddering dread ( Angel of the Agony, Soul)" PERFORMER "Simon Rattle, " INDEX 01 00:00:00FILE "21 - Simon Rattle, - 21 Be merciful, be gracious (Semi-chorus, Chorus).flac" WAVE TRACK 21 AUDIO TITLE "21 Be merciful, be gracious (Semi-chorus, Chorus)" PERFORMER "Simon Rattle, " INDEX 01 00:00:00FILE "22 - Simon Rattle, - 22 Praise to His Name! (Angel).flac" WAVE TRACK 22 AUDIO TITLE "22 Praise to His Name! (Angel)" PERFORMER "Simon Rattle, " INDEX 01 00:00:00FILE "23 - Simon Rattle, - 23 Take me away (Soul).flac" WAVE TRACK 23 AUDIO TITLE "23 Take me away (Soul)" PERFORMER "Simon Rattle, " INDEX 01 00:00:00FILE "24 - Simon Rattle, - 24 Lord, Thou hast been our refuge (Chorus).flac" WAVE TRACK 24 AUDIO TITLE "24 Lord, Thou hast been our refuge (Chorus)" PERFORMER "Simon Rattle, " INDEX 01 00:00:00FILE "25 - Simon Rattle, - 25 Softly and gently (Angel, Chorus, Semi-chorus).flac" WAVE TRACK 25 AUDIO TITLE "25 Softly and gently (Angel, Chorus, Semi-chorus)" PERFORMER "Simon Rattle, " INDEX 01 00:00:00FILE "26 - Simon Rattle, - Pomp and Circumstance March Op. 39 No. 4.flac" WAVE TRACK 26 AUDIO TITLE "Pomp and Circumstance March Op. 39 No. 4" PERFORMER "Simon Rattle, " INDEX 01 00:00:00

CD5

REM DISCID 8A12640AREM COMMENT "ExactAudioCopy v0.99pb4"PERFORMER "William Walton"TITLE "Belshazzar'S Feast - Symphony No. 1"FILE "01 - William Walton - I- Allegro Assai.flac" WAVE TRACK 01 AUDIO TITLE "I: Allegro Assai" PERFORMER "William Walton" INDEX 01 00:00:00FILE "02 - William Walton - Ii- Presto, Con Malizia.flac" WAVE TRACK 02 AUDIO TITLE "Ii: Presto, Con Malizia" PERFORMER "William Walton" INDEX 01 00:00:00FILE "03 - William Walton - Iii- Andante Con Malinconia.flac" WAVE TRACK 03 AUDIO TITLE "Iii: Andante Con Malinconia" PERFORMER "William Walton" INDEX 01 00:00:00FILE "04 - William Walton - Iv- Maestoso - Brioso Ed Ardentemente - Vivacissimo - Maestoso.flac" WAVE TRACK 04 AUDIO TITLE "Iv: Maestoso - Brioso Ed Ardentemente - Vivacissimo - Maestoso" PERFORMER "William Walton" INDEX 01 00:00:00FILE "05 - William Walton - Thus Spake Isaiah (Maestoso).flac" WAVE TRACK 05 AUDIO TITLE "Thus Spake Isaiah (Maestoso)" PERFORMER "William Walton" INDEX 01 00:00:00FILE "06 - William Walton - Babylon Was A Great City (Quasi Recitativo).flac" WAVE TRACK 06 AUDIO TITLE "Babylon Was A Great City (Quasi Recitativo)" PERFORMER "William Walton" INDEX 01 00:00:00FILE "07 - William Walton - Thus In Babylon, The Mighty City (Allegro Molot).flac" WAVE TRACK 07 AUDIO TITLE "Thus In Babylon, The Mighty City (Allegro Molot)" PERFORMER "William Walton" INDEX 01 00:00:00FILE "08 - William Walton - And In That Same Hour As They Feasted (Quasi Recitativo).flac" WAVE TRACK 08 AUDIO TITLE "And In That Same Hour As They Feasted (Quasi Recitativo)" PERFORMER "William Walton" INDEX 01 00:00:00FILE "09 - William Walton - Then Sing Aloud To God Our Strength (Lento - Allegro Giocoso).flac" WAVE TRACK 09 AUDIO TITLE "Then Sing Aloud To God Our Strength (Lento - Allegro Giocoso)" PERFORMER "William Walton" INDEX 01 00:00:00FILE "10 - William Walton - Then Sing Aloud To God Our Strength (Allegro).flac" WAVE TRACK 10 AUDIO TITLE "Then Sing Aloud To God Our Strength (Allegro)" PERFORMER "William Walton" INDEX 01 00:00:00

CD6

REM DISCID 6B0D7408REM COMMENT "ExactAudioCopy v0.99pb4"PERFORMER "Rattle\BPO"TITLE "The Planets"FILE "01 - Rattle-BPO - Jupiter.flac" WAVE TRACK 01 AUDIO TITLE "Jupiter" PERFORMER "Rattle\BPO" INDEX 01 00:00:00FILE "02 - Rattle-BPO - Mars.flac" WAVE TRACK 02 AUDIO TITLE "Mars" PERFORMER "Rattle\BPO" INDEX 01 00:00:00FILE "03 - Rattle-BPO - Mercury.flac" WAVE TRACK 03 AUDIO TITLE "Mercury" PERFORMER "Rattle\BPO" INDEX 01 00:00:00FILE "04 - Rattle-BPO - Neptune.flac" WAVE TRACK 04 AUDIO TITLE "Neptune" PERFORMER "Rattle\BPO" INDEX 01 00:00:00FILE "05 - Rattle-BPO - Saturn.flac" WAVE TRACK 05 AUDIO TITLE "Saturn" PERFORMER "Rattle\BPO" INDEX 01 00:00:00FILE "06 - Rattle-BPO - Uranus.flac" WAVE TRACK 06 AUDIO TITLE "Uranus" PERFORMER "Rattle\BPO" INDEX 01 00:00:00FILE "07 - Rattle-BPO - Venus.flac" WAVE TRACK 07 AUDIO TITLE "Venus" PERFORMER "Rattle\BPO" INDEX 01 00:00:00FILE "08 - Rattle-BPO - Pluto.flac" WAVE TRACK 08 AUDIO TITLE "Pluto" PERFORMER "Rattle\BPO" INDEX 01 00:00:00

CD7

REM GENRE ClassicalREM DATE 1996REM DISCID FA108413REM COMMENT "ExactAudioCopy v0.99pb4"PERFORMER "Simon Rattle, Robert Tear"TITLE "Ralph Williams, Arnold,Knussen"FILE "01 - Simon Rattle, Robert Tear - On Wenlock Edge - 01 On Wenlock Edge.flac" WAVE TRACK 01 AUDIO TITLE "On Wenlock Edge - 01 On Wenlock Edge" PERFORMER "Simon Rattle, Robert Tear" PREGAP 00:00:32 INDEX 01 00:00:00FILE "02 - Simon Rattle, Robert Tear - 02 From far, from eve and morning.flac" WAVE TRACK 02 AUDIO TITLE "02 From far, from eve and morning" PERFORMER "Simon Rattle, Robert Tear" INDEX 01 00:00:00FILE "03 - Simon Rattle, Robert Tear - 03 Is my tem ploughing.flac" WAVE TRACK 03 AUDIO TITLE "03 Is my tem ploughing" PERFORMER "Simon Rattle, Robert Tear" INDEX 01 00:00:00FILE "04 - Simon Rattle, Robert Tear - 04 Oh, when I was in love with you.flac" WAVE TRACK 04 AUDIO TITLE "04 Oh, when I was in love with you" PERFORMER "Simon Rattle, Robert Tear" INDEX 01 00:00:00FILE "05 - Simon Rattle, Robert Tear - 05 Bredon Hill.flac" WAVE TRACK 05 AUDIO TITLE "05 Bredon Hill" PERFORMER "Simon Rattle, Robert Tear" INDEX 01 00:00:00FILE "06 - Simon Rattle, Robert Tear - 06 Clun.flac" WAVE TRACK 06 AUDIO TITLE "06 Clun" PERFORMER "Simon Rattle, Robert Tear" INDEX 01 00:00:00FILE "07 - Simon Rattle, Robert Tear - Songs of Travel - 01 The Vagabond.flac" WAVE TRACK 07 AUDIO TITLE "Songs of Travel - 01 The Vagabond" PERFORMER "Simon Rattle, Robert Tear" INDEX 01 00:00:00FILE "08 - Simon Rattle, Robert Tear - 02 Let beauty awake.flac" WAVE TRACK 08 AUDIO TITLE "02 Let beauty awake" PERFORMER "Simon Rattle, Robert Tear" INDEX 01 00:00:00FILE "09 - Simon Rattle, Robert Tear - 03 The Roadside Fire.flac" WAVE TRACK 09 AUDIO TITLE "03 The Roadside Fire" PERFORMER "Simon Rattle, Robert Tear" INDEX 01 00:00:00FILE "10 - Simon Rattle, Robert Tear - 04 Youth and Love.flac" WAVE TRACK 10 AUDIO TITLE "04 Youth and Love" PERFORMER "Simon Rattle, Robert Tear" INDEX 01 00:00:00FILE "11 - Simon Rattle, Robert Tear - 05 In Dreams.flac" WAVE TRACK 11 AUDIO TITLE "05 In Dreams" PERFORMER "Simon Rattle, Robert Tear" INDEX 01 00:00:00FILE "12 - Simon Rattle, Robert Tear - 06 The infinite shining heavens.flac" WAVE TRACK 12 AUDIO TITLE "06 The infinite shining heavens" PERFORMER "Simon Rattle, Robert Tear" INDEX 01 00:00:00FILE "13 - Simon Rattle, Robert Tear - 07 Whither must I wander.flac" WAVE TRACK 13 AUDIO TITLE "07 Whither must I wander" PERFORMER "Simon Rattle, Robert Tear" INDEX 01 00:00:00FILE "14 - Simon Rattle, Robert Tear - 08 Bright is the ring of words.flac" WAVE TRACK 14 AUDIO TITLE "08 Bright is the ring of words" PERFORMER "Simon Rattle, Robert Tear" INDEX 01 00:00:00FILE "15 - Simon Rattle, Robert Tear - 09 I have trod the upward and the downward slope.flac" WAVE TRACK 15 AUDIO TITLE "09 I have trod the upward and the downward slope" PERFORMER "Simon Rattle, Robert Tear" INDEX 01 00:00:00FILE "16 - Simon Rattle, Robert Tear - Guitar Concerto - 01 Allegro.flac" WAVE TRACK 16 AUDIO TITLE "Guitar Concerto - 01 Allegro" PERFORMER "Simon Rattle, Robert Tear" INDEX 01 00:00:00FILE "17 - Simon Rattle, Robert Tear - 02 Lento - Vivace - Lento.flac" WAVE TRACK 17 AUDIO TITLE "02 Lento - Vivace - Lento" PERFORMER "Simon Rattle, Robert Tear" INDEX 01 00:00:00FILE "18 - Simon Rattle, Robert Tear - 03 Con brio.flac" WAVE TRACK 18 AUDIO TITLE "03 Con brio" PERFORMER "Simon Rattle, Robert Tear" INDEX 01 00:00:00FILE "19 - Simon Rattle, Robert Tear - Flourish with Fireworks.flac" WAVE TRACK 19 AUDIO TITLE "Flourish with Fireworks" PERFORMER "Simon Rattle, Robert Tear" INDEX 01 00:00:00

CD8

REM GENRE OrchestralREM DATE 1996REM DISCID CB10690FREM COMMENT "ExactAudioCopy v0.99pb4"PERFORMER "CBSO - Rattle"TITLE "Grainger In a Nutshell"FILE "01 - CBSO - Rattle - In a Nutshell Suite -I- Arrival Platform Humlet.flac" WAVE TRACK 01 AUDIO TITLE "In a Nutshell Suite -I- Arrival Platform Humlet" PERFORMER "CBSO - Rattle" INDEX 01 00:00:00FILE "02 - CBSO - Rattle - In a Nutshell Suite -II- 'Gay but Wistful' (Tune in a popular London style).flac" WAVE TRACK 02 AUDIO TITLE "In a Nutshell Suite -II- 'Gay but Wistful' (Tune in a popular London style)" PERFORMER "CBSO - Rattle" INDEX 01 00:00:00FILE "03 - CBSO - Rattle - In a Nutshell Suite -III- Pastoral.flac" WAVE TRACK 03 AUDIO TITLE "In a Nutshell Suite -III- Pastoral" PERFORMER "CBSO - Rattle" INDEX 01 00:00:00FILE "04 - CBSO - Rattle - In a Nutshell Suite -IV- 'The Gum-Suckers' March.flac" WAVE TRACK 04 AUDIO TITLE "In a Nutshell Suite -IV- 'The Gum-Suckers' March" PERFORMER "CBSO - Rattle" INDEX 01 00:00:00FILE "05 - CBSO - Rattle - Train Music (1901).flac" WAVE TRACK 05 AUDIO TITLE "Train Music (1901)" PERFORMER "CBSO - Rattle" INDEX 01 00:00:00FILE "06 - CBSO - Rattle - Country Gardens- English Morris Dance Tune.flac" WAVE TRACK 06 AUDIO TITLE "Country Gardens: English Morris Dance Tune" PERFORMER "CBSO - Rattle" INDEX 01 00:00:00FILE "07 - CBSO - Rattle - La Valle des cloches (Ravel, arr. Grainger).flac" WAVE TRACK 07 AUDIO TITLE "La Vallйe des cloches (Ravel, arr. Grainger)" PERFORMER "CBSO - Rattle" INDEX 01 00:00:00FILE "08 - CBSO - Rattle - Lincolnshire Posy -I- Lisbon (Sailor's Song).flac" WAVE TRACK 08 AUDIO TITLE "Lincolnshire Posy -I- Lisbon (Sailor's Song)" PERFORMER "CBSO - Rattle" INDEX 01 00:00:00FILE "09 - CBSO - Rattle - Lincolnshire Posy -II- Horkstow Grange (The Miser and his Man - a local tragedy).flac" WAVE TRACK 09 AUDIO TITLE "Lincolnshire Posy -II- Horkstow Grange (The Miser and his Man - a local tragedy)" PERFORMER "CBSO - Rattle" INDEX 01 00:00:00FILE "10 - CBSO - Rattle - Lincolnshire Posy -III- Rufford Park Poachers (Poaching Song).flac" WAVE TRACK 10 AUDIO TITLE "Lincolnshire Posy -III- Rufford Park Poachers (Poaching Song)" PERFORMER "CBSO - Rattle" INDEX 01 00:00:00FILE "11 - CBSO - Rattle - Lincolnshire Posy -IV- The Brisk Young Sailor (who returned to wed his True Love).flac" WAVE TRACK 11 AUDIO TITLE "Lincolnshire Posy -IV- The Brisk Young Sailor (who returned to wed his True L..." PERFORMER "CBSO - Rattle" INDEX 01 00:00:00FILE "12 - CBSO - Rattle - Lincolnshire Posy -V- Lord Melbourne (War Song).flac" WAVE TRACK 12 AUDIO TITLE "Lincolnshire Posy -V- Lord Melbourne (War Song)" PERFORMER "CBSO - Rattle" INDEX 01 00:00:00FILE "13 - CBSO - Rattle - Lincolnshire Posy -VI-The Lost Lady Found (Dance Song).flac" WAVE TRACK 13 AUDIO TITLE "Lincolnshire Posy -VI-The Lost Lady Found (Dance Song)" PERFORMER "CBSO - Rattle" INDEX 01 00:00:00FILE "14 - CBSO - Rattle - Pagodes from 'Estampes' (Debussy, arr. Grainger).flac" WAVE TRACK 14 AUDIO TITLE "Pagodes from 'Estampes' (Debussy, arr. Grainger)" PERFORMER "CBSO - Rattle" INDEX 01 00:00:00FILE "15 - CBSO - Rattle - The Warriors- Music to an imaginary ballet for orchestra and three pianos.flac" WAVE TRACK 15 AUDIO TITLE "The Warriors: Music to an imaginary ballet for orchestra and three pianos" PERFORMER "CBSO - Rattle" INDEX 01 00:00:00

CD9

REM GENRE ClassicalREM DATE 1991REM DISCID 630CEF07REM COMMENT "ExactAudioCopy v0.99pb4"PERFORMER "Simon rattle, City of Birmingham Symphony Orchestra"TITLE "Thomas Adиs, Nicholas Maw"FILE "01 - Simon rattle, City of Birmingham Symphony Orchestra - Asyla op. 17 - I.flac" WAVE TRACK 01 AUDIO TITLE "Asyla op. 17 - I" PERFORMER "Simon rattle, City of Birmingham Symphony Orchestra" INDEX 01 00:00:00FILE "02 - Simon rattle, City of Birmingham Symphony Orchestra - Asyla op. 17 - II.flac" WAVE TRACK 02 AUDIO TITLE "Asyla op. 17 - II" PERFORMER "Simon rattle, City of Birmingham Symphony Orchestra" INDEX 01 00:00:00FILE "03 - Simon rattle, City of Birmingham Symphony Orchestra - Asyla op. 17 - III Ecstasio.flac" WAVE TRACK 03 AUDIO TITLE "Asyla op. 17 - III Ecstasio" PERFORMER "Simon rattle, City of Birmingham Symphony Orchestra" INDEX 01 00:00:00FILE "04 - Simon rattle, City of Birmingham Symphony Orchestra - Asyla op. 17 - IV.flac" WAVE TRACK 04 AUDIO TITLE "Asyla op. 17 - IV" PERFORMER "Simon rattle, City of Birmingham Symphony Orchestra" INDEX 01 00:00:00FILE "05 - Simon rattle, City of Birmingham Symphony Orchestra - Odyssey - Introduction.flac" WAVE TRACK 05 AUDIO TITLE "Odyssey - Introduction" PERFORMER "Simon rattle, City of Birmingham Symphony Orchestra" INDEX 01 00:00:00FILE "06 - Simon rattle, City of Birmingham Symphony Orchestra - Odyssey - Part I.flac" WAVE TRACK 06 AUDIO TITLE "Odyssey - Part I" PERFORMER "Simon rattle, City of Birmingham Symphony Orchestra" INDEX 01 00:00:00FILE "07 - Simon rattle, City of Birmingham Symphony Orchestra - Odyssey - Part II.flac" WAVE TRACK 07 AUDIO TITLE "Odyssey - Part II" PERFORMER "Simon rattle, City of Birmingham Symphony Orchestra" INDEX 01 00:00:00

CD10

REM GENRE ClassicalREM DATE 1991REM DISCID 2A0EBF03REM COMMENT "ExactAudioCopy v0.99pb4"PERFORMER "Nicholas Maw"TITLE "Odyssey"FILE "01 - Nicholas Maw - Part III.flac" WAVE TRACK 01 AUDIO TITLE "Part III" PERFORMER "Nicholas Maw" INDEX 01 00:00:00FILE "02 - Nicholas Maw - Part IV.flac" WAVE TRACK 02 AUDIO TITLE "Part IV" PERFORMER "Nicholas Maw" INDEX 01 00:00:00FILE "03 - Nicholas Maw - Epilogue.flac" WAVE TRACK 03 AUDIO TITLE "Epilogue" PERFORMER "Nicholas Maw" INDEX 01 00:00:00

CD11

REM GENRE ClassicalREM DATE 2009REM DISCID 46127E05REM COMMENT "ExactAudioCopy v0.99pb4"PERFORMER "Simon Rattle"TITLE "Mark-Anrthony Turnage"FILE "01 - Simon Rattle - Drowned Out.flac" WAVE TRACK 01 AUDIO TITLE "Drowned Out" PERFORMER "Simon Rattle" INDEX 01 00:00:00FILE "02 - Simon Rattle - Kai for solo cello and ensemble.flac" WAVE TRACK 02 AUDIO TITLE "Kai for solo cello and ensemble" PERFORMER "Simon Rattle" INDEX 01 00:00:00FILE "03 - Simon Rattle - Three Screaming Popes after Francis Bacon for large ochestra.flac" WAVE TRACK 03 AUDIO TITLE "Three Screaming Popes after Francis Bacon for large ochestra" PERFORMER "Simon Rattle" INDEX 01 00:00:00FILE "04 - Simon Rattle - Momentum.flac" WAVE TRACK 04 AUDIO TITLE "Momentum" PERFORMER "Simon Rattle" INDEX 01 00:00:00FILE "05 - Simon Rattle - Ceres.flac" WAVE TRACK 05 AUDIO TITLE "Ceres" PERFORMER "Simon Rattle" INDEX 01 00:00:00

Отчёт EACCD1

Exact Audio Copy V0.99 prebeta 4 from 23. January 2008
EAC extraction logfile from 18. May 2010, 6:31
Elgar / Enigma Variations & Grania Diarmid & Falstaff - Rattle
Used drive : HL-DT-STDVDRAM GSA-T20N Adapter: 1 ID: 0
Read mode : SecureUtilize accurate stream : YesDefeat audio cache : YesMake use of C2 pointers : No
Read offset correction : 667Overread into Lead-In and Lead-Out : NoFill up missing offset samples with silence : YesDelete leading and trailing silent blocks : NoNull samples used in CRC calculations : YesUsed interface : Installed external ASPI interfaceGap handling : Appended to previous track
Used output format : User Defined EncoderSelected bitrate : 768 kBit/sQuality : HighAdd ID3 tag : NoCommand line compressor : C:\Program Files\FLAC\flac.exeAdditional command line options : -8 -V -T "artist=%a" -T "title=%t" -T "album=%g" -T "date=%y" -T "tracknumber=%n" -T "genre=%m" %s
TOC of the extracted CD
Track | Start | Length | Start sector | End sector --------------------------------------------------------- 1 | 0:00.32 | 1:28.50 | 32 | 6681 2 | 1:29.07 | 2:03.15 | 6682 | 15921 3 | 3:32.22 | 0:48.70 | 15922 | 19591 4 | 4:21.17 | 1:27.28 | 19592 | 26144 5 | 5:48.45 | 0:27.54 | 26145 | 28223 6 | 6:16.24 | 2:13.31 | 28224 | 38229 7 | 8:29.55 | 1:19.62 | 38230 | 44216 8 | 9:49.42 | 1:02.60 | 44217 | 48926 9 | 10:52.27 | 2:07.68 | 48927 | 58519 10 | 13:00.20 | 4:21.10 | 58520 | 78104 11 | 17:21.30 | 2:48.52 | 78105 | 90756 12 | 20:10.07 | 0:56.15 | 90757 | 94971 13 | 21:06.22 | 3:04.43 | 94972 | 108814 14 | 24:10.65 | 2:58.05 | 108815 | 122169 15 | 27:08.70 | 5:28.50 | 122170 | 146819 16 | 32:37.45 | 3:01.47 | 146820 | 160441 17 | 35:39.17 | 6:52.13 | 160442 | 191354 18 | 42:31.30 | 3:13.65 | 191355 | 205894 19 | 45:45.20 | 13:12.52 | 205895 | 265346 20 | 58:57.72 | 2:28.70 | 265347 | 276516 21 | 61:26.67 | 4:18.25 | 276517 | 295891 22 | 65:45.17 | 2:54.05 | 295892 | 308946 23 | 68:39.22 | 9:58.53 | 308947 | 353849
Track 1
Filename C:\ista\01 - Elgar - Enigma Variations Op36 01 Theme.wav
Pre-gap length 0:00:02.32
Peak level 11.5 % Track quality 99.8 % Test CRC A90D1C35 Copy CRC A90D1C35 Accurately ripped (confidence 1) [9FD33710] Copy OK
Track 2
Filename C:\ista\02 - Elgar - Enigma Variations Op36 02 01 C A E - The Composers Wife.wav
Pre-gap length 0:00:00.02
Peak level 36.1 % Track quality 99.9 % Test CRC 745D3F3D Copy CRC 745D3F3D Accurately ripped (confidence 1) [A713C6D7] Copy OK
Track 3
Filename C:\ista\03 - Elgar - Enigma Variations Op36 03 02 H D S P - Hew David Steuart Powell.wav
Pre-gap length 0:00:00.02
Peak level 12.9 % Track quality 100.0 % Test CRC A7FEEA76 Copy CRC A7FEEA76 Accurately ripped (confidence 1) [EA9E4E46] Copy OK
Track 4
Filename C:\ista\04 - Elgar - Enigma Variations Op36 04 03 R B T - Richard Baxter Townshend.wav
Pre-gap length 0:00:00.02
Peak level 35.3 % Track quality 100.0 % Test CRC A8BA9AAB Copy CRC A8BA9AAB Accurately ripped (confidence 1) [D0E1A5DF] Copy OK
Track 5
Filename C:\ista\05 - Elgar - Enigma Variations Op36 05 04 W M B - William Meath Baker.wav
Pre-gap length 0:00:00.03
Peak level 85.7 % Track quality 100.0 % Test CRC CA87E104 Copy CRC CA87E104 Accurately ripped (confidence 1) [1A6E33E4] Copy OK
Track 6
Filename C:\ista\06 - Elgar - Enigma Variations Op36 06 05 R P A - Richard Penrose Arnold.wav
Peak level 20.6 % Track quality 100.0 % Test CRC F2030B78 Copy CRC F2030B78 Accurately ripped (confidence 1) [CDC38493] Copy OK
Track 7
Filename C:\ista\07 - Elgar - Enigma Variations Op36 07 06 Ysobel - Isabel Fritton.wav
Pre-gap length 0:00:00.03
Peak level 14.3 % Track quality 100.0 % Test CRC B8ADFE7C Copy CRC B8ADFE7C Accurately ripped (confidence 1) [B62E1580] Copy OK
Track 8
Filename C:\ista\08 - Elgar - Enigma Variations Op36 08 07 Troyte - Troyte Griffith.wav
Pre-gap length 0:00:00.02
Peak level 76.1 % Track quality 100.0 % Test CRC 61C841CE Copy CRC 61C841CE Accurately ripped (confidence 1) [F27978C0] Copy OK
Track 9
Filename C:\ista\09 - Elgar - Enigma Variations Op36 09 08 W N - Winifred Norbury.wav
Pre-gap length 0:00:00.02
Peak level 18.8 % Track quality 100.0 % Test CRC 8C52DB90 Copy CRC 8C52DB90 Accurately ripped (confidence 1) [725D7EB3] Copy OK
Track 10
Filename C:\ista\10 - Elgar - Enigma Variations Op36 10 09 Nimrod - A J Jaeger.wav
Pre-gap length 0:00:00.03
Peak level 63.1 % Track quality 100.0 % Test CRC 6014B69A Copy CRC 6014B69A Accurately ripped (confidence 1) [7FC90431] Copy OK
Track 11
Filename C:\ista\11 - Elgar - Enigma Variations Op36 11 10 Intermezzo Dorabella - Dora Penny.wav
Pre-gap length 0:00:00.03
Peak level 8.3 % Track quality 99.9 % Test CRC 28CBB58F Copy CRC 28CBB58F Accurately ripped (confidence 1) [DB2D9576] Copy OK
Track 12
Filename C:\ista\12 - Elgar - Enigma Variations Op36 12 11 G R S - George Robertson Sinclair.wav
Pre-gap length 0:00:00.02
Peak level 57.5 % Track quality 100.0 % Test CRC 70CB3DEF Copy CRC 70CB3DEF Accurately ripped (confidence 1) [471D19F2] Copy OK
Track 13
Filename C:\ista\13 - Elgar - Enigma Variations Op36 13 12 B G N - Basil G Nevinson.wav
Pre-gap length 0:00:00.02
Peak level 17.2 % Track quality 100.0 % Test CRC 64BF1BBC Copy CRC 64BF1BBC Accurately ripped (confidence 1) [2428686C] Copy OK
Track 14
Filename C:\ista\14 - Elgar - Enigma Variations Op36 14 13 Romanza - Lady Mary Lygon.wav
Pre-gap length 0:00:00.03
Peak level 19.0 % Track quality 100.0 % Test CRC 5EC9AFD6 Copy CRC 5EC9AFD6 Accurately ripped (confidence 1) [2C3B12E6] Copy OK
Track 15
Filename C:\ista\15 - Elgar - Enigma Variations Op36 15 14 Finale E D U - The Composer.wav
Pre-gap length 0:00:00.03
Peak level 98.9 % Track quality 100.0 % Test CRC E0D970CB Copy CRC E0D970CB Accurately ripped (confidence 1) [95D04F3E] Copy OK
Track 16
Filename C:\ista\16 - Elgar - Grania & Diarmid Op42 1 Incidental Music.wav
Pre-gap length 0:00:00.03
Peak level 22.8 % Track quality 99.9 % Test CRC 6405ADF0 Copy CRC 6405ADF0 Accurately ripped (confidence 1) [B736C3F2] Copy OK
Track 17
Filename C:\ista\17 - Elgar - Grania & Diarmid Op42 2 Funeral March.wav
Pre-gap length 0:00:00.02
Peak level 79.3 % Track quality 100.0 % Test CRC 7D3B1974 Copy CRC 7D3B1974 Accurately ripped (confidence 1) [E70E7F5A] Copy OK
Track 18
Filename C:\ista\18 - Elgar - Falstaff Symphonic Study Cm Op68 1 Falstaff & Prince Henry.wav
Pre-gap length 0:00:01.00
Peak level 54.0 % Track quality 100.0 % Test CRC 18706060 Copy CRC 18706060 Accurately ripped (confidence 1) [D9538525] Copy OK
Track 19
Filename C:\ista\19 - Elgar - Falstaff Symphonic Study Cm Op68 2a Eastcheap Gadshill The Boars Head Revelry & Sleep.wav
Pre-gap length 0:00:00.03
Peak level 62.7 % Track quality 100.0 % Test CRC F41E6F7D Copy CRC F41E6F7D Accurately ripped (confidence 1) [09065751] Copy OK
Track 20
Filename C:\ista\20 - Elgar - Falstaff Symphonic Study Cm Op68 2b Dream Interlude.wav
Pre-gap length 0:00:00.02
Peak level 5.6 % Track quality 100.0 % Test CRC 92DEF40E Copy CRC 92DEF40E Accurately ripped (confidence 1) [1362BEE1] Copy OK
Track 21
Filename C:\ista\21 - Elgar - Falstaff Symphonic Study Cm Op68 3b Falstaffs March The Return Through Gloucestershire.wav
Pre-gap length 0:00:00.02
Peak level 51.8 % Track quality 99.9 % Test CRC 832894A8 Copy CRC 832894A8 Accurately ripped (confidence 1) [895B57FE] Copy OK
Track 22
Filename C:\ista\22 - Elgar - Falstaff Symphonic Study Cm Op68 3b Interlude Gloucestershire Shallows Orchard The New King The Hurried Ride To London.wav
Pre-gap length 0:00:00.02
Peak level 51.7 % Track quality 100.0 % Test CRC 7CB4673E Copy CRC 7CB4673E Accurately ripped (confidence 1) [C9B9EB75] Copy OK
Track 23
Filename C:\ista\23 - Elgar - Falstaff Symphonic Study Cm Op68 4 King Henry vs Progress The Repudiation Of Falstaff & His Death.wav
Pre-gap length 0:00:00.01
Peak level 71.6 % Track quality 100.0 % Test CRC EDA3AB12 Copy CRC EDA3AB12 Accurately ripped (confidence 1) [5D44C70C] Copy OK
All tracks accurately ripped
No errors occurred
End of status report

CD2

Exact Audio Copy V0.99 prebeta 4 from 23. January 2008
EAC extraction logfile from 18. May 2010, 10:24
Nigel Kennedy - Simon Rattle, City of Birmingham Symphony / Elgar: Violin Concerto, The Lark Ascending
Used drive : HL-DT-STDVDRAM GSA-T20N Adapter: 1 ID: 0
Read mode : SecureUtilize accurate stream : YesDefeat audio cache : YesMake use of C2 pointers : No
Read offset correction : 667Overread into Lead-In and Lead-Out : NoFill up missing offset samples with silence : YesDelete leading and trailing silent blocks : NoNull samples used in CRC calculations : YesUsed interface : Installed external ASPI interfaceGap handling : Appended to previous track
Used output format : User Defined EncoderSelected bitrate : 768 kBit/sQuality : HighAdd ID3 tag : NoCommand line compressor : C:\Program Files\FLAC\flac.exeAdditional command line options : -8 -V -T "artist=%a" -T "title=%t" -T "album=%g" -T "date=%y" -T "tracknumber=%n" -T "genre=%m" %s
TOC of the extracted CD
Track | Start | Length | Start sector | End sector --------------------------------------------------------- 1 | 0:00.00 | 18:11.22 | 0 | 81846 2 | 18:11.22 | 14:29.23 | 81847 | 147044 3 | 32:40.45 | 21:30.57 | 147045 | 243851 4 | 54:11.27 | 17:39.18 | 243852 | 323294
Track 1
Filename C:\ista\01 - Nigel Kennedy - Simon Rattle, City of Birmingham Symphony - Violin Concerto in B minor, op.61 - 1. Allegro.wav
Pre-gap length 0:00:02.00
Peak level 99.0 % Track quality 100.0 % Test CRC 89697DFA Copy CRC 89697DFA Cannot be verified as accurate (confidence 12) [455EF4A3], AccurateRip returned [BCD564FA] Copy OK
Track 2
Filename C:\ista\02 - Nigel Kennedy - Simon Rattle, City of Birmingham Symphony - Violin Concerto in B minor, op.61 - 2. Andante.wav
Peak level 82.2 % Track quality 100.0 % Test CRC D7D1C5A6 Copy CRC D7D1C5A6 Cannot be verified as accurate (confidence 12) [C656D5D9], AccurateRip returned [66FA62E5] Copy OK
Track 3
Filename C:\ista\03 - Nigel Kennedy - Simon Rattle, City of Birmingham Symphony - Violin Concerto in B minor, op.61 - 3. Allegro molto - Cadenza.wav
Peak level 98.8 % Track quality 100.0 % Test CRC E1713895 Copy CRC E1713895 Cannot be verified as accurate (confidence 11) [27E44D6A], AccurateRip returned [5A6C5CDD] Copy OK
Track 4
Filename C:\ista\04 - Nigel Kennedy - Simon Rattle, City of Birmingham Symphony - Vaughan Williams- The Lark Ascending - Romance for Violin and Orchestra.wav
Peak level 48.5 % Track quality 100.0 % Test CRC 4959B240 Copy CRC 4959B240 Cannot be verified as accurate (confidence 10) [773F4788], AccurateRip returned [F4632CE6] Copy OK
No tracks could be verified as accurateYou may have a different pressing from the one(s) in the database
No errors occurred
End of status report

CD3

Exact Audio Copy V0.99 prebeta 4 from 23. January 2008
EAC extraction logfile from 18. May 2010, 13:48
Simon rattle / William Walton, Edward Elgar
Used drive : HL-DT-STDVDRAM GSA-T20N Adapter: 1 ID: 0
Read mode : SecureUtilize accurate stream : YesDefeat audio cache : YesMake use of C2 pointers : No
Read offset correction : 667Overread into Lead-In and Lead-Out : NoFill up missing offset samples with silence : YesDelete leading and trailing silent blocks : NoNull samples used in CRC calculations : YesUsed interface : Installed external ASPI interfaceGap handling : Appended to previous track
Used output format : User Defined EncoderSelected bitrate : 768 kBit/sQuality : HighAdd ID3 tag : NoCommand line compressor : C:\Program Files\FLAC\flac.exeAdditional command line options : -8 -V -T "artist=%a" -T "title=%t" -T "album=%g" -T "date=%y" -T "tracknumber=%n" -T "genre=%m" %s
TOC of the extracted CD
Track | Start | Length | Start sector | End sector --------------------------------------------------------- 1 | 0:00.00 | 8:59.52 | 0 | 40476 2 | 8:59.52 | 6:47.24 | 40477 | 71025 3 | 15:47.01 | 14:05.05 | 71026 | 134405 4 | 29:52.06 | 10:18.72 | 134406 | 180827 5 | 40:11.03 | 3:18.43 | 180828 | 195720 6 | 43:29.46 | 2:45.64 | 195721 | 208159 7 | 46:15.35 | 3:50.65 | 208160 | 225474 8 | 50:06.25 | 4:53.03 | 225475 | 247452 9 | 54:59.28 | 2:10.34 | 247453 | 257236 10 | 57:09.62 | 2:13.51 | 257237 | 267262 11 | 59:23.38 | 1:34.02 | 267263 | 274314 12 | 60:57.40 | 1:55.52 | 274315 | 282991 13 | 62:53.17 | 1:16.36 | 282992 | 288727 14 | 64:09.53 | 3:23.69 | 288728 | 304021
Track 1
Filename C:\ista\01 - Simon rattle - Cello Concerto - 01 Moderato.wav
Pre-gap length 0:00:02.00
Peak level 25.3 % Track quality 100.0 % Test CRC 9AC0D992 Copy CRC 9AC0D992 Accurately ripped (confidence 1) [8474EEE4] Copy OK
Track 2
Filename C:\ista\02 - Simon rattle - 02 Allegro appassionato.wav
Peak level 66.3 % Track quality 100.0 % Test CRC B9E99F57 Copy CRC B9E99F57 Cannot be verified as accurate (confidence 1) [8AF8369F], AccurateRip returned [40BC55F5] Copy OK
Track 3
Filename C:\ista\03 - Simon rattle - 03 Lento - Allegro molto.wav
Peak level 87.0 % Track quality 99.9 % Test CRC 067AF364 Copy CRC 067AF364 Accurately ripped (confidence 1) [8D7CD79C] Copy OK
Track 4
Filename C:\ista\04 - Simon rattle - The Dreams of Gerontius op. 38 Part 1 - 01 Prelude- Lento, mistico - Moderato - Andantino - Come prima.wav
Pre-gap length 0:00:07.52
Peak level 81.2 % Track quality 99.9 % Test CRC 95F25C0B Copy CRC 95F25C0B Accurately ripped (confidence 1) [77548718] Copy OK
Track 5
Filename C:\ista\05 - Simon rattle - 02 Jesu, maria - I am near to death (Gerontius).wav
Peak level 48.4 % Track quality 99.9 % Test CRC 465E0709 Copy CRC 465E0709 Accurately ripped (confidence 1) [22A8FAC9] Copy OK
Track 6
Filename C:\ista\06 - Simon rattle - 03 So pray for me ... Kyrie eleison ... Holy mary, pray for him (Gerontius, Semi-chorus, Chorus).wav
Peak level 14.3 % Track quality 100.0 % Test CRC 5DEDD7AD Copy CRC 5DEDD7AD Accurately ripped (confidence 1) [D7298308] Copy OK
Track 7
Filename C:\ista\07 - Simon rattle - 04 Rouse thee, my fainting soul ... Be merciful (Gerontius, Chorus).wav
Peak level 48.8 % Track quality 100.0 % Test CRC 061F33D3 Copy CRC 061F33D3 Accurately ripped (confidence 1) [70C08352] Copy OK
Track 8
Filename C:\ista\08 - Simon rattle - 05 Sanctus fortis, Sanctus Deus (Gerontius).wav
Peak level 73.5 % Track quality 100.0 % Test CRC 53003411 Copy CRC 53003411 Accurately ripped (confidence 1) [43A49FA2] Copy OK
Track 9
Filename C:\ista\09 - Simon rattle - 06 I can non more (Gerontius).wav
Peak level 43.8 % Track quality 100.0 % Test CRC 4341BE9F Copy CRC 4341BE9F Accurately ripped (confidence 1) [5802BA5D] Copy OK
Track 10
Filename C:\ista\10 - Simon rattle - 07 Rescue him, O Lord (Chorus, Gerontius, Semi-chorus).wav
Peak level 67.0 % Track quality 100.0 % Test CRC 8F8BD560 Copy CRC 8F8BD560 Accurately ripped (confidence 1) [E153C4D1] Copy OK
Track 11
Filename C:\ista\11 - Simon rattle - 08 Novissima hora est (Gerontius).wav
Peak level 21.3 % Track quality 100.0 % Test CRC 99E38D11 Copy CRC 99E38D11 Accurately ripped (confidence 1) [F0B22186] Copy OK
Track 12
Filename C:\ista\12 - Simon rattle - 09 Proficiscere, anima Christiana (Priest).wav
Peak level 33.9 % Track quality 100.0 % Test CRC 55EA2DBA Copy CRC 55EA2DBA Accurately ripped (confidence 1) [8B8F83EF] Copy OK
Track 13
Filename C:\ista\13 - Simon rattle - 10 Go in the name of Angels (Chorus, Priest, Semin-chorus).wav
Peak level 95.2 % Track quality 100.0 % Test CRC FBF377C1 Copy CRC FBF377C1 Accurately ripped (confidence 1) [FA1A1DB6] Copy OK
Track 14
Filename C:\ista\14 - Simon rattle - 11 Go forth upon the journey (Priest, Chorus, Semi-chorus).wav
Peak level 55.6 % Track quality 99.9 % Test CRC 905CFB47 Copy CRC 905CFB47 Accurately ripped (confidence 1) [948BF0CE] Copy OK
13 track(s) accurately ripped 1 track(s) could not be verified as accurate
Some tracks could not be verified as accurate
No errors occurred
End of status report

CD4

Exact Audio Copy V0.99 prebeta 4 from 23. January 2008
EAC extraction logfile from 20. May 2010, 8:35
Simon Rattle, / Edvard Elgar
Used drive : HL-DT-STDVDRAM GSA-T20N Adapter: 1 ID: 0
Read mode : SecureUtilize accurate stream : YesDefeat audio cache : YesMake use of C2 pointers : No
Read offset correction : 667Overread into Lead-In and Lead-Out : NoFill up missing offset samples with silence : YesDelete leading and trailing silent blocks : NoNull samples used in CRC calculations : YesUsed interface : Installed external ASPI interfaceGap handling : Appended to previous track
Used output format : User Defined EncoderSelected bitrate : 768 kBit/sQuality : HighAdd ID3 tag : NoCommand line compressor : C:\Program Files\FLAC\flac.exeAdditional command line options : -8 -V -T "artist=%a" -T "title=%t" -T "album=%g" -T "date=%y" -T "tracknumber=%n" -T "genre=%m" %s
TOC of the extracted CD
Track | Start | Length | Start sector | End sector --------------------------------------------------------- 1 | 0:00.33 | 1:50.20 | 33 | 8302 2 | 1:50.53 | 2:58.35 | 8303 | 21687 3 | 4:49.13 | 1:18.66 | 21688 | 27603 4 | 6:08.04 | 2:16.36 | 27604 | 37839 5 | 8:24.40 | 6:03.73 | 37840 | 65137 6 | 14:28.38 | 0:42.09 | 65138 | 68296 7 | 15:10.47 | 0:49.68 | 68297 | 72039 8 | 16:00.40 | 1:27.36 | 72040 | 78600 9 | 17:28.01 | 2:15.69 | 78601 | 88794 10 | 19:43.70 | 2:06.70 | 88795 | 98314 11 | 21:50.65 | 1:18.21 | 98315 | 104185 12 | 23:09.11 | 2:42.57 | 104186 | 116392 13 | 25:51.68 | 0:16.39 | 116393 | 117631 14 | 26:08.32 | 0:31.22 | 117632 | 119978 15 | 26:39.54 | 0:49.59 | 119979 | 123712 16 | 27:29.38 | 0:47.01 | 123713 | 127238 17 | 28:16.39 | 0:25.53 | 127239 | 129166 18 | 28:42.17 | 6:54.48 | 129167 | 160264 19 | 35:36.65 | 3:15.25 | 160265 | 174914 20 | 38:52.15 | 4:54.52 | 174915 | 197016 21 | 43:46.67 | 0:57.38 | 197017 | 201329 22 | 44:44.30 | 1:17.72 | 201330 | 207176 23 | 46:02.27 | 3:18.45 | 207177 | 222071 24 | 49:20.72 | 1:09.51 | 222072 | 227297 25 | 50:30.48 | 7:11.62 | 227298 | 259684 26 | 57:42.35 | 5:08.33 | 259685 | 282817
Track 1
Filename C:\ista\01 - Simon Rattle, - the Dream of Gerontius - Part 2 - 01 Introduction- Andantino.wav
Pre-gap length 0:00:02.33
Peak level 4.9 % Track quality 99.9 % Test CRC 813641DF Copy CRC 813641DF Accurately ripped (confidence 1) [D0C09322] Copy OK
Track 2
Filename C:\ista\02 - Simon Rattle, - 02 I went to sleep (Soul of Gerontius).wav
Pre-gap length 0:00:00.03
Peak level 16.1 % Track quality 100.0 % Test CRC 8163F8D6 Copy CRC 8163F8D6 Cannot be verified as accurate (confidence 1) [336020C0], AccurateRip returned [4DC02540] Copy OK
Track 3
Filename C:\ista\03 - Simon Rattle, - 03 Another marvel (Soul).wav
Pre-gap length 0:00:00.03
Peak level 12.9 % Track quality 100.0 % Test CRC 445DDCDC Copy CRC 445DDCDC Accurately ripped (confidence 1) [EFE58EE8] Copy OK
Track 4
Filename C:\ista\04 - Simon Rattle, - 04 My work is done (Angel, Soul).wav
Peak level 17.4 % Track quality 99.9 % Test CRC D88AC8C4 Copy CRC D88AC8C4 Accurately ripped (confidence 1) [41B9C048] Copy OK
Track 5
Filename C:\ista\05 - Simon Rattle, - 05 It is a member of that family (Soul, Angel).wav
Pre-gap length 0:00:00.02
Peak level 26.3 % Track quality 100.0 % Test CRC A3F4A57A Copy CRC A3F4A57A Accurately ripped (confidence 1) [CE75699C] Copy OK
Track 6
Filename C:\ista\06 - Simon Rattle, - 06 But hark! Upon my senses (Soul).wav
Pre-gap length 0:00:00.03
Peak level 29.3 % Track quality 100.0 % Test CRC 321341A5 Copy CRC 321341A5 Accurately ripped (confidence 1) [33E1867C] Copy OK
Track 7
Filename C:\ista\07 - Simon Rattle, - 07 Low-born clods of brute earth (Chorus).wav
Peak level 99.2 % Track quality 100.0 % Test CRC C4DCD2DC Copy CRC C4DCD2DC Accurately ripped (confidence 1) [ACBFA298] Copy OK
Track 8
Filename C:\ista\08 - Simon Rattle, - 08 Dispossessed, aside thrust (Chorus, Angel).wav
Pre-gap length 0:00:00.02
Peak level 71.5 % Track quality 100.0 % Test CRC 66A6D756 Copy CRC 66A6D756 Accurately ripped (confidence 1) [653CA5D5] Copy OK
Track 9
Filename C:\ista\09 - Simon Rattle, - 09 The mind bold and independent (Chorus).wav
Peak level 71.0 % Track quality 100.0 % Test CRC CD33720C Copy CRC CD33720C Accurately ripped (confidence 1) [FCE22DA5] Copy OK
Track 10
Filename C:\ista\10 - Simon Rattle, - 10 I see not those false spirits (Soul).wav
Pre-gap length 0:00:00.02
Peak level 18.7 % Track quality 100.0 % Test CRC 105D83E6 Copy CRC 105D83E6 Accurately ripped (confidence 1) [F4A42965] Copy OK
Track 11
Filename C:\ista\11 - Simon Rattle, - 11 There was a mortal (Angel).wav
Pre-gap length 0:00:00.02
Peak level 11.1 % Track quality 100.0 % Test CRC CF4E5B37 Copy CRC CF4E5B37 Accurately ripped (confidence 1) [A91A7280] Copy OK
Track 12
Filename C:\ista\12 - Simon Rattle, - 12 Praise to the Holiest (Semi-chorus, Chorus, Angel).wav
Peak level 27.5 % Track quality 100.0 % Test CRC D52EE342 Copy CRC D52EE342 Accurately ripped (confidence 1) [026AA5E4] Copy OK
Track 13
Filename C:\ista\13 - Simon Rattle, - 13 The sound is like the rushing of the wind (Soul).wav
Peak level 32.3 % Track quality 100.0 % Test CRC F70D5A28 Copy CRC F70D5A28 Accurately ripped (confidence 1) [5979BE7A] Copy OK
Track 14
Filename C:\ista\14 - Simon Rattle, - 14 Glory to Him (Chorus, Semi-chorus).wav
Peak level 42.3 % Track quality 100.0 % Test CRC 0AC9A398 Copy CRC 0AC9A398 Accurately ripped (confidence 1) [B98E8C1A] Copy OK
Track 15
Filename C:\ista\15 - Simon Rattle, - 15 They sing of thy approaching agony (Angel, Semi-chorus, Soul, Chorus).wav
Peak level 13.9 % Track quality 99.7 % Test CRC C5D1E54A Copy CRC C5D1E54A Accurately ripped (confidence 1) [8AB3A5E8] Copy OK
Track 16
Filename C:\ista\16 - Simon Rattle, - 16 But hark! A grand mysterious harmony (Soul).wav
Pre-gap length 0:00:00.03
Peak level 63.6 % Track quality 100.0 % Test CRC 5AAF09D0 Copy CRC 5AAF09D0 Accurately ripped (confidence 1) [C081019C] Copy OK
Track 17
Filename C:\ista\17 - Simon Rattle, - 17 And now on the threshold (Angel).wav
Peak level 37.0 % Track quality 100.0 % Test CRC 62A453AA Copy CRC 62A453AA Accurately ripped (confidence 1) [85718860] Copy OK
Track 18
Filename C:\ista\18 - Simon Rattle, - 18 Praise to the Holiest (Chorus).wav
Peak level 97.7 % Track quality 100.0 % Test CRC 920C5B39 Copy CRC 920C5B39 Accurately ripped (confidence 1) [2F68FB38] Copy OK
Track 19
Filename C:\ista\19 - Simon Rattle, - 19 Thy judgment now is near (Angel, Soul).wav
Pre-gap length 0:00:00.02
Peak level 19.2 % Track quality 100.0 % Test CRC 69B24A77 Copy CRC 69B24A77 Accurately ripped (confidence 1) [B7DEE73C] Copy OK
Track 20
Filename C:\ista\20 - Simon Rattle, - 20 Jesu! By that shuddering dread ( Angel of the Agony, Soul).wav
Pre-gap length 0:00:00.02
Peak level 26.3 % Track quality 100.0 % Test CRC 5DBA1A21 Copy CRC 5DBA1A21 Accurately ripped (confidence 1) [DA75A729] Copy OK
Track 21
Filename C:\ista\21 - Simon Rattle, - 21 Be merciful, be gracious (Semi-chorus, Chorus).wav
Peak level 1.2 % Track quality 100.0 % Test CRC 46CDA3A3 Copy CRC 46CDA3A3 Accurately ripped (confidence 1) [A31980FF] Copy OK
Track 22
Filename C:\ista\22 - Simon Rattle, - 22 Praise to His Name! (Angel).wav
Pre-gap length 0:00:00.01
Peak level 97.7 % Track quality 100.0 % Test CRC 07BD4D67 Copy CRC 07BD4D67 Accurately ripped (confidence 1) [F92BC306] Copy OK
Track 23
Filename C:\ista\23 - Simon Rattle, - 23 Take me away (Soul).wav
Peak level 24.9 % Track quality 100.0 % Test CRC 1C507FEA Copy CRC 1C507FEA Accurately ripped (confidence 1) [27F34635] Copy OK
Track 24
Filename C:\ista\24 - Simon Rattle, - 24 Lord, Thou hast been our refuge (Chorus).wav
Peak level 1.8 % Track quality 100.0 % Test CRC D65BA0A5 Copy CRC D65BA0A5 Accurately ripped (confidence 1) [6BEBBA39] Copy OK
Track 25
Filename C:\ista\25 - Simon Rattle, - 25 Softly and gently (Angel, Chorus, Semi-chorus).wav
Pre-gap length 0:00:00.03
Peak level 24.0 % Track quality 100.0 % Test CRC A4F532C0 Copy CRC A4F532C0 Accurately ripped (confidence 1) [A08A16FC] Copy OK
Track 26
Filename C:\ista\26 - Simon Rattle, - Pomp and Circumstance March Op. 39 No. 4.wav
Pre-gap length 0:00:07.04
Peak level 76.0 % Track quality 100.0 % Test CRC DBED5625 Copy CRC DBED5625 Accurately ripped (confidence 1) [57DCB061] Copy OK
25 track(s) accurately ripped 1 track(s) could not be verified as accurate
Some tracks could not be verified as accurate
No errors occurred
End of status report

CD5

Exact Audio Copy V0.99 prebeta 4 from 23. January 2008
EAC extraction logfile from 21. May 2010, 23:09
William Walton / Belshazzar'S Feast - Symphony No. 1
Used drive : HL-DT-STDVDRAM GSA-T20N Adapter: 1 ID: 0
Read mode : SecureUtilize accurate stream : YesDefeat audio cache : YesMake use of C2 pointers : No
Read offset correction : 667Overread into Lead-In and Lead-Out : NoFill up missing offset samples with silence : YesDelete leading and trailing silent blocks : NoNull samples used in CRC calculations : YesUsed interface : Installed external ASPI interfaceGap handling : Appended to previous track
Used output format : User Defined EncoderSelected bitrate : 768 kBit/sQuality : HighAdd ID3 tag : NoCommand line compressor : C:\Program Files\FLAC\flac.exeAdditional command line options : -8 -V -T "artist=%a" -T "title=%t" -T "album=%g" -T "date=%y" -T "tracknumber=%n" -T "genre=%m" %s
TOC of the extracted CD
Track | Start | Length | Start sector | End sector --------------------------------------------------------- 1 | 0:00.00 | 14:23.05 | 0 | 64729 2 | 14:23.05 | 6:04.00 | 64730 | 92029 3 | 20:27.05 | 11:11.00 | 92030 | 142354 4 | 31:38.05 | 12:26.13 | 142355 | 198317 5 | 44:04.18 | 10:39.32 | 198318 | 246274 6 | 54:43.50 | 8:59.23 | 246275 | 286722 7 | 63:42.73 | 3:11.10 | 286723 | 301057 8 | 66:54.08 | 1:45.32 | 301058 | 308964 9 | 68:39.40 | 5:54.60 | 308965 | 335574 10 | 74:34.25 | 3:53.68 | 335575 | 353117
Track 1
Filename C:\ista\01 - William Walton - I- Allegro Assai.wav
Pre-gap length 0:00:02.00
Peak level 98.9 % Track quality 100.0 % Test CRC DD45BCF7 Copy CRC DD45BCF7 Accurately ripped (confidence 1) [0F789C77] Copy OK
Track 2
Filename C:\ista\02 - William Walton - Ii- Presto, Con Malizia.wav
Peak level 99.9 % Track quality 100.0 % Test CRC 429EB625 Copy CRC 429EB625 Accurately ripped (confidence 1) [8A531FA1] Copy OK
Track 3
Filename C:\ista\03 - William Walton - Iii- Andante Con Malinconia.wav
Peak level 81.0 % Track quality 100.0 % Test CRC 6803D687 Copy CRC 6803D687 Accurately ripped (confidence 1) [526E288E] Copy OK
Track 4
Filename C:\ista\04 - William Walton - Iv- Maestoso - Brioso Ed Ardentemente - Vivacissimo - Maestoso.wav
Peak level 99.8 % Track quality 100.0 % Test CRC 5056FC66 Copy CRC 5056FC66 Accurately ripped (confidence 1) [AD948FD2] Copy OK
Track 5
Filename C:\ista\05 - William Walton - Thus Spake Isaiah (Maestoso).wav
Peak level 96.0 % Track quality 100.0 % Test CRC 049D5FDF Copy CRC 049D5FDF Accurately ripped (confidence 1) [9DB3E21B] Copy OK
Track 6
Filename C:\ista\06 - William Walton - Babylon Was A Great City (Quasi Recitativo).wav
Peak level 99.9 % Track quality 100.0 % Test CRC 42E37079 Copy CRC 42E37079 Accurately ripped (confidence 1) [BCA44A2A] Copy OK
Track 7
Filename C:\ista\07 - William Walton - Thus In Babylon, The Mighty City (Allegro Molot).wav
Peak level 97.2 % Track quality 100.0 % Test CRC 8BCBCCFD Copy CRC 8BCBCCFD Accurately ripped (confidence 1) [AC4EF519] Copy OK
Track 8
Filename C:\ista\08 - William Walton - And In That Same Hour As They Feasted (Quasi Recitativo).wav
Peak level 96.2 % Track quality 100.0 % Test CRC 54D2B7D6 Copy CRC 54D2B7D6 Accurately ripped (confidence 1) [2C54C2A7] Copy OK
Track 9
Filename C:\ista\09 - William Walton - Then Sing Aloud To God Our Strength (Lento - Allegro Giocoso).wav
Peak level 99.8 % Track quality 100.0 % Test CRC 48BA2E84 Copy CRC 48BA2E84 Accurately ripped (confidence 1) [944C0CCA] Copy OK
Track 10
Filename C:\ista\10 - William Walton - Then Sing Aloud To God Our Strength (Allegro).wav
Peak level 99.9 % Track quality 100.0 % Test CRC 352BF45A Copy CRC 352BF45A Accurately ripped (confidence 1) [7F0FF340] Copy OK
All tracks accurately ripped
No errors occurred
End of status report

CD6

Exact Audio Copy V0.99 prebeta 4 from 23. January 2008
EAC extraction logfile from 23. May 2010, 13:55
Rattle\BPO / The Planets
Used drive : HL-DT-STDVDRAM GSA-T20N Adapter: 1 ID: 0
Read mode : SecureUtilize accurate stream : YesDefeat audio cache : YesMake use of C2 pointers : No
Read offset correction : 667Overread into Lead-In and Lead-Out : NoFill up missing offset samples with silence : YesDelete leading and trailing silent blocks : NoNull samples used in CRC calculations : YesUsed interface : Installed external ASPI interfaceGap handling : Appended to previous track
Used output format : User Defined EncoderSelected bitrate : 768 kBit/sQuality : HighAdd ID3 tag : NoCommand line compressor : C:\Program Files\FLAC\flac.exeAdditional command line options : -8 -V -T "artist=%a" -T "title=%t" -T "album=%g" -T "date=%y" -T "tracknumber=%n" -T "genre=%m" %s
TOC of the extracted CD
Track | Start | Length | Start sector | End sector --------------------------------------------------------- 1 | 0:00.00 | 7:25.21 | 0 | 33395 2 | 7:25.21 | 8:59.18 | 33396 | 73838 3 | 16:24.39 | 4:02.07 | 73839 | 91995 4 | 20:26.46 | 8:02.50 | 91996 | 128195 5 | 28:29.21 | 9:35.44 | 128196 | 171364 6 | 38:04.65 | 6:04.01 | 171365 | 198665 7 | 44:08.66 | 7:02.30 | 198666 | 230345 8 | 51:11.21 | 6:12.60 | 230346 | 258305
Track 1
Filename C:\ista\01 - Rattle-BPO - Jupiter.wav
Pre-gap length 0:00:02.00
Peak level 98.8 % Track quality 99.9 % Test CRC D287BBA8 Copy CRC D287BBA8 Accurately ripped (confidence 19) [9A2EF4BF] Copy OK
Track 2
Filename C:\ista\02 - Rattle-BPO - Mars.wav
Peak level 14.3 % Track quality 99.9 % Test CRC F3815EE1 Copy CRC F3815EE1 Accurately ripped (confidence 19) [C8AA980C] Copy OK
Track 3
Filename C:\ista\03 - Rattle-BPO - Mercury.wav
Peak level 32.9 % Track quality 99.9 % Test CRC 1DD43960 Copy CRC 1DD43960 Accurately ripped (confidence 19) [94E98EC7] Copy OK
Track 4
Filename C:\ista\04 - Rattle-BPO - Neptune.wav
Peak level 78.5 % Track quality 100.0 % Test CRC 36C92043 Copy CRC 36C92043 Accurately ripped (confidence 20) [5C0828A0] Copy OK
Track 5
Filename C:\ista\05 - Rattle-BPO - Saturn.wav
Peak level 63.9 % Track quality 100.0 % Test CRC EBAA8AD6 Copy CRC EBAA8AD6 Accurately ripped (confidence 19) [887F9A60] Copy OK
Track 6
Filename C:\ista\06 - Rattle-BPO - Uranus.wav
Peak level 83.3 % Track quality 100.0 % Test CRC 5EE50243 Copy CRC 5EE50243 Accurately ripped (confidence 19) [8A0D318D] Copy OK
Track 7
Filename C:\ista\07 - Rattle-BPO - Venus.wav
Peak level 5.4 % Track quality 99.9 % Test CRC A7EB3EF0 Copy CRC A7EB3EF0 Accurately ripped (confidence 19) [EC2B757C] Copy OK
Track 8
Filename C:\ista\08 - Rattle-BPO - Pluto.wav
Peak level 83.8 % Track quality 100.0 % Test CRC 1C9DFE64 Copy CRC 1C9DFE64 Accurately ripped (confidence 19) [46DEADC3] Copy OK
All tracks accurately ripped
No errors occurred
End of status report

CD7

Exact Audio Copy V0.99 prebeta 4 from 23. January 2008
EAC extraction logfile from 23. May 2010, 23:43
Simon Rattle, Robert Tear / Ralph Williams, Arnold,Knussen
Used drive : HL-DT-STDVDRAM GSA-T20N Adapter: 1 ID: 0
Read mode : SecureUtilize accurate stream : YesDefeat audio cache : YesMake use of C2 pointers : No
Read offset correction : 667Overread into Lead-In and Lead-Out : NoFill up missing offset samples with silence : YesDelete leading and trailing silent blocks : NoNull samples used in CRC calculations : YesUsed interface : Installed external ASPI interfaceGap handling : Appended to previous track
Used output format : User Defined EncoderSelected bitrate : 768 kBit/sQuality : HighAdd ID3 tag : NoCommand line compressor : C:\Program Files\FLAC\flac.exeAdditional command line options : -8 -V -T "artist=%a" -T "title=%t" -T "album=%g" -T "date=%y" -T "tracknumber=%n" -T "genre=%m" %s
TOC of the extracted CD
Track | Start | Length | Start sector | End sector --------------------------------------------------------- 1 | 0:00.32 | 3:49.20 | 32 | 17226 2 | 3:49.52 | 2:00.18 | 17227 | 26244 3 | 5:49.70 | 3:35.55 | 26245 | 42424 4 | 9:25.50 | 0:45.00 | 42425 | 45799 5 | 10:10.50 | 7:08.50 | 45800 | 77949 6 | 17:19.25 | 3:07.47 | 77950 | 92021 7 | 20:26.72 | 3:02.40 | 92022 | 105711 8 | 23:29.37 | 1:41.45 | 105712 | 113331 9 | 25:11.07 | 2:20.55 | 113332 | 123886 10 | 27:31.62 | 3:17.13 | 123887 | 138674 11 | 30:49.00 | 2:36.35 | 138675 | 150409 12 | 33:25.35 | 2:06.47 | 150410 | 159906 13 | 35:32.07 | 3:49.73 | 159907 | 177154 14 | 39:22.05 | 1:54.60 | 177155 | 185764 15 | 41:16.65 | 2:14.21 | 185765 | 195835 16 | 43:31.11 | 6:26.33 | 195836 | 224818 17 | 49:57.44 | 11:36.24 | 224819 | 277042 18 | 61:33.68 | 4:45.15 | 277043 | 298432 19 | 66:19.08 | 4:09.53 | 298433 | 317160
Track 1
Filename C:\ista\01 - Simon Rattle, Robert Tear - On Wenlock Edge - 01 On Wenlock Edge.wav
Pre-gap length 0:00:02.32
Peak level 68.7 % Track quality 100.0 % Test CRC 12003287 Copy CRC 12003287 Accurately ripped (confidence 1) [91DFE6C6] Copy OK
Track 2
Filename C:\ista\02 - Simon Rattle, Robert Tear - 02 From far, from eve and morning.wav
Pre-gap length 0:00:00.02
Peak level 40.9 % Track quality 100.0 % Test CRC 6236D7CA Copy CRC 6236D7CA Accurately ripped (confidence 1) [EE547B52] Copy OK
Track 3
Filename C:\ista\03 - Simon Rattle, Robert Tear - 03 Is my tem ploughing.wav
Pre-gap length 0:00:00.03
Peak level 64.0 % Track quality 100.0 % Test CRC C2AF1E04 Copy CRC C2AF1E04 Accurately ripped (confidence 1) [F3ED5080] Copy OK
Track 4
Filename C:\ista\04 - Simon Rattle, Robert Tear - 04 Oh, when I was in love with you.wav
Pre-gap length 0:00:00.03
Peak level 38.9 % Track quality 100.0 % Test CRC 1524A93A Copy CRC 1524A93A Accurately ripped (confidence 1) [9EA3A6E8] Copy OK
Track 5
Filename C:\ista\05 - Simon Rattle, Robert Tear - 05 Bredon Hill.wav
Pre-gap length 0:00:00.03
Peak level 93.2 % Track quality 99.9 % Test CRC 666EB8AD Copy CRC 666EB8AD Accurately ripped (confidence 1) [75FEB3FA] Copy OK
Track 6
Filename C:\ista\06 - Simon Rattle, Robert Tear - 06 Clun.wav
Pre-gap length 0:00:00.03
Peak level 74.5 % Track quality 99.9 % Test CRC DFBD550E Copy CRC DFBD550E Accurately ripped (confidence 1) [9375004E] Copy OK
Track 7
Filename C:\ista\07 - Simon Rattle, Robert Tear - Songs of Travel - 01 The Vagabond.wav
Pre-gap length 0:00:09.20
Peak level 98.8 % Track quality 100.0 % Test CRC 89DA1585 Copy CRC 89DA1585 Accurately ripped (confidence 1) [C9ADF9D6] Copy OK
Track 8
Filename C:\ista\08 - Simon Rattle, Robert Tear - 02 Let beauty awake.wav
Pre-gap length 0:00:00.02
Peak level 53.2 % Track quality 99.8 % Test CRC C9CAC1AD Copy CRC C9CAC1AD Accurately ripped (confidence 1) [A8A2C515] Copy OK
Track 9
Filename C:\ista\09 - Simon Rattle, Robert Tear - 03 The Roadside Fire.wav
Pre-gap length 0:00:00.02
Peak level 40.7 % Track quality 100.0 % Test CRC 1BFC4434 Copy CRC 1BFC4434 Accurately ripped (confidence 1) [ADC88F22] Copy OK
Track 10
Filename C:\ista\10 - Simon Rattle, Robert Tear - 04 Youth and Love.wav
Pre-gap length 0:00:00.02
Peak level 79.1 % Track quality 100.0 % Test CRC 4738EC71 Copy CRC 4738EC71 Accurately ripped (confidence 1) [0E899DBF] Copy OK
Track 11
Filename C:\ista\11 - Simon Rattle, Robert Tear - 05 In Dreams.wav
Pre-gap length 0:00:00.03
Peak level 58.8 % Track quality 100.0 % Test CRC 7A02E054 Copy CRC 7A02E054 Cannot be verified as accurate (confidence 1) [785E4927], AccurateRip returned [54DB6E6A] Copy OK
Track 12
Filename C:\ista\12 - Simon Rattle, Robert Tear - 06 The infinite shining heavens.wav
Pre-gap length 0:00:00.03
Peak level 40.9 % Track quality 100.0 % Test CRC 0A9B3355 Copy CRC 0A9B3355 Accurately ripped (confidence 1) [21E533E9] Copy OK
Track 13
Filename C:\ista\13 - Simon Rattle, Robert Tear - 07 Whither must I wander.wav
Pre-gap length 0:00:00.02
Peak level 66.0 % Track quality 100.0 % Test CRC 62C6136C Copy CRC 62C6136C Accurately ripped (confidence 1) [E744BCAF] Copy OK
Track 14
Filename C:\ista\14 - Simon Rattle, Robert Tear - 08 Bright is the ring of words.wav
Pre-gap length 0:00:00.03
Peak level 47.0 % Track quality 100.0 % Test CRC DDC1744E Copy CRC DDC1744E Accurately ripped (confidence 1) [1EE7D16A] Copy OK
Track 15
Filename C:\ista\15 - Simon Rattle, Robert Tear - 09 I have trod the upward and the downward slope.wav
Pre-gap length 0:00:00.03
Peak level 39.1 % Track quality 100.0 % Test CRC F6EBDC18 Copy CRC F6EBDC18 Accurately ripped (confidence 1) [2386658C] Copy OK
Track 16
Filename C:\ista\16 - Simon Rattle, Robert Tear - Guitar Concerto - 01 Allegro.wav
Pre-gap length 0:00:09.67
Peak level 56.1 % Track quality 100.0 % Test CRC C1E4DA40 Copy CRC C1E4DA40 Accurately ripped (confidence 1) [5A377483] Copy OK
Track 17
Filename C:\ista\17 - Simon Rattle, Robert Tear - 02 Lento - Vivace - Lento.wav
Peak level 50.4 % Track quality 99.9 % Test CRC B9CEC478 Copy CRC B9CEC478 Accurately ripped (confidence 1) [F7BFC2F1] Copy OK
Track 18
Filename C:\ista\18 - Simon Rattle, Robert Tear - 03 Con brio.wav
Peak level 78.5 % Track quality 100.0 % Test CRC B69B7727 Copy CRC B69B7727 Accurately ripped (confidence 1) [18AFEBA0] Copy OK
Track 19
Filename C:\ista\19 - Simon Rattle, Robert Tear - Flourish with Fireworks.wav
Pre-gap length 0:00:07.62
Peak level 99.9 % Track quality 100.0 % Test CRC B675A93B Copy CRC B675A93B Accurately ripped (confidence 1) [91AA5740] Copy OK
18 track(s) accurately ripped 1 track(s) could not be verified as accurate
Some tracks could not be verified as accurate
No errors occurred
End of status report

CD8

Exact Audio Copy V0.99 prebeta 4 from 23. January 2008
EAC extraction logfile from 24. May 2010, 8:23
CBSO - Rattle / Grainger In a Nutshell
Used drive : HL-DT-STDVDRAM GSA-T20N Adapter: 1 ID: 0
Read mode : SecureUtilize accurate stream : YesDefeat audio cache : YesMake use of C2 pointers : No
Read offset correction : 667Overread into Lead-In and Lead-Out : NoFill up missing offset samples with silence : YesDelete leading and trailing silent blocks : NoNull samples used in CRC calculations : YesUsed interface : Installed external ASPI interfaceGap handling : Appended to previous track
Used output format : User Defined EncoderSelected bitrate : 768 kBit/sQuality : HighAdd ID3 tag : NoCommand line compressor : C:\Program Files\FLAC\flac.exeAdditional command line options : -8 -V -T "artist=%a" -T "title=%t" -T "album=%g" -T "date=%y" -T "tracknumber=%n" -T "genre=%m" %s
TOC of the extracted CD
Track | Start | Length | Start sector | End sector --------------------------------------------------------- 1 | 0:00.00 | 2:37.01 | 0 | 11775 2 | 2:37.01 | 2:57.63 | 11776 | 25113 3 | 5:34.64 | 9:01.12 | 25114 | 65700 4 | 14:36.01 | 4:16.33 | 65701 | 84933 5 | 18:52.34 | 1:35.62 | 84934 | 92120 6 | 20:28.21 | 2:36.09 | 92121 | 103829 7 | 23:04.30 | 5:28.42 | 103830 | 128471 8 | 28:32.72 | 1:28.02 | 128472 | 135073 9 | 30:00.74 | 2:43.54 | 135074 | 147352 10 | 32:44.53 | 4:44.42 | 147353 | 168694 11 | 37:29.20 | 1:41.57 | 168695 | 176326 12 | 39:11.02 | 3:41.08 | 176327 | 192909 13 | 42:52.10 | 2:27.40 | 192910 | 203974 14 | 45:19.50 | 5:57.70 | 203975 | 230819 15 | 51:17.45 | 18:43.57 | 230820 | 315101
Track 1
Filename C:\ista\01 - CBSO - Rattle - In a Nutshell Suite -I- Arrival Platform Humlet.wav
Pre-gap length 0:00:02.00
Peak level 98.8 % Track quality 100.0 % Test CRC 07370752 Copy CRC 07370752 Accurately ripped (confidence 1) [007F68A4] Copy OK
Track 2
Filename C:\ista\02 - CBSO - Rattle - In a Nutshell Suite -II- 'Gay but Wistful' (Tune in a popular London style).wav
Peak level 72.8 % Track quality 100.0 % Test CRC 43FD0303 Copy CRC 43FD0303 Accurately ripped (confidence 1) [B7048AAC] Copy OK
Track 3
Filename C:\ista\03 - CBSO - Rattle - In a Nutshell Suite -III- Pastoral.wav
Peak level 97.8 % Track quality 100.0 % Test CRC 28D7B2E3 Copy CRC 28D7B2E3 Accurately ripped (confidence 1) [D6B9E54F] Copy OK
Track 4
Filename C:\ista\04 - CBSO - Rattle - In a Nutshell Suite -IV- 'The Gum-Suckers' March.wav
Peak level 98.8 % Track quality 100.0 % Test CRC 6B0844ED Copy CRC 6B0844ED Accurately ripped (confidence 1) [3A0549E4] Copy OK
Track 5
Filename C:\ista\05 - CBSO - Rattle - Train Music (1901).wav
Peak level 56.2 % Track quality 100.0 % Test CRC FDD475B9 Copy CRC FDD475B9 Accurately ripped (confidence 1) [85F2B025] Copy OK
Track 6
Filename C:\ista\06 - CBSO - Rattle - Country Gardens- English Morris Dance Tune.wav
Peak level 78.5 % Track quality 100.0 % Test CRC CF035454 Copy CRC CF035454 Accurately ripped (confidence 1) [55B602D7] Copy OK
Track 7
Filename C:\ista\07 - CBSO - Rattle - La Vallйe des cloches (Ravel, arr. Grainger).wav
Peak level 41.4 % Track quality 100.0 % Test CRC 7C48B4DB Copy CRC 7C48B4DB Accurately ripped (confidence 1) [5C4BA593] Copy OK
Track 8
Filename C:\ista\08 - CBSO - Rattle - Lincolnshire Posy -I- Lisbon (Sailor's Song).wav
Peak level 64.1 % Track quality 100.0 % Test CRC 5364CB38 Copy CRC 5364CB38 Accurately ripped (confidence 1) [334280C8] Copy OK
Track 9
Filename C:\ista\09 - CBSO - Rattle - Lincolnshire Posy -II- Horkstow Grange (The Miser and his Man - a local tragedy).wav
Peak level 86.5 % Track quality 99.9 % Test CRC 8DC31AFE Copy CRC 8DC31AFE Accurately ripped (confidence 1) [5982F452] Copy OK
Track 10
Filename C:\ista\10 - CBSO - Rattle - Lincolnshire Posy -III- Rufford Park Poachers (Poaching Song).wav
Peak level 78.1 % Track quality 99.9 % Test CRC 64812A8E Copy CRC 64812A8E Accurately ripped (confidence 1) [21075876] Copy OK
Track 11
Filename C:\ista\11 - CBSO - Rattle - Lincolnshire Posy -IV- The Brisk Young Sailor (who returned to wed his True Love).wav
Peak level 80.1 % Track quality 100.0 % Test CRC 4E38F73E Copy CRC 4E38F73E Accurately ripped (confidence 1) [694696BE] Copy OK
Track 12
Filename C:\ista\12 - CBSO - Rattle - Lincolnshire Posy -V- Lord Melbourne (War Song).wav
Peak level 93.8 % Track quality 100.0 % Test CRC 6ADEEDC7 Copy CRC 6ADEEDC7 Accurately ripped (confidence 1) [36BF2E6A] Copy OK
Track 13
Filename C:\ista\13 - CBSO - Rattle - Lincolnshire Posy -VI-The Lost Lady Found (Dance Song).wav
Peak level 69.0 % Track quality 100.0 % Test CRC 77A07761 Copy CRC 77A07761 Accurately ripped (confidence 1) [2E67B9F8] Copy OK
Track 14
Filename C:\ista\14 - CBSO - Rattle - Pagodes from 'Estampes' (Debussy, arr. Grainger).wav
Peak level 59.5 % Track quality 99.9 % Test CRC E47953FB Copy CRC E47953FB Accurately ripped (confidence 1) [6A96C0AA] Copy OK
Track 15
Filename C:\ista\15 - CBSO - Rattle - The Warriors- Music to an imaginary ballet for orchestra and three pianos.wav
Peak level 99.8 % Track quality 100.0 % Test CRC 676F8619 Copy CRC 676F8619 Accurately ripped (confidence 1) [5F278CB2] Copy OK
All tracks accurately ripped
No errors occurred
End of status report

CD9

Exact Audio Copy V0.99 prebeta 4 from 23. January 2008
EAC extraction logfile from 24. May 2010, 13:37
Simon rattle, City of Birmingham Symphony Orchestra / Thomas Adиs, Nicholas Maw
Used drive : HL-DT-STDVDRAM GSA-T20N Adapter: 1 ID: 0
Read mode : SecureUtilize accurate stream : YesDefeat audio cache : YesMake use of C2 pointers : No
Read offset correction : 667Overread into Lead-In and Lead-Out : NoFill up missing offset samples with silence : YesDelete leading and trailing silent blocks : NoNull samples used in CRC calculations : YesUsed interface : Installed external ASPI interfaceGap handling : Appended to previous track
Used output format : User Defined EncoderSelected bitrate : 768 kBit/sQuality : HighAdd ID3 tag : NoCommand line compressor : C:\Program Files\FLAC\flac.exeAdditional command line options : -8 -V -T "artist=%a" -T "title=%t" -T "album=%g" -T "date=%y" -T "tracknumber=%n" -T "genre=%m" %s
TOC of the extracted CD
Track | Start | Length | Start sector | End sector --------------------------------------------------------- 1 | 0:00.00 | 5:33.17 | 0 | 24991 2 | 5:33.17 | 6:00.06 | 24992 | 51997 3 | 11:33.23 | 6:20.45 | 51998 | 80542 4 | 17:53.68 | 4:44.17 | 80543 | 101859 5 | 22:38.10 | 8:26.22 | 101860 | 139831 6 | 31:04.32 | 11:52.31 | 139832 | 193262 7 | 42:56.63 | 12:14.69 | 193263 | 248381
Track 1
Filename C:\ista\01 - Simon rattle, City of Birmingham Symphony Orchestra - Asyla op. 17 - I.wav
Pre-gap length 0:00:02.00
Peak level 56.5 % Track quality 100.0 % Test CRC 8AEEB5EF Copy CRC 8AEEB5EF Accurately ripped (confidence 1) [457C4D1A] Copy OK
Track 2
Filename C:\ista\02 - Simon rattle, City of Birmingham Symphony Orchestra - Asyla op. 17 - II.wav
Peak level 78.9 % Track quality 100.0 % Test CRC 34D789D4 Copy CRC 34D789D4 Accurately ripped (confidence 1) [3327EF2E] Copy OK
Track 3
Filename C:\ista\03 - Simon rattle, City of Birmingham Symphony Orchestra - Asyla op. 17 - III Ecstasio.wav
Peak level 97.7 % Track quality 100.0 % Test CRC D1C50AF0 Copy CRC D1C50AF0 Accurately ripped (confidence 1) [3DBEE475] Copy OK
Track 4
Filename C:\ista\04 - Simon rattle, City of Birmingham Symphony Orchestra - Asyla op. 17 - IV.wav
Peak level 90.7 % Track quality 99.9 % Test CRC 53E00DB6 Copy CRC 53E00DB6 Accurately ripped (confidence 1) [306DEC0C] Copy OK
Track 5
Filename C:\ista\05 - Simon rattle, City of Birmingham Symphony Orchestra - Odyssey - Introduction.wav
Pre-gap length 0:00:04.50
Peak level 74.1 % Track quality 100.0 % Test CRC AFF417E6 Copy CRC AFF417E6 Accurately ripped (confidence 1) [90213514] Copy OK
Track 6
Filename C:\ista\06 - Simon rattle, City of Birmingham Symphony Orchestra - Odyssey - Part I.wav
Peak level 98.4 % Track quality 100.0 % Test CRC 60C46CFF Copy CRC 60C46CFF Accurately ripped (confidence 1) [43F0932B] Copy OK
Track 7
Filename C:\ista\07 - Simon rattle, City of Birmingham Symphony Orchestra - Odyssey - Part II.wav
Peak level 56.6 % Track quality 100.0 % Test CRC CDE478CB Copy CRC CDE478CB Accurately ripped (confidence 1) [0861B795] Copy OK
All tracks accurately ripped
No errors occurred
End of status report

CD10

Exact Audio Copy V0.99 prebeta 4 from 23. January 2008
EAC extraction logfile from 24. May 2010, 23:17
Nicholas Maw / Odyssey
Used drive : HL-DT-STDVDRAM GSA-T20N Adapter: 1 ID: 0
Read mode : SecureUtilize accurate stream : YesDefeat audio cache : YesMake use of C2 pointers : No
Read offset correction : 667Overread into Lead-In and Lead-Out : NoFill up missing offset samples with silence : YesDelete leading and trailing silent blocks : NoNull samples used in CRC calculations : YesUsed interface : Installed external ASPI interfaceGap handling : Appended to previous track
Used output format : User Defined EncoderSelected bitrate : 768 kBit/sQuality : HighAdd ID3 tag : NoCommand line compressor : C:\Program Files\FLAC\flac.exeAdditional command line options : -8 -V -T "artist=%a" -T "title=%t" -T "album=%g" -T "date=%y" -T "tracknumber=%n" -T "genre=%m" %s
TOC of the extracted CD
Track | Start | Length | Start sector | End sector --------------------------------------------------------- 1 | 0:00.00 | 30:55.71 | 0 | 139195 2 | 30:55.71 | 18:06.40 | 139196 | 220685 3 | 49:02.36 | 13:53.26 | 220686 | 283186
Track 1
Filename C:\ista\01 - Nicholas Maw - Part III.wav
Pre-gap length 0:00:02.00
Peak level 99.6 % Track quality 100.0 % Test CRC 849D66AB Copy CRC 849D66AB Accurately ripped (confidence 1) [29437105] Copy OK
Track 2
Filename C:\ista\02 - Nicholas Maw - Part IV.wav
Peak level 98.8 % Track quality 99.9 % Test CRC 822603E0 Copy CRC 822603E0 Accurately ripped (confidence 1) [C07B92BD] Copy OK
Track 3
Filename C:\ista\03 - Nicholas Maw - Epilogue.wav
Peak level 98.8 % Track quality 100.0 % Test CRC FD041CE6 Copy CRC FD041CE6 Accurately ripped (confidence 1) [5C357DA0] Copy OK
All tracks accurately ripped
No errors occurred
End of status report

CD11

Exact Audio Copy V0.99 prebeta 4 from 23. January 2008
EAC extraction logfile from 25. May 2010, 8:17
Simon Rattle / Mark-Anrthony Turnage
Used drive : HL-DT-STDVDRAM GSA-T20N Adapter: 1 ID: 0
Read mode : SecureUtilize accurate stream : YesDefeat audio cache : YesMake use of C2 pointers : No
Read offset correction : 667Overread into Lead-In and Lead-Out : NoFill up missing offset samples with silence : YesDelete leading and trailing silent blocks : NoNull samples used in CRC calculations : YesUsed interface : Installed external ASPI interfaceGap handling : Appended to previous track
Used output format : User Defined EncoderSelected bitrate : 768 kBit/sQuality : HighAdd ID3 tag : NoCommand line compressor : C:\Program Files\FLAC\flac.exeAdditional command line options : -8 -V -T "artist=%a" -T "title=%t" -T "album=%g" -T "date=%y" -T "tracknumber=%n" -T "genre=%m" %s
TOC of the extracted CD
Track | Start | Length | Start sector | End sector --------------------------------------------------------- 1 | 0:00.00 | 22:33.53 | 0 | 101527 2 | 22:33.53 | 23:07.45 | 101528 | 205597 3 | 45:41.23 | 15:45.46 | 205598 | 276518 4 | 61:26.69 | 10:44.47 | 276519 | 324865 5 | 72:11.41 | 6:42.39 | 324866 | 355054
Track 1
Filename C:\ista\01 - Simon Rattle - Drowned Out.wav
Pre-gap length 0:00:02.00
Peak level 98.8 % Track quality 100.0 % Test CRC C3E61392 Copy CRC C3E61392 Accurately ripped (confidence 1) [A7DECAAB] Copy OK
Track 2
Filename C:\ista\02 - Simon Rattle - Kai for solo cello and ensemble.wav
Peak level 53.1 % Track quality 100.0 % Test CRC 0D011D74 Copy CRC 0D011D74 Accurately ripped (confidence 1) [E5C5CBCC] Copy OK
Track 3
Filename C:\ista\03 - Simon Rattle - Three Screaming Popes after Francis Bacon for large ochestra.wav
Peak level 99.8 % Track quality 100.0 % Test CRC DC5DE877 Copy CRC DC5DE877 Accurately ripped (confidence 1) [98C870D0] Copy OK
Track 4
Filename C:\ista\04 - Simon Rattle - Momentum.wav
Peak level 98.8 % Track quality 100.0 % Test CRC 67BD203F Copy CRC 67BD203F Accurately ripped (confidence 1) [A39C5718] Copy OK
Track 5
Filename C:\ista\05 - Simon Rattle - Ceres.wav
Pre-gap length 0:00:05.12
Peak level 96.4 % Track quality 100.0 % Test CRC 63E8B84B Copy CRC 63E8B84B Accurately ripped (confidence 1) [1470B2BD] Copy OK
All tracks accurately ripped
No errors occurred
End of status report
Источник: Demonoid
[teatrix.ru].t9755.torrent 
Торрент: Зарегистрирован [ 2015-10-23 17:26 ] · 8A5BE2356C0A618E2AD22B5F369CDEF06CB4E2C4

Скачать .torrent

Скачать

33 KB

Статус: проверено
Скачан: 0 раз
Размер: 2.74 GB
terms.php



Быстрый ответ

Имя:

      
Для отправки сообщений необходимо включить JavaScript
Показать сообщения:    

Текущее время: 08-Дек 14:56

Часовой пояс: UTC + 3


Вы можете начинать темы
Вы можете отвечать на сообщения
Вы не можете редактировать свои сообщения
Вы не можете удалять свои сообщения
Вы не можете голосовать в опросах
Вы не можете прикреплять файлы к сообщениям
Вы можете скачивать файлы