(Concertos/Violin) The Great Violin Concertos: Bach, Mozart, Beethoven, Mendelssohn, Brahms, Bruch (Menuhin Yehudi) - 1991, APE (image+.cue), lossless


Статистика раздачи [Обновить пиров]
Размер:  961 MB   |    Зарегистрирован:  1 год 1 месяц   |    Скачан:  0 раз

Полного источника не было: Никогда

Личеров:  4  [  0 KB/s  ]   Подробная статистика пиров
 
   
 
 
 

[Цитировать]

The Great Violin Concertos: Bach, Mozart, Beethoven, Mendelssohn, Brahms, Bruch (Menuhin Yehudi)
Жанр: Concertos/Violin
Год выпуска диска: 1991
Производитель диска: Германия (EMI)
Аудио кодек: APE
Тип рипа: image+.cue
Битрейт аудио: lossless
Продолжительность: CD1: 71’38; CD2: 71’21; CD3: 65’14
Исполнители:
Johann Sebastian Bach - Concerto for 2 Violins in D minor, BWV 1043
Wolfgang Amadeus Mozart - Violin Concerto No 3, 5

Yehudi Menuhin – violin & conductor
Christian Ferras - violin
Bath Festival Orchestra
Ludwig van Beethoven - Violin Concerto in D, Op. 61
Wiener Philharmoniker
Conductor - Constantin Silvestri
Felix Mendelssohn-Bartholdy - Violin Concerto in E minor, Op. 64
Philharmonia Orchestra
Conductor - Efrem Kurtz
Johannes Brahms - Violin Concerto in D minor, Op. 77
Berliner Philharmoniker
Conductor - Rudolf Kempe
Max Bruch - Violin Concerto No 1 in G minor, Op. 26
Philharmonia Orchestra
Conductor - Walter Susskind

Треклист CD1

1.Bach J.S. - Concerto for 2 Violins in D minor, BWV 1043: I. Vivace
2.II. Largo ma non tanto
3.III. Allegro
4.Mozart W.A. - Violin Concerto No 3 in G, K 216: I. Allegro
5.II. Adagio
6.III. Rondeau (Allegro-Andante-Allegretto)
7.Mozart W.A. - Violin Concerto No 5 in A, K 219 "Turkish": I. Allegro aperto
8.II. Adagio
9.III. Rondeau (Tempo di Menuetto-Allegro)

Треклист CD2

1.Beethoven, Ludwig van - Violin Concerto in D, Op.61: I. Allegro ma non troppo
2.II. Larghetto
3.III. Rondo (Allegro)
4.Mendelssohn-Bartholdy, Felix - Violin Concerto in E minor, Op. 64: I. Allegro molto appassionato – Presto
5.II. Andante
6.III. Allegretto non troppo-Allegro molto vivace

Треклист CD3

1.Brahms, Johannes - Violin Concerto in D minor, Op. 77: I. Allegro non troppo
2.II. Adagio
3.III. Allegro giocoso, ma non troppo vevace
4.Bruch, Max - Violin Concerto No 1 in G minor, Op. 26: I. Allegro moderato
5.II. Adagio
6.III. Finale (Allegro energico)

Отчёт EAC CD1

Exact Audio Copy V0.99 prebeta 4 from 23. January 2008
EAC extraction logfile from 24. May 2010, 23:17
Yehudi Menuhin, Christian Ferras, Bath Festival Orchestra / The Great Violin Concertos - CD1
Used drive : Optiarc DVD RW AD-7173A Adapter: 1 ID: 1
Read mode : Secure
Utilize accurate stream : Yes
Defeat audio cache : Yes
Make use of C2 pointers : No
Read offset correction : 48
Overread into Lead-In and Lead-Out : No
Fill up missing offset samples with silence : Yes
Delete leading and trailing silent blocks : No
Null samples used in CRC calculations : Yes
Used interface : Native Win32 interface for Win NT & 2000
Used output format : Internal WAV Routines
Sample format : 44.100 Hz; 16 Bit; Stereo
TOC of the extracted CD
Track | Start | Length | Start sector | End sector
---------------------------------------------------------
1 | 0:00.33 | 4:18.55 | 33 | 19437
2 | 4:19.13 | 7:42.52 | 19438 | 54139
3 | 12:01.65 | 5:31.48 | 54140 | 79012
4 | 17:33.38 | 9:49.37 | 79013 | 123224
5 | 27:23.00 | 8:01.00 | 123225 | 159299
6 | 35:24.00 | 6:43.13 | 159300 | 189537
7 | 42:07.13 | 10:10.00 | 189538 | 235287
8 | 52:17.13 | 10:28.60 | 235288 | 282447
9 | 62:45.73 | 8:52.50 | 282448 | 322397
Range status and errors
Selected range
Filename C:\Documents and Settings\The Great Violin Concertos - CD1.wav
Peak level 91.5 %
Range quality 99.9 %
Copy CRC CAF3C328
Copy OK
No errors occurred
End of status report

Отчёт EAC CD2

Exact Audio Copy V0.99 prebeta 4 from 23. January 2008
EAC extraction logfile from 24. May 2010, 23:36
Yehudi Menuhin, Wiener Philharmoniker, Philharmonia Orchestra / The Great Violin Concertos - CD2
Used drive : Optiarc DVD RW AD-7173A Adapter: 1 ID: 1
Read mode : Secure
Utilize accurate stream : Yes
Defeat audio cache : Yes
Make use of C2 pointers : No
Read offset correction : 48
Overread into Lead-In and Lead-Out : No
Fill up missing offset samples with silence : Yes
Delete leading and trailing silent blocks : No
Null samples used in CRC calculations : Yes
Used interface : Native Win32 interface for Win NT & 2000
Used output format : Internal WAV Routines
Sample format : 44.100 Hz; 16 Bit; Stereo
TOC of the extracted CD
Track | Start | Length | Start sector | End sector
---------------------------------------------------------
1 | 0:00.33 | 23:28.40 | 33 | 105672
2 | 23:28.73 | 10:28.42 | 105673 | 152814
3 | 33:57.40 | 10:49.03 | 152815 | 201492
4 | 44:46.43 | 12:20.05 | 201493 | 256997
5 | 57:06.48 | 7:54.27 | 256998 | 292574
6 | 65:01.00 | 6:21.03 | 292575 | 321152
Range status and errors
Selected range
Filename C:\Documents and Settings\The Great Violin Concertos - CD2.wav
Peak level 91.2 %
Range quality 100.0 %
Copy CRC B8463E19
Copy OK
No errors occurred
End of status report

Отчёт EAC CD3

Exact Audio Copy V0.99 prebeta 4 from 23. January 2008
EAC extraction logfile from 24. May 2010, 23:53
Yehudi Menuhin, Berliner Philharmoniker, Philharmonia Orchestra / The Great Violin Concertos - CD3
Used drive : Optiarc DVD RW AD-7173A Adapter: 1 ID: 1
Read mode : Secure
Utilize accurate stream : Yes
Defeat audio cache : Yes
Make use of C2 pointers : No
Read offset correction : 48
Overread into Lead-In and Lead-Out : No
Fill up missing offset samples with silence : Yes
Delete leading and trailing silent blocks : No
Null samples used in CRC calculations : Yes
Used interface : Native Win32 interface for Win NT & 2000
Used output format : Internal WAV Routines
Sample format : 44.100 Hz; 16 Bit; Stereo
TOC of the extracted CD
Track | Start | Length | Start sector | End sector
---------------------------------------------------------
1 | 0:00.33 | 22:51.52 | 33 | 102909
2 | 22:52.10 | 9:58.13 | 102910 | 147772
3 | 32:50.23 | 8:22.07 | 147773 | 185429
4 | 41:12.30 | 8:28.10 | 185430 | 223539
5 | 49:40.40 | 8:33.60 | 223540 | 262074
6 | 58:14.25 | 7:00.53 | 262075 | 293627
Range status and errors
Selected range
Filename C:\Documents and Settings\The Great Violin Concertos - CD3.wav
Peak level 97.7 %
Range quality 99.9 %
Copy CRC C040FDF4
Copy OK
No errors occurred
End of status report
[teatrix.ru].t9756.torrent 
Торрент: Зарегистрирован [ 2015-10-23 17:26 ] · 9F664280D1191B4BE46EC235B182C317E14D4DCB

Скачать .torrent

Скачать

20 KB

Статус: проверено
Скачан: 0 раз
Размер: 961 MB
terms.php



Быстрый ответ

Имя:

      
Для отправки сообщений необходимо включить JavaScript
Показать сообщения:    

Текущее время: 10-Дек 11:52

Часовой пояс: UTC + 3


Вы можете начинать темы
Вы можете отвечать на сообщения
Вы не можете редактировать свои сообщения
Вы не можете удалять свои сообщения
Вы не можете голосовать в опросах
Вы не можете прикреплять файлы к сообщениям
Вы можете скачивать файлы