(Classical, choral) Alfred Deller - The Complete Vanguard Recordings - Volume 4 - Music of Handel, Bach and the English Renaissance - Alfred Deller, The Deller Consort, Gustav Leonhardt, Nikolaus Harnoncourt - 6CD - 2008, FLAC (image+.cue), lossless


Статистика раздачи [Обновить пиров]
Размер:  1.88 GB   |    Зарегистрирован:  1 год 1 месяц   |    Скачан:  1 раз
Сидов:  1  [  0 KB/s  ]   Личеров:  1  [  0 KB/s  ]   Подробная статистика пиров
 
   
 
 
 

[Цитировать]

Alfred Deller - The Complete Vanguard Recordings - Volume 4 - Music of Handel, Bach and the English Renaissance - Alfred Deller, The Deller Consort, Gustav Leonhardt, Nikolaus Harnoncourt
Жанр: Classical, choral
Год выпуска диска: 2008
Производитель диска: Vanguard Classics
Аудио кодек: FLAC
Тип рипа: image+.cue
Битрейт аудио: lossless
Продолжительность: 7:00:07
Четвертый том: Гендель, немного Баха, музыка английского Ренессанса.
Первые 2 тома:
Volume 1 - Folk Songs and Ballads (7CD)
Volume 2: Music of Purcell (6CD)

Продолжение:
Volume 3: Christmas Carols and Motets (4CD)
Volume 4: Music of Handel, Bach and the English Renaissance (6CD)

Трэклист:

CD1: The Connoisseur's Handel / Handel: 3 Coronation Anthems

George Frideric Handel
Jephta (1752), HWV 70
1 'Tis Heaven's all-ruling pow'r 3:03
2 O spare your daughter 2:37
3 Laud her all ye virgin train 3:09
4 Serse (1738, London) - Ombra mai fu 4:19
5 Orlando (1733, London) - Ah! Stigie larve 8:05
6 L'Allegro, il Pensoroso ed il Moderato (1740), HWV 55 - Let me wander 2:01
7 Orlando (1733, London) - Cielo se tu il consenti 5:21
8 Rinaldo (1711, London) - Lascia ch'io pianga 4:40
Theodora (1750), HWV 68
9 Kind Heav'n, if Virtue be thy care 2:35
10 Wide spread his name 2:33
11 Sweet Rose, and Lilly, flow'ry Form 3:12
12 To thee thou glorious son of worth 5:16
Alfred Deller, counter-tenor
Eileen Poulter, soprano / Wilfred Brown, tenor / Maurice Bevan, baritone / Herbert Tachezi, harpsichord
The Handel Festival Orchestra / Sir Anthony Lewis, conductor

13 Coronation Anthems - Zadok the priest 5:28
14 Coronation Anthems - The King shall rejoice 1:47
15 Coronation Anthems - Let thy hand be strenghtened 8:45
Alfred Deller, counter-tenor / Richard Rudolf, trumpet / Harold Lester, harpsichord
Oriana Concert Choir and Orchestra / Alfred Deller, conductor

CD2: Handel: Ode for the Birthday of Queen Anne / Bach: Cantatas 54 & 170

George Frideric Handel: Ode for the Birthday of Queen Anne
1 Largo: Eternal source of light divine 6:56
2 Andante: Let all the winged ... 2:59
3 Andante: Let flocks ... 2:25
4 Let rolling streams ... 2:47
5 Kind health descends 6:04
6 Let envy then conceal her head 2:26
7 United nations shall combine 3:18
Honor Sheppard, soprano / Alfred Deller, counter-tenor / Mark Deller, counter-tenor / Richard Rudolf, trumpet / Harold Lester, harpsichord
Oriana Concert Orchestra / Alfred Deller, conductor

Johann Sebastian Bach: Cantata 170 "Vergnugte Ruh' beliebte Seelenlust"
8 Aria: Vergnugte Ruh' 6:53
9 Recitative: Die Welt, das Sundenhaus 1:11
10 Aria: Wie jammern 8:17
11 Recitative: Wer solte sich 1:00
12 Aria: Wie leid ist mir das Leben 6:00
13 Johann Sebastian Bach: Mass in b minor, BWV233 - Agnus Dei 9:01
Johann Sebastian Bach: Cantata 54 "Widerstehe doch der Sunde"
14 Aria: Widerstehe 1:07
15 Recitative: Die Art 3:25
16 Aria: Wer Sunde tut 5:34
Alfred Deller, counter-tenor
Leonhardt Baroque Ensemble
Michel Piguet, oboe / Eduard Melkus, baroque violin / Marie Leonhardt , baroque violin / Kurt Theiner, baroque viola / Alice Hoffelner , baroque viola / Nicolaus Harnoncourt, baroque 'cello / Alfred Planiawsky, baroque double-bass / Gustav Leonhardt, organ
Gustav Leonhardt, conductor

CD3: Handel: Alexander's Feast (beginning)

Part I
1 Overture (Maestoso - Allegro ma non troppo - Andante) 6:46
2 Recitative: 'Twas at the royal feast 1:25
3 Air and Chorus: Happy, happy, happy 5:04
4 Recitative: Timotheus, plac'd on high 0:35
5 Accompanied recitative: The song began 1:03
6 Chorus: The list'ning crowd 2:43
7 Air: With ravish'd ears 4:05
8 Recitative: The praise of Bacchus 0:38
9 Air and Chorus: Bacchus, ever fair 4:11
10 Recitative: Sooth'd with the sound 0:57
11 Accompanied recitative: He chose a mournful Muse 1:28
12 Air: He sung Darius 3:43
13 Accompanied recitative: With downcast looks 1:11
14 Chorus: Behold Darius 3:34
15 Recitative: The mighty master smil'd 0:40
16 Air: Softly sweet in Lydian measures 3:26
17 Air: War, he sung, is toil and trouble 5:40
18 Chorus: The many rend the skies 4:02
19 Air: The Prince, unable to conceal 7:46
20 Chorus da capo: The many rend the skies 4:09
Part II
21 Accompanied recitative: Now strike the golden Lyre again 1:54
22 Chorus: Break his bands of sleep asunder 1::3
23 Air: Revenge, revenge 2:02
24 Largo: Behold the ghastly band 4:46

CD4: Handel: Alexander's Feast (conclusion) / Elizabethan and Jacobean Music

1 Air da capo: Revenge, revenge 2:08
2 Accompanied recitative: Give the vengeance due 2:09
3 Air: The princes applaud 2:29
4 Air and chorus: Thais led the way 5:03
5 Accompanied recitative: Thus, long ago 2:54
6 Chorus: At last divine Cecilia came 4:35
7 Recitative: Let old Timotheus yield the prize 0:34
8 Chorus and soloists: Let old Timotheus yield the prize 3:53
Honor Sheppard, soprano / Alfred Deller, counter-tenor / Max Worthley , tenor / Maurice Bevan, bass
Oriana Concert Choir and Orchestra / Alfred Deller, conductor

Elizabethan and Jacobean Music
9 John Dowland: Book of Airs, 1597 - Air: Can she excuse my wrongs? 4:12
10 Thomas Morley: A Plaine and Easie Introduction to Practicall Musicke - Air for three viols (instr.) 1:30
11 John Bartlett: A Book of Ayres..., 1606 - Air: Of all the birds that I do know (text: George Gascoigne) 2:01
12 Robert Johnson: Fitwilliam Virginal Book - Alman for harpsichord (set by Giles Farnaby) (instr.) 1:16
13 John Dowland: Book of Airs, 1597 - Air: If my complaints could passions move 4:26
14 John Jenkins: Pavan for four viols (instr.) 5:57
15 Thomas Campian: Rosseter's Book of Ayres, 1601 - Air: I care not for these ladies 1:44
16 John Dowland: Air for lute solo: My Lady Hunsdon's Puffe (instr.) 1:03
17 Robert Parsons: Air: Pandolpho (orn. for lute) 7:23
18 John Jenkins: Fantasia in C for four viols (instr.) 4:59
19 John Dowland: A Pilgrim's Solace - Air: From silent night 5:19
20 Giles Farnaby: Fitzwilliam Virginal Book - Variations for harpsichord on "Up Tails All" (instr.) 5:57
Alfred Deller, counter-tenor / Desmond Dupre, lute / Gustav Leonhardt, harpsichord
Consort of Viols of the Leonhardt Baroque Ensemble
Eduard Melkus, treble viol / Nikolaus Harnoncourt, bass viols / Alice Hoffelner, treble viol / Gustav Leonhardt, bass viol

CD5: Thomas Tallis: The Lamentations of Jeremiah the Prophet / William Byrd and His Age

Thomas Tallis: The Lamentations of Jeremiah the Prophet
Part I

1 Incipit Lamentatio Jeremiae Prophetae 1:13
2 Aleph; Quomodo sedet 2:36
3 Beth 0:29
4 Plorans ploravit 4:11
Part II
5 De Lamentatione Jeremiae Prophetae 1:36
6 Ghimel 0:59
7 Migravit Judas 1:58
8 Daleth 0:32
9 Omnes persecutores 3:27
10 Heth 0:33
11 Facti sunt 4:47
12 Thomas Tallis: Jesu salvator saeculi 5:18
13 John Sheppard (attrib., originally attrib. Tallis): Deus tuorum militum II 4:13
14 Thomas Tallis: O nata lux de lumine 2:12
15 Thomas Tallis: Jam Christus astra ascenderat 5:42
16 Thomas Tallis: Salvator mundi Domine 5:20
The Deller Consort / Alfred Deller, director
Eileen McLoughlin, soprano (12-16) / Alfred Deller, counter-tenor / Gerald English, tenor / Wilfred Brown, tenor / Maurice Bevan, baritone / John Frost, bass

17 Anon., arr. Edmund Fellowes, British Museum, Add. Mss. 17, 786-91: My Sweet Little Darling 3:04
18 Anon., arr. Peter Warlock, Christ Church, Oxford, Mss. 984-8: Guichardo 4:39
19 William Corkine, arr. Thurston Dart: What Bootheth Love ? 3:17
20 Anon., arr. Peter Warlock: Ah, Silly Poor Joas 1:48
21 Thomas Whythorne, arr. Peter Warlock: Buy New Broom 1:24
22 William Byrd, arr. Edmund Fellowes: Elegy on the death of Thomas Tallis, 1585 - Ye Sacred Muses 3:51
23 William Byrd, arr. Edmund Fellowes, : Psalms, Sonnets, and Songs of Sadness and Piety, made into Music of Five Parts, 1588 - Lullaby, My Sweet Little Baby 7:01
24 Richard Nicholson, arr. Peter Warlock: In a Merry May Morn 1:26
25 Robert Parsons, arr. Peter Warlock: Pandolpho 4:06
26 William Byrd, arr. Peter le Huray & Thurston Dart: Come, Pretty Babe 1:33
27 Anon., arr. Peter Warlock: O Death, Rock Me Asleep 3:07
Alfred Deller, counter-tenor / Wenzinger Consort of Viols of the Schola Cantorum Basiliensis / August Wenzinger, director

CD6: Deller's Choice (selections) / Duets for Countertenors (selections)

1 John Blow: The Self-Banished 3:32
2 John Weldon: The Nightingale 1:36
3 Georg Frideric Handel: from Rodelinda, HWV19 - Dove sei 4:14
4 Johann Sebastian Bach (spurious, attributed to possibly Gottfried Heinrich Stolzel): Notebook for Anna Magdalena Bach -Bist du bei mir, BWV508 2:58
5 Matthew Locke: Melothsia, 1673 - Voluntary in G for organ 1:09
6 Henry Purcell: Elegy on the death of Queen Mary, 1695 - The Queen's Epicedium 7:09
7 Matthew Locke: Melothsia, 1673 - Voluntary in F for organ 1:32
8 Pelham Humfrey (or Hemphryes): Harmonia Sacra, Book I, 1688 - A Hymn to God the Father 3:31
Alfred Deller, countertenor (1-4, 6, 8) /Gustav Leonhardt, harpsichord and organ (5, 7, 8)
9 Thomas Morley: The First Book of Canzonets to Two Voices, 1595 - Sweet Nymph, Come to Thy Lover 1:41
10 Henry Purcell: Love's Goddess Birthday Song for Queen Mary, 1692 - Sweetness of Nature 3:40
11 Robert Jones: A Musicall Dreame or 4th Book of Airs - Sweet Kate 1:45
12 Thomas Morley: Canzonets for Two Voices - Miraculous love's wounding 2:58
13 I go before, my darling 1:27
14 John Blow: Amphion Anglicus (London, 1600) - If my Celia could persuade 3:00
15 Ah Heav'n! What is it I hear? 3:17
16 Richard Deering: Cantica Sacra (London, 1662) - O bone Jesu 3:10
17 Gaudent in coelis 1:36
18 Anon., Fayrfax Ms (er. John Stevens): Ah, My Dear Son 6:09
Alfred Deller, countertenor /Mark Deller, counter-tenor / Ensemble of Baroque Instruments
Доп. информация:

CD1 EAC log

Exact Audio Copy V0.99 prebeta 5 from 4. May 2009
EAC extraction logfile from 23. May 2010, 15:37
Various / Music of Handel, Bach and the English Renaissance. CD 1: The Connoisseur's Handel / Handel: 3 Coronation Anthems
Used drive : HL-DT-STDVDRAM GSA-4083N Adapter: 1 ID: 0
Read mode : Secure
Utilize accurate stream : Yes
Defeat audio cache : Yes
Make use of C2 pointers : No
Read offset correction : 667
Overread into Lead-In and Lead-Out : No
Fill up missing offset samples with silence : Yes
Delete leading and trailing silent blocks : No
Null samples used in CRC calculations : No
Used interface : Native Win32 interface for Win NT & 2000
Used output format : User Defined Encoder
Selected bitrate : 768 kBit/s
Quality : High
Add ID3 tag : No
Command line compressor : C:\Program Files\Exact Audio Copy\FLAC\FLAC.EXE
Additional command line options : -6 -V -T "ARTIST=%a" -T "TITLE=%t" -T "ALBUM=%g" -T "DATE=%y" -T "TRACKNUMBER=%n" -T "GENRE=%m" -T "COMMENT=%e" %s -o %d
TOC of the extracted CD
Track | Start | Length | Start sector | End sector
---------------------------------------------------------
1 | 0:00.00 | 3:03.61 | 0 | 13785
2 | 3:03.61 | 2:36.72 | 13786 | 25557
3 | 5:40.58 | 3:09.07 | 25558 | 39739
4 | 8:49.65 | 4:19.20 | 39740 | 59184
5 | 13:09.10 | 8:05.01 | 59185 | 95560
6 | 21:14.11 | 2:01.05 | 95561 | 104640
7 | 23:15.16 | 5:21.62 | 104641 | 128777
8 | 28:37.03 | 4:40.45 | 128778 | 149822
9 | 33:17.48 | 2:35.52 | 149823 | 161499
10 | 35:53.25 | 2:33.05 | 161500 | 172979
11 | 38:26.30 | 3:12.55 | 172980 | 187434
12 | 41:39.10 | 5:16.01 | 187435 | 211135
13 | 46:55.11 | 5:28.52 | 211136 | 235787
14 | 52:23.63 | 2:49.63 | 235788 | 248525
15 | 55:13.51 | 17:43.31 | 248526 | 328281
Range status and errors
Selected range
Filename F:\Music\Deller - Vol.4\Alfred Deller - Music of Handel, Bach - CD1.wav
Peak level 99.1 %
Range quality 100.0 %
Copy CRC F74961C2
Copy OK
No errors occurred
End of status report

CD2 EAC log

Exact Audio Copy V0.99 prebeta 5 from 4. May 2009
EAC extraction logfile from 23. May 2010, 16:53
Various / Music of Handel, Bach and the English Renaissance. CD 2: Handel: Ode for the Birthday of Queen Anne / Bach: Cantatas 54 & 170
Used drive : HL-DT-STDVDRAM GSA-4083N Adapter: 1 ID: 0
Read mode : Secure
Utilize accurate stream : Yes
Defeat audio cache : Yes
Make use of C2 pointers : No
Read offset correction : 667
Overread into Lead-In and Lead-Out : No
Fill up missing offset samples with silence : Yes
Delete leading and trailing silent blocks : No
Null samples used in CRC calculations : No
Used interface : Native Win32 interface for Win NT & 2000
Used output format : User Defined Encoder
Selected bitrate : 768 kBit/s
Quality : High
Add ID3 tag : No
Command line compressor : C:\Program Files\Exact Audio Copy\FLAC\FLAC.EXE
Additional command line options : -6 -V -T "ARTIST=%a" -T "TITLE=%t" -T "ALBUM=%g" -T "DATE=%y" -T "TRACKNUMBER=%n" -T "GENRE=%m" -T "COMMENT=%e" %s -o %d
TOC of the extracted CD
Track | Start | Length | Start sector | End sector
---------------------------------------------------------
1 | 0:00.00 | 6:56.08 | 0 | 31207
2 | 6:56.08 | 2:59.21 | 31208 | 44653
3 | 9:55.29 | 2:25.37 | 44654 | 55565
4 | 12:20.66 | 2:47.18 | 55566 | 68108
5 | 15:08.09 | 6:04.02 | 68109 | 95410
6 | 21:12.11 | 2:26.07 | 95411 | 106367
7 | 23:38.18 | 3:19.71 | 106368 | 121363
8 | 26:58.14 | 6:52.08 | 121364 | 152271
9 | 33:50.22 | 1:11.34 | 152272 | 157630
10 | 35:01.56 | 8:17.19 | 157631 | 194924
11 | 43:19.00 | 1:00.22 | 194925 | 199446
12 | 44:19.22 | 6:00.22 | 199447 | 226468
13 | 50:19.44 | 9:01.05 | 226469 | 267048
14 | 59:20.49 | 1:07.37 | 267049 | 272110
15 | 60:28.11 | 3:25.30 | 272111 | 287515
16 | 63:53.41 | 5:34.41 | 287516 | 312606
Range status and errors
Selected range
Filename F:\Music\Deller - Vol.4\Alfred Deller - Music of Handel, Bach - CD2.wav
Peak level 95.0 %
Range quality 99.9 %
Copy CRC E48AEA62
Copy OK
No errors occurred
End of status report

CD3 EAC log

Exact Audio Copy V0.99 prebeta 5 from 4. May 2009
EAC extraction logfile from 23. May 2010, 17:28
Various / Music of Handel, Bach and the English Renaissance. CD 3: Handel: Alexander's Feast (beginning)
Used drive : HL-DT-STDVDRAM GSA-4083N Adapter: 1 ID: 0
Read mode : Secure
Utilize accurate stream : Yes
Defeat audio cache : Yes
Make use of C2 pointers : No
Read offset correction : 667
Overread into Lead-In and Lead-Out : No
Fill up missing offset samples with silence : Yes
Delete leading and trailing silent blocks : No
Null samples used in CRC calculations : No
Used interface : Native Win32 interface for Win NT & 2000
Used output format : User Defined Encoder
Selected bitrate : 768 kBit/s
Quality : High
Add ID3 tag : No
Command line compressor : C:\Program Files\Exact Audio Copy\FLAC\FLAC.EXE
Additional command line options : -6 -V -T "ARTIST=%a" -T "TITLE=%t" -T "ALBUM=%g" -T "DATE=%y" -T "TRACKNUMBER=%n" -T "GENRE=%m" -T "COMMENT=%e" %s -o %d
TOC of the extracted CD
Track | Start | Length | Start sector | End sector
---------------------------------------------------------
1 | 0:00.00 | 6:46.43 | 0 | 30492
2 | 6:46.43 | 1:25.33 | 30493 | 36900
3 | 8:12.01 | 5:04.68 | 36901 | 59768
4 | 13:16.69 | 0:35.00 | 59769 | 62393
5 | 13:51.69 | 1:03.71 | 62394 | 67189
6 | 14:55.65 | 2:42.64 | 67190 | 79403
7 | 17:38.54 | 4:05.04 | 79404 | 97782
8 | 21:43.58 | 0:37.35 | 97783 | 100592
9 | 22:21.18 | 4:12.38 | 100593 | 119530
10 | 26:33.56 | 0:57.15 | 119531 | 123820
11 | 27:30.71 | 1:28.72 | 123821 | 130492
12 | 28:59.68 | 3:43.25 | 130493 | 147242
13 | 32:43.18 | 1:11.09 | 147243 | 152576
14 | 33:54.27 | 3:34.29 | 152577 | 168655
15 | 37:28.56 | 0:40.50 | 168656 | 171705
16 | 38:09.31 | 3:26.60 | 171706 | 187215
17 | 41:36.16 | 5:40.15 | 187216 | 212730
18 | 47:16.31 | 3:59.23 | 212731 | 230678
19 | 51:15.54 | 7:46.03 | 230679 | 265631
20 | 59:01.57 | 4:09.03 | 265632 | 284309
21 | 63:10.60 | 1:34.42 | 284310 | 291401
22 | 64:45.27 | 1:54.08 | 291402 | 299959
23 | 66:39.35 | 2:03.20 | 299960 | 309204
24 | 68:42.55 | 4:52.13 | 309205 | 331117
Range status and errors
Selected range
Filename F:\Music\Deller - Vol.4\Alfred Deller - Music of Handel, Bach - CD3.wav
Peak level 94.1 %
Range quality 100.0 %
Copy CRC 9B628D2C
Copy OK
No errors occurred
End of status report

CD4 EAC log

Exact Audio Copy V0.99 prebeta 5 from 4. May 2009
EAC extraction logfile from 24. May 2010, 20:31
Various / Music of Handel, Bach and the English Renaissance. CD 4: Handel: Alexander's Feast (concl.) / Elizabethan and Jacobean Music
Used drive : HL-DT-STDVDRAM GSA-4083N Adapter: 1 ID: 0
Read mode : Secure
Utilize accurate stream : Yes
Defeat audio cache : Yes
Make use of C2 pointers : No
Read offset correction : 667
Overread into Lead-In and Lead-Out : No
Fill up missing offset samples with silence : Yes
Delete leading and trailing silent blocks : No
Null samples used in CRC calculations : No
Used interface : Native Win32 interface for Win NT & 2000
Used output format : User Defined Encoder
Selected bitrate : 768 kBit/s
Quality : High
Add ID3 tag : No
Command line compressor : C:\Program Files\Exact Audio Copy\FLAC\FLAC.EXE
Additional command line options : -6 -V -T "ARTIST=%a" -T "TITLE=%t" -T "ALBUM=%g" -T "DATE=%y" -T "TRACKNUMBER=%n" -T "GENRE=%m" -T "COMMENT=%e" %s -o %d
TOC of the extracted CD
Track | Start | Length | Start sector | End sector
---------------------------------------------------------
1 | 0:00.00 | 2:10.14 | 0 | 9763
2 | 2:10.14 | 2:09.56 | 9764 | 19494
3 | 4:19.70 | 2:29.70 | 19495 | 30739
4 | 6:49.65 | 5:03.45 | 30740 | 53509
5 | 11:53.35 | 2:54.18 | 53510 | 66577
6 | 14:47.53 | 4:35.72 | 66578 | 87274
7 | 19:23.50 | 0:34.67 | 87275 | 89891
8 | 19:58.42 | 3:53.45 | 89892 | 107411
9 | 23:52.12 | 4:11.53 | 107412 | 126289
10 | 28:03.65 | 1:30.56 | 126290 | 133095
11 | 29:34.46 | 2:01.17 | 133096 | 142187
12 | 31:35.63 | 1:16.37 | 142188 | 147924
13 | 32:52.25 | 4:26.43 | 147925 | 167917
14 | 37:18.68 | 5:57.44 | 167918 | 194736
15 | 43:16.37 | 1:44.44 | 194737 | 202580
16 | 45:01.06 | 1:03.28 | 202581 | 207333
17 | 46:04.34 | 7:23.18 | 207334 | 240576
18 | 53:27.52 | 4:59.13 | 240577 | 263014
19 | 58:26.65 | 5:18.53 | 263015 | 286917
20 | 63:45.43 | 5:56.53 | 286918 | 313670
Range status and errors
Selected range
Filename F:\Music\Deller - Vol.4\Alfred Deller - Music of Handel, Bach - CD4.wav
Peak level 84.9 %
Range quality 100.0 %
Copy CRC 3CCF8234
Copy OK
No errors occurred
End of status report

CD5 EAC log

Exact Audio Copy V0.99 prebeta 5 from 4. May 2009
EAC extraction logfile from 24. May 2010, 21:19
Alfred Deller, The Deller Consort / Music of Handel, Bach and the English Renaissance. CD 5: Tallis: The Lamentations of Jeremiah / William Byrd and His Age
Used drive : HL-DT-STDVDRAM GSA-4083N Adapter: 1 ID: 0
Read mode : Secure
Utilize accurate stream : Yes
Defeat audio cache : Yes
Make use of C2 pointers : No
Read offset correction : 667
Overread into Lead-In and Lead-Out : No
Fill up missing offset samples with silence : Yes
Delete leading and trailing silent blocks : No
Null samples used in CRC calculations : No
Used interface : Native Win32 interface for Win NT & 2000
Used output format : User Defined Encoder
Selected bitrate : 768 kBit/s
Quality : High
Add ID3 tag : No
Command line compressor : C:\Program Files\Exact Audio Copy\FLAC\FLAC.EXE
Additional command line options : -6 -V -T "ARTIST=%a" -T "TITLE=%t" -T "ALBUM=%g" -T "DATE=%y" -T "TRACKNUMBER=%n" -T "GENRE=%m" -T "COMMENT=%e" %s -o %d
TOC of the extracted CD
Track | Start | Length | Start sector | End sector
---------------------------------------------------------
1 | 0:00.00 | 1:11.45 | 0 | 5369
2 | 1:11.45 | 2:36.02 | 5370 | 17071
3 | 3:47.47 | 0:29.10 | 17072 | 19256
4 | 4:16.57 | 4:07.40 | 19257 | 37821
5 | 8:24.22 | 1:36.18 | 37822 | 45039
6 | 10:00.40 | 0:59.35 | 45040 | 49499
7 | 11:00.00 | 1:58.40 | 49500 | 58389
8 | 12:58.40 | 0:32.13 | 58390 | 60802
9 | 13:30.53 | 3:27.31 | 60803 | 76358
10 | 16:58.09 | 0:32.00 | 76359 | 78758
11 | 17:30.09 | 4:44.38 | 78759 | 100096
12 | 22:14.47 | 5:15.35 | 100097 | 123756
13 | 27:30.07 | 4:10.38 | 123757 | 142544
14 | 31:40.45 | 2:09.12 | 142545 | 152231
15 | 33:49.57 | 5:38.70 | 152232 | 177651
16 | 39:28.52 | 5:18.68 | 177652 | 201569
17 | 44:47.45 | 3:03.11 | 201570 | 215305
18 | 47:50.56 | 4:39.38 | 215306 | 236268
19 | 52:30.19 | 3:16.29 | 236269 | 250997
20 | 55:46.48 | 1:48.26 | 250998 | 259123
21 | 57:34.74 | 1:23.50 | 259124 | 265398
22 | 58:58.49 | 3:51.04 | 265399 | 282727
23 | 62:49.53 | 7:00.12 | 282728 | 314239
24 | 69:49.65 | 1:25.33 | 314240 | 320647
25 | 71:15.23 | 4:06.08 | 320648 | 339105
26 | 75:21.31 | 1:31.68 | 339106 | 345998
27 | 76:53.24 | 3:03.51 | 345999 | 359774
Range status and errors
Selected range
Filename F:\Music\Deller - Vol.4\Alfred Deller - Music of Handel, Bach - CD5.wav
Peak level 99.1 %
Range quality 99.9 %
Copy CRC 1C218B69
Copy OK
No errors occurred
End of status report

CD6 EAC log

Exact Audio Copy V0.99 prebeta 5 from 4. May 2009
EAC extraction logfile from 25. May 2010, 0:09
Various / Music of Handel, Bach and the English Renaissance. CD 6: Deller's Choice (selections) / Duets for Countertenors (selections)
Used drive : HL-DT-STDVDRAM GSA-4083N Adapter: 1 ID: 0
Read mode : Secure
Utilize accurate stream : Yes
Defeat audio cache : Yes
Make use of C2 pointers : No
Read offset correction : 667
Overread into Lead-In and Lead-Out : No
Fill up missing offset samples with silence : Yes
Delete leading and trailing silent blocks : No
Null samples used in CRC calculations : No
Used interface : Native Win32 interface for Win NT & 2000
Used output format : User Defined Encoder
Selected bitrate : 768 kBit/s
Quality : High
Add ID3 tag : No
Command line compressor : C:\Program Files\Exact Audio Copy\FLAC\FLAC.EXE
Additional command line options : -6 -V -T "ARTIST=%a" -T "TITLE=%t" -T "ALBUM=%g" -T "DATE=%y" -T "TRACKNUMBER=%n" -T "GENRE=%m" -T "COMMENT=%e" %s -o %d
TOC of the extracted CD
Track | Start | Length | Start sector | End sector
---------------------------------------------------------
1 | 0:00.00 | 3:33.23 | 0 | 15997
2 | 3:33.23 | 1:36.11 | 15998 | 23208
3 | 5:09.34 | 4:14.08 | 23209 | 42266
4 | 9:23.42 | 2:58.52 | 42267 | 55668
5 | 12:22.19 | 1:09.05 | 55669 | 60848
6 | 13:31.24 | 7:09.56 | 60849 | 93079
7 | 20:41.05 | 1:32.20 | 93080 | 99999
8 | 22:13.25 | 3:32.05 | 100000 | 115904
9 | 25:45.30 | 1:40.38 | 115905 | 123442
10 | 27:25.68 | 3:40.26 | 123443 | 139968
11 | 31:06.19 | 1:45.09 | 139969 | 147852
12 | 32:51.28 | 2:58.39 | 147853 | 161241
13 | 35:49.67 | 1:27.33 | 161242 | 167799
14 | 37:17.25 | 3:00.44 | 167800 | 181343
15 | 40:17.69 | 3:17.68 | 181344 | 196186
16 | 43:35.62 | 3:10.16 | 196187 | 210452
17 | 46:46.03 | 1:32.63 | 210453 | 217415
18 | 48:18.66 | 6:08.63 | 217416 | 245078
Range status and errors
Selected range
Filename F:\Music\Deller - Vol.4\Alfred Deller - Music of Handel, Bach - CD6.wav
Peak level 95.7 %
Range quality 100.0 %
Copy CRC C3F23159
Copy OK
No errors occurred
End of status report
[teatrix.ru].t9757.torrent 
Торрент: Зарегистрирован [ 2015-10-23 17:26 ] · 57E1E893C752ABFEBF8962FEA4BA99D053D78887

Скачать .torrent

Скачать

41 KB

Статус: проверено
Скачан: 1 раз
Размер: 1.88 GB
terms.php



Быстрый ответ

Имя:

      
Для отправки сообщений необходимо включить JavaScript
Показать сообщения:    

Текущее время: 10-Дек 17:45

Часовой пояс: UTC + 3


Вы можете начинать темы
Вы можете отвечать на сообщения
Вы не можете редактировать свои сообщения
Вы не можете удалять свои сообщения
Вы не можете голосовать в опросах
Вы не можете прикреплять файлы к сообщениям
Вы можете скачивать файлы