(classical, orchestral) Herbert von Karajan. Der Beginn einer Legende (3 CD, записи 1939-1943 гг.) - 2000, FLAC (image+.cue), lossless


Статистика раздачи [Обновить пиров]
Размер:  734 MB   |    Зарегистрирован:  1 год 1 месяц   |    Скачан:  0 раз

Полного источника не было: Никогда

Личеров:  1  [  0 KB/s  ]   Подробная статистика пиров
 
   
 
 
 

[Цитировать]

Herbert von Karajan. Der Beginn einer Legende
Герберт фон Караян. Начало одной легенды
Жанр: classical
Год выпуска диска: 2000
Производитель диска: Mazur Media (ФРГ)
Аудио кодек: FLAC
Тип рипа: image+.cue
Битрейт аудио: lossless
Продолжительность: 74:23; 50:10; 60:20
Описание: Ранние караяновские записи, сделанные еще до его коммерческого периода, многие считают лучшими из всего аудионаследия дирижера

CD1: Sein VermächtnisТрэклист

Herbert von Karajan - Der Beginn einer Legende CD 1 (Sein Vermächtnis)
01. Richard Strauss. Саломея: Танец семи покрывал (IX/1943, Concertgebouw Orchestra Amsterdam) [08:41]
02. Richard Wagner. Нюрнбергские мейстерзингеры: Вступление к 3 акту (II, IV/1939, Staatskapelle Berlin) [06:24]
03. Johann Strauss Jr. Жизнь артиста (VI/1940, Berliner Philharmoniker) [08:46]
04. Johann Strauss Jr. Императорский вальс (VI/1941, Berliner Philharmoniker) [08:57]
05. Wolfgang Amadeus Mozart. Волшебная флейта: Увертюра (XII/1938, Staatskapelle Berlin) [06:22]
06. Luigi Cherubini. Анакреон: Увертюра (V/1939, Staatskapelle Berlin) [09:00]
07. Giuseppe Verdi. Травиата: Вступление (X/1942, Orchestra Sinfonica della RAI di Turino) [04:28]
08. Giuseppe Verdi. Травиата: Вступление к 3 акту (X/1942, Orchestra Sinfonica della RAI di Turino) [04:25]
09. Richard Strauss. Дон Жуан (IX/1943, Concertgebouw Orchestra Amsterdam) [17:15]

Отчет ЕАС

Exact Audio Copy V0.99 prebeta 5 from 4. May 2009
EAC extraction logfile from 24. May 2010, 1:01
Herbert von Karajan / Der Beginn einer Legende CD 1 (Sein Vermдchtnis)
Used drive : Optiarc DVD RW AD-5200A Adapter: 0 ID: 0
Read mode : Secure
Utilize accurate stream : Yes
Defeat audio cache : Yes
Make use of C2 pointers : No
Read offset correction : 48
Overread into Lead-In and Lead-Out : No
Fill up missing offset samples with silence : Yes
Delete leading and trailing silent blocks : No
Null samples used in CRC calculations : Yes
Used interface : Installed external ASPI interface
Used output format : User Defined Encoder
Selected bitrate : 128 kBit/s
Quality : High
Add ID3 tag : No
Command line compressor : C:\Program Files\FLAC\FLAC frontend.exe
Additional command line options : -8 -V -T "ARTIST=%a" -T "TITLE=%t" -T "ALBUM=%g" -T "DATE=%y" -T "TRACKNUMBER=%n" -T "GENRE=%m" -T "COMMENT=EAC FLAC -8" %s
TOC of the extracted CD
Track | Start | Length | Start sector | End sector
---------------------------------------------------------
1 | 0:00.00 | 8:41.51 | 0 | 39125
2 | 8:41.51 | 6:24.55 | 39126 | 67980
3 | 15:06.31 | 8:46.31 | 67981 | 107461
4 | 23:52.62 | 8:57.59 | 107462 | 147795
5 | 32:50.46 | 6:22.06 | 147796 | 176451
6 | 39:12.52 | 9:00.64 | 176452 | 217015
7 | 48:13.41 | 4:28.47 | 217016 | 237162
8 | 52:42.13 | 4:25.41 | 237163 | 257078
9 | 57:07.54 | 17:15.43 | 257079 | 334746
Range status and errors
Selected range
Filename H:\torrents\Karajan - Der Beginn einer Legende\Herbert von Karajan - Der Beginn einer Legende CD 1 (Sein Vermächtnis).wav
Peak level 100.0 %
Range quality 99.9 %
Test CRC CFE666DE
Copy CRC CFE666DE
Copy OK
No errors occurred
End of status report

CD2: Die frühen Aufnahmen (1938 - 1946)Трэклист

Herbert von Karajan: Der Beginn einer Legende: Die frühen Aufnahmen (CD2)
01. Giuseppe Verdi. Сила судьбы: Увертюра (II/1939, Staatskapelle Berlin) [07:05]
02. Richard Wagner. Нюрнбергские мейстерзингеры: Увертюра (II, IV/1939, Staatskapelle Berlin) [08:31]
03. Bedrich Smetana. Влтава (VI/1940, VI/1941, Berliner Philharmoniker) [12:22]
04. Gioachino Rossini. Семирамида: Увертюра (X/1942, Orchestra Torino) [12:02]
05. Carl Maria v. Weber. Вольный стрелок: Увертюра (IX/1941, Concertgebow Orchestra) [10:08]

Отчет ЕАС

Exact Audio Copy V0.99 prebeta 5 from 4. May 2009
EAC extraction logfile from 24. May 2010, 0:16
H. von Karajan / Herbert von Karajan: Der Beginn einer Legende - Die fruhen Aufnahmen (CD2)
Used drive : Optiarc DVD RW AD-5200A Adapter: 0 ID: 0
Read mode : Secure
Utilize accurate stream : Yes
Defeat audio cache : Yes
Make use of C2 pointers : No
Read offset correction : 48
Overread into Lead-In and Lead-Out : No
Fill up missing offset samples with silence : Yes
Delete leading and trailing silent blocks : No
Null samples used in CRC calculations : Yes
Used interface : Installed external ASPI interface
Used output format : User Defined Encoder
Selected bitrate : 128 kBit/s
Quality : High
Add ID3 tag : No
Command line compressor : C:\Program Files\FLAC\FLAC frontend.exe
Additional command line options : -8 -V -T "ARTIST=%a" -T "TITLE=%t" -T "ALBUM=%g" -T "DATE=%y" -T "TRACKNUMBER=%n" -T "GENRE=%m" -T "COMMENT=EAC FLAC -8" %s
TOC of the extracted CD
Track | Start | Length | Start sector | End sector
---------------------------------------------------------
1 | 0:00.00 | 7:05.15 | 0 | 31889
2 | 7:05.15 | 8:31.67 | 31890 | 70281
3 | 15:37.07 | 12:22.31 | 70282 | 125962
4 | 27:59.38 | 12:02.68 | 125963 | 180180
5 | 40:02.31 | 10:08.04 | 180181 | 225784
Range status and errors
Selected range
Filename H:\torrents\Karajan - Der Beginn einer Legende\H. von Karajan - Herbert von Karajan Der Beginn einer Legende Die fruhen Aufnahmen (CD2).wav
Peak level 90.9 %
Range quality 100.0 %
Test CRC 7237E37D
Copy CRC 7237E37D
Copy OK
No errors occurred
End of status report

CD3: RaritätenТрэклист

Herbert von Karajan: Der Beginn einer Legende, CD 3 - Raritäten
01. Johann Strauss Jr. Императорский вальс (VI/1941, Berliner Philharmoniker) [08:57]
02. Johann Strauss Jr. Марш Радецкого (Staatskapelle Berlin) [02:50]
03. Johann Strauss Jr. Цыганский барон (X/1942, Berliner Philharmoniker) [08:10]
04. Antonin Dvorak Симфония №9 (6) e-moll "Из Нового света" (VI/1940, Berliner Philiharmoniker) [40:23]

Отчет ЕАС

Exact Audio Copy V0.99 prebeta 5 from 4. May 2009
EAC extraction logfile from 24. May 2010, 2:18
Karajan, Herbert von / Der Beginn einer Legende CD 3 - Raritдten
Used drive : Optiarc DVD RW AD-5200A Adapter: 0 ID: 0
Read mode : Secure
Utilize accurate stream : Yes
Defeat audio cache : Yes
Make use of C2 pointers : No
Read offset correction : 48
Overread into Lead-In and Lead-Out : No
Fill up missing offset samples with silence : Yes
Delete leading and trailing silent blocks : No
Null samples used in CRC calculations : Yes
Used interface : Installed external ASPI interface
Used output format : User Defined Encoder
Selected bitrate : 128 kBit/s
Quality : High
Add ID3 tag : No
Command line compressor : C:\Program Files\FLAC\FLAC frontend.exe
Additional command line options : -8 -V -T "ARTIST=%a" -T "TITLE=%t" -T "ALBUM=%g" -T "DATE=%y" -T "TRACKNUMBER=%n" -T "GENRE=%m" -T "COMMENT=EAC FLAC -8" %s
TOC of the extracted CD
Track | Start | Length | Start sector | End sector
---------------------------------------------------------
1 | 0:00.00 | 8:56.41 | 0 | 40240
2 | 8:56.41 | 2:50.46 | 40241 | 53036
3 | 11:47.12 | 8:10.46 | 53037 | 89832
4 | 19:57.58 | 40:23.14 | 89833 | 271571
Range status and errors
Selected range
Filename H:\torrents\Karajan - Der Beginn einer Legende\Karajan, Herbert von - Der Beginn einer Legende CD 3 - Raritäten.wav
Peak level 100.0 %
Range quality 100.0 %
Test CRC A8B945D1
Copy CRC A8B945D1
Copy OK
No errors occurred
End of status report
[teatrix.ru].t9758.torrent 
Торрент: Зарегистрирован [ 2015-10-23 17:26 ] · F83FD720D6E1B67152625F244F9AC8D7BDFAD8A7

Скачать .torrent

Скачать

16 KB

Статус: проверено
Скачан: 0 раз
Размер: 734 MB
terms.php



Быстрый ответ

Имя:

      
Для отправки сообщений необходимо включить JavaScript
Показать сообщения:    

Текущее время: 04-Дек 13:12

Часовой пояс: UTC + 3


Вы можете начинать темы
Вы можете отвечать на сообщения
Вы не можете редактировать свои сообщения
Вы не можете удалять свои сообщения
Вы не можете голосовать в опросах
Вы не можете прикреплять файлы к сообщениям
Вы можете скачивать файлы