(Classical, choral) Alfred Deller - The Complete Vanguard Recordings - Volume 3 - Christmas Carols and Motets - Alfred Deller, The Deller Consort - 4CD - 2008, FLAC (image+.cue), lossless


Статистика раздачи [Обновить пиров]
Размер:  861 MB   |    Зарегистрирован:  1 год 1 месяц   |    Скачан:  1 раз
Сидов:  1  [  0 KB/s  ]   Личеров:  1  [  0 KB/s  ]   Подробная статистика пиров
 
   
 
 
 

[Цитировать]

Alfred Deller - The Complete Vanguard Recordings - Volume 3 - Christmas Carols and Motets - Alfred Deller, The Deller Consort - 4CD
Жанр: Classical, choral
Год выпуска диска: 2008
Производитель диска: Vanguard Classics
Аудио кодек: FLAC
Тип рипа: image+.cue
Битрейт аудио: lossless
Продолжительность: 3:24:53
Итак, третий том: рождественские гимны и мотеты.
Первые 2 тома:
Volume 1 - Folk Songs and Ballads (7CD)
Volume 2: Music of Purcell (6CD)

Продолжение:
Volume 3: Christmas Carols and Motets (4CD)
Volume 4: Music of Handel, Bach and the English Renaissance (6CD)

Трэклист:

CD 1: The Holly and the Ivy

1 Anon., 17th c.: Patapan 1:01
2 J.H. Hopkins: Hymn: We Three Kings of Orient Are 3:57
3 Anon., Trad., England: I Saw Three Ships 2:05
4 Anon., Trad., England: The Coventry Carol 2:23
5 Edmund H. Sears & Richard S. Willis: It Came Upon the Midnight Clear 2:25
6 Anon., 16th (spring carol): Good King Wenceslas (text: J.M. Neale, 19th c.) 2:46
7 C.J. Alexander & H.J. Gauntlett: Once in Royal David's City 2:38
8 Anon., Czech Carol: Rocking (Hajej, nynjej) 1:32
9 Anon., Trad., England: The First Nowell 4:01
10 Anon., England: Christmas carol: God Rest You, Merry Gentlemen 3:09
11 George Wither (lyric) & Ralph Vaughan Williams (arr.): Wither's Rocking Hymn 2:25
12 Joseph Mohr & Hans Gruber: Silent Night 2:55
13 Anon., Trad., England: Wassail Song 1:33
14 Anon.: Dormi Jesu! 1:26
15 Anon., ca 15th c.: Boar's Head Carol 1:47
16 Anon., London Wait: Past Three o'Clock 1:56
17 Anon., medieval & Gustav Holst (arr.): Lullay My Liking 2:43
18 Anon., 15th c. & Peter Warlock (arr.): Adam Lay Ybouden 1:14
19 Anon., Germany & Robert Herrick (word / 1647: Christmas-play carol: Herrick's Carol 1:39
20 Anon., 14th c.: Angelus ad Virginem 1:47
21 Anon., medieval & Cecil Sharp (arr.): Carol: The Holly and the Ivy 2:44
22 Anon., Germany (? / Scheidt & J.S. Bach (harmonization): O Little One Sweet 2:41
23 Anon., medieval, Chester Ms (ca 1425): Processional song of the Nuns of Chester 2:30
24 Anon., 16th c.: Winter-Rose 2:25
25 Anon., 14th c. arr. Bach: Carol: In Dulci Jubilo 3:30
Alfred Deller, counter-tenor / Desmond Dupre, lute / Stanley Taylor, recorder
The Deller Consort / Alfred Deller, director
April Cantelo, soprano / Alfred Deller, counter-tenor / Gerald English, tenor / Maurice Bevan, baritone

CD 2: Hark, Ye Shepherds!

1 Anon., traditional, old Welsh: Deck the Halls 1:15
2 Felix Mendelssohn: Hark! the Herald Angels Sing (text: Charles Wesley) 2:00
3 Anon. William Ballet's Lute Book: Lute-book Lullaby 2:20
4 Anon., traditional: Ye Shepherds 1:54
5 George Frideric Handel (attr.): Joy to the World (text: Isaac Watts) 1:38
6 Anon., traditional: Down in Yon Forest 2:31
7 Anon., traditional, old Besancon: Carol tune: People Look East 2:01
8 Anon., traditional: Blessed Be That Maid Mary 1:31
9 Anon., ca 1520-1530: Sir Christmas 2:59
10 Anon., 15th c, arr. Michael Praetorius (arr.).: Lo, How a Rose E'er Blooming 2:26
11 J.F. Wade: O Come All Ye Faithful 2:54
12 Anon.: The Twelve Days of Christmas 2:45
13 Anon., traditional: Here We Come a-Wassailing 2:42
14 Johann Georg Ebeling: All My Heart This Night Rejoices 2:44
15 Anon., traditional, Germany, 15th c.: Joseph Dearest (Song of the Crib) 5:56
16 Anon., traditional: I Saw Three Ships Come Sailing In 2:20
17 Geoffrey Shaw: How Far Is It to Bethlehem? (text: Frances Chesterton) 3:10
18 Anon., traditional, Czech: The Birds 1:12
19 Anon., traditional: Elizabethan popular tune: The Old Year Now (Greensleeves) (text: anon. 17th c.) 2:03
20 Anon., traditional, England (west country): A Merry Christmas 1:37
The Deller Consort / Alfred Deller, director
Eileen Poulter, soprano / Mary Thomas, soprano / Alfred Deller, counter-tenor / Wilfred Brown, tenor / Gerald English, tenor / Maurice Bevan, baritone
Desmond Dupre, guitar
Alfred Deller, counter-tenor

CD 3: Carols and Motets for the Nativity

1 Guilelmus Monachus: Gymel (instr.) 1:13
2 Anon.: Nowell, nowell: Tidings true 4:04
3 Roy Henry (Henry VIII?): Sanctus (instr.) 1:41
4 Anon.: Blessed be Thou, Heavenly Queen 2:04
5 Anon.: Qui natus est 3:56
6 Anon.: Burden and Carol (instr.) 4:55
7 Anon.: Nova! nova! 2:09
8 Anon.: Angelus ad virginem (instr.) 1:04
9 Anon.: Hail, Mary full of grace 3:40
10 Richard Smert: In die nativitas 3:39
11 Anon.: There is no rose of such virtue 3:08
12 John Dunstable: Kyrie (instr.) 2:41
13 Richard Pygott: Quid petis o fili 5:55
14 Anon.: Carol: I saw (instr.) 0:54
15 Anon.: Nowell, nowell: Out of your sleep 2:36
16 Guilelmus Monachus: Fauxbourdon (instr.) 1:28
17 John Dunstable: Quam pulchra es 2:37
The Deller Consort / Alfred Deller, director
Honor Sheppard, soprano / Mark Deller, counter-tenor / Alfred Deller, counter-tenor / Robert Tear, tenor / Maurice Bevan , baritone
Musica Antiqua Wien / Rene Clemencic, director

CD 4: Christmas Carols and Motets of Medieval Europe

1 Anon., end of 15th, Czech hymn book: Motet (a 4): De Nativitate Domine 2:08
2 Giacomo Fogliano: Lauda: Ave Maria 2:51
3 Jan of Jenstejn: Monody: Decet huius cunctis horis 5:16
4 Pedro de Escobar, Cathedral Library, Tarazona, Spain Ms: In Nativitate Domine (a 4) 1:35
5 Anon., end of 15th, Czech hymn book: O Regina, Lux Divina (a 3) 3:09
6 Giovanni Perluigi da Palestrina: Motet (a 4): Hodie Christus natus est 1:36
7 Byttering, Old Hall & York Mss: Motet (a 3): Nesciens mater 2:02
8 Johannes Ciconia, Codex Trent: Et in terra pax (instr.) 2:52
9 St. Godric, British museum, Ms Reg. v. f.vii,f: Crist and Sainte Marie 1:52
10 John Dunstable: Sancta Maria 2:32
11 Anon., Codex Montpellier: Isorythmic motet: O Maria virgo (instr.) 2:34
12 Anon., England, 14th c., British Museum add. 29987: Gloria 4:54
13 Henricus Isaac: Introit (a 4): Puer natus 2:59
14 Thomas Stoltzer: Foeno iacere (instr.) 1:47
15 Ludwig Senfl: Maria Zart 2:56
16 Leonel Power, Old Hall Ms: Motet (a 3): Beata Progenies 1:19
17 Anon., England, early 14th c.: Alleluya psallat 2:26
The Deller Consort / Alfred Deller, director
Honor Sheppard, soprano / Mark Deller , counter-tenor / Philip Todd, tenor / Maurice Bevan , baritone
Musica Antiqua Wien / Rene Clemencic, director
Helmut Ascherl, renaissance trombone, hurdy-gurdy / Rene Clemencic, recorder, organ / Wolfgang Hartl, alto pommer, renaissance bassoon or dolzian, bass krummhorn / Erwin Kellner, renaissance trombone / Bernhard Klebel, soprano pommer, krummhorn / Hubert Koller, tenor gamba / Paul Maurer, tenor pommer, krummhorn, drum / Hans Radbauer, glockenspiel, drum / Gerhard Stradner, zink, fiddle, recorder / Hans Tchedemnig, renaissance alto trombone / Peter Widensky , finger-hole horn, recorder, organ / Fritz Wurzler, renaissance trombone
Доп. информация:

CD1 EAC log

Exact Audio Copy V0.99 prebeta 5 from 4. May 2009
EAC extraction logfile from 22. May 2010, 11:21
The Deller Consort / Christmas Carols and Motets. CD1: The Holly and the Ivy
Used drive : HL-DT-STDVDRAM GSA-4083N Adapter: 1 ID: 0
Read mode : Secure
Utilize accurate stream : Yes
Defeat audio cache : Yes
Make use of C2 pointers : No
Read offset correction : 667
Overread into Lead-In and Lead-Out : No
Fill up missing offset samples with silence : Yes
Delete leading and trailing silent blocks : No
Null samples used in CRC calculations : No
Used interface : Native Win32 interface for Win NT & 2000
Used output format : User Defined Encoder
Selected bitrate : 768 kBit/s
Quality : High
Add ID3 tag : No
Command line compressor : C:\Program Files\Exact Audio Copy\FLAC\FLAC.EXE
Additional command line options : -6 -V -T "ARTIST=%a" -T "TITLE=%t" -T "ALBUM=%g" -T "DATE=%y" -T "TRACKNUMBER=%n" -T "GENRE=%m" -T "COMMENT=%e" %s -o %d
TOC of the extracted CD
Track | Start | Length | Start sector | End sector
---------------------------------------------------------
1 | 0:00.00 | 1:00.30 | 0 | 4529
2 | 1:00.30 | 3:57.52 | 4530 | 22356
3 | 4:58.07 | 2:05.43 | 22357 | 31774
4 | 7:03.50 | 2:23.32 | 31775 | 42531
5 | 9:27.07 | 2:25.00 | 42532 | 53406
6 | 11:52.07 | 2:46.63 | 53407 | 65919
7 | 14:38.70 | 2:38.65 | 65920 | 77834
8 | 17:17.60 | 1:32.25 | 77835 | 84759
9 | 18:50.10 | 4:01.57 | 84760 | 102891
10 | 22:51.67 | 3:08.48 | 102892 | 117039
11 | 26:00.40 | 2:26.22 | 117040 | 128011
12 | 28:26.62 | 2:55.10 | 128012 | 141146
13 | 31:21.72 | 1:33.08 | 141147 | 148129
14 | 32:55.05 | 1:26.22 | 148130 | 154601
15 | 34:21.27 | 1:47.45 | 154602 | 162671
16 | 36:08.72 | 1:55.55 | 162672 | 171351
17 | 38:04.52 | 2:44.30 | 171352 | 183681
18 | 40:49.07 | 1:14.13 | 183682 | 189244
19 | 42:03.20 | 1:40.50 | 189245 | 196794
20 | 43:43.70 | 1:47.20 | 196795 | 204839
21 | 45:31.15 | 2:45.55 | 204840 | 217269
22 | 48:16.70 | 2:41.37 | 217270 | 229381
23 | 50:58.32 | 2:29.55 | 229382 | 240611
24 | 53:28.12 | 2:26.10 | 240612 | 251571
25 | 55:54.22 | 3:30.28 | 251572 | 267349
Range status and errors
Selected range
Filename F:\Music\Deller - Vol.3\Alfred Deller - Christmas Carols and Motets - CD1.wav
Peak level 96.0 %
Range quality 100.0 %
Copy CRC AE8FFE7E
Copy OK
No errors occurred
End of status report

CD2 EAC log

Exact Audio Copy V0.99 prebeta 5 from 4. May 2009
EAC extraction logfile from 22. May 2010, 12:44
The Deller Consort / Christmas Carols and Motets. CD 2: Hark, Ye Shepherds!
Used drive : HL-DT-STDVDRAM GSA-4083N Adapter: 1 ID: 0
Read mode : Secure
Utilize accurate stream : Yes
Defeat audio cache : Yes
Make use of C2 pointers : No
Read offset correction : 667
Overread into Lead-In and Lead-Out : No
Fill up missing offset samples with silence : Yes
Delete leading and trailing silent blocks : No
Null samples used in CRC calculations : No
Used interface : Native Win32 interface for Win NT & 2000
Used output format : User Defined Encoder
Selected bitrate : 768 kBit/s
Quality : High
Add ID3 tag : No
Command line compressor : C:\Program Files\Exact Audio Copy\FLAC\FLAC.EXE
Additional command line options : -6 -V -T "ARTIST=%a" -T "TITLE=%t" -T "ALBUM=%g" -T "DATE=%y" -T "TRACKNUMBER=%n" -T "GENRE=%m" -T "COMMENT=%e" %s -o %d
TOC of the extracted CD
Track | Start | Length | Start sector | End sector
---------------------------------------------------------
1 | 0:00.00 | 1:11.40 | 0 | 5364
2 | 1:11.40 | 2:04.00 | 5365 | 14664
3 | 3:15.40 | 2:20.60 | 14665 | 25224
4 | 5:36.25 | 1:54.40 | 25225 | 33814
5 | 7:30.65 | 1:38.22 | 33815 | 41186
6 | 9:09.12 | 2:31.20 | 41187 | 52531
7 | 11:40.32 | 2:02.10 | 52532 | 61691
8 | 13:42.42 | 1:32.00 | 61692 | 68591
9 | 15:14.42 | 2:59.60 | 68592 | 82076
10 | 18:14.27 | 2:26.08 | 82077 | 93034
11 | 20:40.35 | 2:55.00 | 93035 | 106159
12 | 23:35.35 | 2:45.72 | 106160 | 118606
13 | 26:21.32 | 2:42.03 | 118607 | 130759
14 | 29:03.35 | 2:44.32 | 130760 | 143091
15 | 31:47.67 | 5:56.30 | 143092 | 169821
16 | 37:44.22 | 2:20.73 | 169822 | 180394
17 | 40:05.20 | 3:10.20 | 180395 | 194664
18 | 43:15.40 | 1:12.65 | 194665 | 200129
19 | 44:28.30 | 2:04.00 | 200130 | 209429
20 | 46:32.30 | 1:37.12 | 209430 | 216716
Range status and errors
Selected range
Filename F:\Music\Deller - Vol.3\Alfred Deller - Christmas Carols and Motets - CD2.wav
Peak level 92.3 %
Range quality 100.0 %
Copy CRC 9A0688CF
Copy OK
No errors occurred
End of status report

CD3 EAC log

Exact Audio Copy V0.99 prebeta 5 from 4. May 2009
EAC extraction logfile from 22. May 2010, 13:25
The Deller Consort, Alfred Deller; Musica Antiqua, Rene Clemencic / Christmas Carols and Motets. CD 3: Carols and Motets for the Nativity
Used drive : HL-DT-STDVDRAM GSA-4083N Adapter: 1 ID: 0
Read mode : Secure
Utilize accurate stream : Yes
Defeat audio cache : Yes
Make use of C2 pointers : No
Read offset correction : 667
Overread into Lead-In and Lead-Out : No
Fill up missing offset samples with silence : Yes
Delete leading and trailing silent blocks : No
Null samples used in CRC calculations : No
Used interface : Native Win32 interface for Win NT & 2000
Used output format : User Defined Encoder
Selected bitrate : 768 kBit/s
Quality : High
Add ID3 tag : No
Command line compressor : C:\Program Files\Exact Audio Copy\FLAC\FLAC.EXE
Additional command line options : -6 -V -T "ARTIST=%a" -T "TITLE=%t" -T "ALBUM=%g" -T "DATE=%y" -T "TRACKNUMBER=%n" -T "GENRE=%m" -T "COMMENT=%e" %s -o %d
TOC of the extracted CD
Track | Start | Length | Start sector | End sector
---------------------------------------------------------
1 | 0:00.00 | 1:12.17 | 0 | 5416
2 | 1:12.17 | 4:04.35 | 5417 | 23751
3 | 5:16.52 | 1:42.38 | 23752 | 31439
4 | 6:59.15 | 2:03.45 | 31440 | 40709
5 | 9:02.60 | 3:56.60 | 40710 | 58469
6 | 12:59.45 | 4:57.30 | 58470 | 80774
7 | 17:57.00 | 2:09.20 | 80775 | 90469
8 | 20:06.20 | 1:05.42 | 90470 | 95386
9 | 21:11.62 | 3:42.08 | 95387 | 112044
10 | 24:53.70 | 3:39.55 | 112045 | 128524
11 | 28:33.50 | 3:10.12 | 128525 | 142786
12 | 31:43.62 | 2:41.30 | 142787 | 154891
13 | 34:25.17 | 10:15.20 | 154892 | 201036
14 | 44:40.37 | 0:55.15 | 201037 | 205176
15 | 45:35.52 | 2:37.28 | 205177 | 216979
16 | 48:13.05 | 1:28.70 | 216980 | 223649
17 | 49:42.00 | 2:38.17 | 223650 | 235516
Range status and errors
Selected range
Filename F:\Music\Deller - Vol.3\Alfred Deller - Christmas Carols and Motets - CD3.wav
Peak level 70.9 %
Range quality 100.0 %
Copy CRC BD57CC95
Copy OK
No errors occurred
End of status report

CD4 EAC log

Exact Audio Copy V0.99 prebeta 5 from 4. May 2009
EAC extraction logfile from 22. May 2010, 18:04
The Deller Consort, Alfred Deller; Musica Antiqua, Rene Clemencic / Christmas Carols and Motets. CD 4: Christmas Carols and Motets of Medieval Europe
Used drive : HL-DT-STDVDRAM GSA-4083N Adapter: 1 ID: 0
Read mode : Secure
Utilize accurate stream : Yes
Defeat audio cache : Yes
Make use of C2 pointers : No
Read offset correction : 667
Overread into Lead-In and Lead-Out : No
Fill up missing offset samples with silence : Yes
Delete leading and trailing silent blocks : No
Null samples used in CRC calculations : No
Used interface : Native Win32 interface for Win NT & 2000
Used output format : User Defined Encoder
Selected bitrate : 768 kBit/s
Quality : High
Add ID3 tag : No
Command line compressor : C:\Program Files\Exact Audio Copy\FLAC\FLAC.EXE
Additional command line options : -6 -V -T "ARTIST=%a" -T "TITLE=%t" -T "ALBUM=%g" -T "DATE=%y" -T "TRACKNUMBER=%n" -T "GENRE=%m" -T "COMMENT=%e" %s -o %d
TOC of the extracted CD
Track | Start | Length | Start sector | End sector
---------------------------------------------------------
1 | 0:00.00 | 2:07.70 | 0 | 9594
2 | 2:07.70 | 2:51.67 | 9595 | 22486
3 | 4:59.62 | 5:16.25 | 22487 | 46211
4 | 10:16.12 | 1:35.35 | 46212 | 53371
5 | 11:51.47 | 3:09.43 | 53372 | 67589
6 | 15:01.15 | 1:33.02 | 67590 | 74566
7 | 16:34.17 | 2:05.10 | 74567 | 83951
8 | 18:39.27 | 2:53.10 | 83952 | 96936
9 | 21:32.37 | 1:53.08 | 96937 | 105419
10 | 23:25.45 | 2:31.70 | 105420 | 116814
11 | 25:57.40 | 2:34.62 | 116815 | 128426
12 | 28:32.27 | 4:56.25 | 128427 | 150651
13 | 33:28.52 | 2:58.65 | 150652 | 164066
14 | 36:27.42 | 1:47.48 | 164067 | 172139
15 | 38:15.15 | 2:55.40 | 172140 | 185304
16 | 41:10.55 | 1:20.07 | 185305 | 191311
17 | 42:30.62 | 2:27.08 | 191312 | 202344
Range status and errors
Selected range
Filename F:\Music\Deller - Vol.3\Alfred Deller - Christmas Carols and Motets - CD4.wav
Peak level 59.2 %
Range quality 100.0 %
Copy CRC 0F82A1F0
Copy OK
No errors occurred
End of status report
[teatrix.ru].t9759.torrent 
Торрент: Зарегистрирован [ 2015-10-23 17:26 ] · 958F655CCF2104BA1A60AB56FEE49680AEC63222

Скачать .torrent

Скачать

37 KB

Статус: проверено
Скачан: 1 раз
Размер: 861 MB
terms.php



Быстрый ответ

Имя:

      
Для отправки сообщений необходимо включить JavaScript
Показать сообщения:    

Текущее время: 05-Дек 01:25

Часовой пояс: UTC + 3


Вы можете начинать темы
Вы можете отвечать на сообщения
Вы не можете редактировать свои сообщения
Вы не можете удалять свои сообщения
Вы не можете голосовать в опросах
Вы не можете прикреплять файлы к сообщениям
Вы можете скачивать файлы