(Classical, choral) Alfred Deller - The Complete Vanguard Recordings - Volume 2 - Music of Henry Purcell - Alfred Deller, The Deller Consort, Gustav Leonhardt, Nikolaus Harnoncourt, Michael Tippett - 6CD - 2008, FLAC (image+.cue), lossless


Статистика раздачи [Обновить пиров]
Размер:  1.83 GB   |    Зарегистрирован:  1 год 1 месяц   |    Скачан:  1 раз

Полного источника не было: 1 месяц 5 дней

Личеров:  1  [  0 KB/s  ]   Подробная статистика пиров
 
   
 
 
 

[Цитировать]

Alfred Deller - The Complete Vanguard Recordings - Volume 2 - Music of Henry Purcell - Alfred Deller, The Deller Consort, Gustav Leonhardt, Nikolaus Harnoncourt, Michael Tippett, Concentus Musicus Wien, Oriana Concert Orchestra - 6CD
Жанр: Classical, choral
Год выпуска диска: 2008
Производитель диска: Vanguard Classics
Аудио кодек: FLAC
Тип рипа: image+.cue
Битрейт аудио: lossless
Продолжительность: 6:20:14
Первые 2 тома:
Volume 1 - Folk Songs and Ballads (7CD)
Volume 2: Music of Purcell (6CD)

Продолжение:
Volume 3: Christmas Carols and Motets (4CD)
Volume 4: Music of Handel, Bach and the English Renaissance (6CD)

Трэклист:

CD1: Homage to Henry Purcell

1 Fantasia upon a Ground in D minor for three violins and Continuo, Z731 5:45
2 Oedipus (1692), Z. 583 - Song: Music for a while (text: J. Dryden & N. Lee) 4:05
3 I love and I must, Z. 382 (text: Purcell) 2:58
4 The Comical History of Don Quixote, Z. 578 (1694) - Part I: Let the Dreadful Engines (text: d'Urfey) 7:45
5 The Fairy Queen - Epithalamium "Thrice happy lovers" (text adapted from Shakespeare: A Midsummer Night's Dream) 3:07
6 Song: If music be the food of love (1st version, 1692), Z. 379A (text: H. Heveningham) 2:37
7 The Blessed Virgin's Expostulation "Tell Me, Some Pitying Angel" (1693), Z. 186 (text: N. Tate) 7:51
8 Not All My Torments, Z. 400 (text: Purcell) 2:22
9 Upon a Quiet Conscience "Close Thine Eyes" (1688), Z. 184 (text: F. Quarles) 4:17
10 King Arthur - Venus's Song "Fairest Isle, all isles excelling" (text: J. Dryden) 2:42
11 Pausanias (1695), Z. 585 - Sweeter than roses (text: Norton) 3:35
12 The Fatal Hour Comes Apace, Z. 421 (text: Purcell) 4:22
13 Ode on Queen Mary's Birthday (1693), Z. 321 - Crown the Altar (text: N. Tate) 2:50
14 The Indian Queen (1695), Z. 630 - I attempt from Love's Sickness to Fly (text: J. Dryden & R. Howard) 2:17
15 Bonduca (1695), Z. 574 - Bonduca's Song "Oh! lead me to some peaceful gloom" (text: Purcell) 3:10
16 The Prophetess or The History of Dioclesian (1690), Z. 627 - What Shall I Do to Show All Much I Love Her? (text: Purcell) 3:53
17 The Comical History of Don Quixote, Z. 578 (1694) - Part III: From rosy bow'rs (text: D'Urfey) 7:17
Alfred Deller, countertenor
Maurice Bevan, baritone (3, 8) / April Cantelo, soprano (2, 6, 8) / Walter Bergman, harpsichord (1, 4, 5, 7, 9-16) / George Malcolm, harpsichord (2, 3, 6, 8)

CD 2: Music of Purcell

1 The Faerie Queen - Secrecie's Song 2:02
2 The Faerie Queen - Mystery's Song 0:56
3 Cantata "If ever I more riches did desire" - Here let my life 2:52
4 Welcome to all the pleasures "Ode on St. Cecilia's Day", Z339 - Here the Deities approve 4:40
5 Dioclesian - Since from my dear Astrea's sight 3:58
6 The Faerie Queen - The Plaint 7:27
Alfred Deller, countertenor / Gustav Leonhardt, harpsichord
7 Ten Sonatas in Four Parts (c. 1680): Sonata No. 9 in F (Golden Sonata), Z. 810 - Allegro 1:20
8 Adagio 1:46
9 Canzona Allegro 1:44
10 Grave 1:21
11 Allegro 1:24
Peter Gibbs, violin / Desmond Dupre, viola da gamba
12 Musick's Hand-made, Part II (1687): Music Lessons 1-6 - Song Tune in C, Z. T694 1:04
13 Con Spirito, Z. 647 0:53
14 March in C, Z. 648 0:57
15 New Minuet in D Minor, Z. T689 1:22
16 Minuet in A Minor, Z. 649 1:03
17 Minuet in A Minor, Z. 650 0:53
18 Musick's Hand-made, Part II (1687): Music Lessons 7-12 - A New Scotch Tune in G, Z. 655 1:26
19 A New Ground in E Minor, Z. T682 2:28
20 A New Irish Tune, Z. 646 0:33
21 Rigadoon in C, Z. 653 0:46
22 Sefauchi's Farewell, in D Minor, Z. 656 2:05
23 Minuet in D Minor, Z. T688 1:07
George Malcolm, harpsichord
24 Sonata in G Minor for Violin and Continuo, Z. 780 - Adagio-Moderato 2:55
25 Adagio con espressione 1:45
26 Vivace 1:14
Neville Marriner, violin / George Malcolm, harpsichord
27 Suite in D for Harpsichord, Z. 667 - Prelude 0:23
28 Almand 2:40
29 Hornpipe 1:07
George Malcolm, harpsichord

CD 3: Dido and Aeneas

1 Overture 2:46
2 Shake the cloud from off your brow (Belinda; Chorus) 1:07
3 Ah! Belinda, I am press'd with torment (Dido) 4:06
4 Grief increases by concealing ... (Belinda, Dido) 0:35
5 When monarchs unite, how happy their state (Chorus) 0:26
6 Whence could so much virtue spring (Dido, Belinda) 2:01
7 Fear no danger to ensue (Belinda, Second Woman; Chorus) 1:45
8 See, your royal guest appears (Belinda, Aeneas, Dido) 0:57
9 Cupid only throws the dart (Cupid) 0:44
10 If not for mine, for empire's sake (Aeneas) 0:30
11 Pursue thy conquest, Love (Belinda) 0:49
12 To the hills and the vales (Chorus) 1:26
13 The Triumphing Dance 1:15
14 Prelude for the Witches 1:16
15 Wayward sisters, you that fright (Sorceress, First Witch) 1:17
16 Harm's our delight and mischief all our skill (Chorus) 0:20
17 The Queen of Carthage, whom we hate (Sorceress) 0:54
18 Ha, ha, ha (Chorus) 0:14
19 Ruin'd ere the set of sun (Witches, Sorceress) 1:19
20 Ha, ha, ha (Chorus) 0:11
21 But ere we this perform (Witches) 1:25
22 In our deep vaulted cell (Chorus) 0:59
23 Echo Dance of the Furies 1:02
24 Ritornello 0:35
25 Thanks to these lonesome vales (Belinda, Chorus) 1:14
26 Oft she visits this lov'd mountain (Second Woman) 2:09
27 Behold, upon my bending spear (Aeneas, Dido) 0:34
28 Haste, haste to town (Belinda, Chorus) 0:55
29 Stay, Prince, and hear great Jove's command (Spirit, Aeneas) 3:08
30 Prelude for the sailors 0:39
31 Come away, fellow sailors (First Sailor, Chorus) 1:19
32 The Sailors' Dance 0:51
33 See the flags and streamers curling (Sorceress; Witches) 0:58
34 Our next motion (Sorceress) 0:43
35 Destruction's our delight (Chorus) 0:37
36 The Witches' Dance (Jack of the Lanthorn Dance) 1:20
37 Your counsel all is urg'd in vain (Dido, Belinda, Aeneas) 4:20
38 Great minds against themselves conspire (Chorus) 1:15
39 Thy hand, Belinda (Dido) 0:52
40 When I am laid in earth (Dido) 3:06
41 With drooping wings ye Cupids come (Chorus) 2:32
The Deller Consort
Dido - Mary Thomas, soprano
Belinda, First Witch, First Attendant Woman - Honor Sheppard, soprano
2nd Witch, 2nd Attendant Woman - Ellen Dales, soprano
Sorceress - Helen Watts, contralto
Spirit, Sailor - Robert Tear, tenor
Aeneas - Maurice Bevan, baritone
Harold Lester, harpsichord
Oriana Concert Choir and Orchestra / Alfred Deller, conductor

CD 4: Music for Saint Cecilia's Day

Ode for Saint Cecilia's Day " Hail! Bright Cecilia"
1 Symphony 10:41
2 Hail! Bright Cecilia 4:51
3 Hark, each tree 5:12
4 'Tis nature voice 4:19
5 Soul of the world 3:19
6 Thou tun'st this world 4:10
7 With that sublime celestial lay 3:00
8 Wond'rous machine 3:09
9 The airy violin 1:46
10 In vain the am'rous flute 5:13
11 The Fife and all the Harmony of war 3:04
12 Let these among themselves contest 3:20
13 Hail! Bright Cecilia 4:57
April Cantelo, soprano /Alfred Deller, counter-tenor / Peter Salmon, counter-tenor / Wilfred Brown, tenor / Maurice Bevan, baritone / John Frost, bass / George Eskdale, solo trumpet
Leonard Friedman, violin / Eli Goren, violin / Richard Taylor, treble recorder / Stanley Taylor, treble recorder / Peter Graeme, oboe / Edward Selwyn, oboe / Philip Jones, trumpet / Denis Clift, trumpet / Alan Taylor, tympani / Anna Shuttleworth, cello and basso continuo / Francis Baines, cello and basso continuo / Denis Vaughan, harpsichord
Ambrosian Singers / Kalmar Chamber Orchestra of London
Sir Michael Tippett, conductor

Welcome to all the pleasures "Ode on St. Cecilia's Day", Z339
14 Ouverture (Sinfonia) 3:15
15 Welcome to All the Pleasures 2:31
16 Here the Deities approve (counter-tenor) 4:06
17 While joys celestial (trio) 1:36
18 Then lift up your voices (bass, chorus) 2:04
19 Adagio (harpsichord) 1:53
20 Beauty thou scene of love (tenor) 3:03
21 In a consort of voices (tenor, chorus) 1:22
The Deller Consort
Alfred Deller, counter-tenor / April Cantelo, soprano / Eileen McLoughlin, soprano / Gerald English, tenor / Owen Grundy, baritone / Maurice Bevan, baritone
Walter Bergmann, harpsichord
Kalmar Chamber Orchestra / Alfred Deller, conductor

CD 5: The Masque in Dioclesian

1 I. Solo (soprano) & Chorus: Call the Nymphs and the Fauns from woods 1:44
2 II. Air (soprano): Let the Graces and Pleasures repair 0:55
3 III. Duet (basses): Come, come away, no delay 1:07
4 IV. Chorus: Behold, O mighty'st of gods 4:18
5 V. Paspe (passepied) - Instrumental 0:51
6 VI. Duet (sopranos): Oh the sweet delights of love 1:40
7 VII. Air (soprano) & Chorus: Let monarchs fight for power and fame 1:53
8 VIII. Duet (tenor and baritone): Make room for the great God 0:49
9 IX. Solo (Bacchus) Trio & Chorus: I'm here with my jolly crew 2:26
10 X. Dance of Bacchanals - Instrumental 1:29
11 XI. Air (soprano): Still I'm wishing, stil desiring 1:51
12 (Ritornello - XII): Can Drusilla give no more ? 3:11
13 XIII. Canaries - Instrumental 0:31
14 XIV. Dialogue (soprano and baritone): Tell me why, my charming fair 6:45
15 XV. Dance - Instrumental 0:53
16 XVI. Air (tenor) & Chorus: All our days and our nights 2:05
17 XVII. Dance - Instrumental 0:49
18 XVIII. Trio & Chorus: Triumph victorious love 5:19
Instrumental Music for the Play
19 First Music 2:00
20 First Act Tune or Hornpipe 0:41
21 0:42
22 Dance of the Furies 2:38
23 Second Act Tune 1:24
24 1:24
25 The Chair Dance 0:43
26 Third Act Tune 0:49
27 Butterfly Dance 1:39
28 Country Dance 1:05
The Deller Consort
Alfred Deller, counter-tenor / Honor Sheppard, soprano / Sally Le Sage, soprano / Max Worthley, tenor / Philip Todd, tenor / Maurice Bevan, baritone
Chor und Orchester des Concentus Musicus Wien / Nikolaus Harnoncourt and Alfred Deller, conductors

CD 6: Come, Ye Sons of Art

Come, ye sons of art, Z323 (text: Nahum Tate)
1 Ouverture (Sinfonia) 3:53
2 Come, come, ye Sons of Art (counter-tenor, chorus) 2:13
3 Sound the trumpet till around (counter-tenors) 2:40
4 Come, come, ye Sons of Art (chorus) 1:29
5 Strike the viol (counter-tenor) 5:12
6 The day that such a blessing gave (bass, chorus) 3:12
7 Bid the Virtues (soprano, oboe) 3:04
8 These are the sacred charms that shield (bass) 1:43
9 See Nature, rejoicing (soprano, bass, chorus) 2:53
The Deller Consort
Alfred Deller, counter-tenor / Mark Deller, counter-tenor / Mary Thomas, soprano / Maurice Bevan, baritone
Oriana Concert Choir and Orchestra / Alfred Deller, conductor

10 Henry Purcell: Rejoice in the Lord Alway "The Bell Anthem", Z49 9:36
The Deller Consort
Alfred Deller, counter-tenor / Mary Thomas, soprano / Honor Shephard, soprano / Robert Tear, tenor / Max Worthley, tenor / Maurice Bevan, baritone
Oriana Concert Orchestra / Alfred Deller, conductor

My beloved spake, Z23
11 Ouverture (Sinfonia) 1:03
12 My beloved spake 0:55
13 For, lo, the winter is past 1:47
14 The time of the singing 1:47
15 And the voice of the turtle 1:31
16 The fig tree 1:02
17 Arise 0:36
18 My beloved is mine 3:10
The Deller Consort
Alfred Deller, counter-tenor / April Cantelo, soprano / Gerald English, tenor / Maurice Bevan, baritone
Walter Bergmann, harpsichord
Kalmar Orchestra of London / Alfred Deller, conductor

John Blow: Ode on the Death of Mr. Henry Purcell
19 Mark how the lark and linnet sing 3:58
20 But in the close of the night 4:54
21 So ceas'd the rival crew 2:50
22 We beg not Hell 2:05
23 The pow'r of harmony too well they knew 2:46
24 The heav'nly choir 3:37
25 Ye brethren of the lyre 2:50
Alfred Deller, counter-tenor / John Whitworth, counter-tenor
Christopher Taylor, recorder / Richard Taylor, recorder / Anne Shuttleworth, cello / Walter Bergmann, harpsichord
Доп. информация:
Бонусный CD-R, выложенный вместе с первым томом, содержит ошибки в трэклистах 4 и 6 дисков. Правильные трэклисты можно найти выше или в отсканированном буклете.

CD1 EAC log

Exact Audio Copy V0.99 prebeta 5 from 4. May 2009
EAC extraction logfile from 19. May 2010, 20:48
Alfred Deller, Maurice Bevan, April Cantelo, Walter Bergman, George Malcolm / Music of Henry Purcell. CD1: Homage to Henry Purcell
Used drive : HL-DT-STDVDRAM GSA-4083N Adapter: 1 ID: 0
Read mode : Secure
Utilize accurate stream : Yes
Defeat audio cache : Yes
Make use of C2 pointers : No
Read offset correction : 667
Overread into Lead-In and Lead-Out : No
Fill up missing offset samples with silence : Yes
Delete leading and trailing silent blocks : No
Null samples used in CRC calculations : No
Used interface : Native Win32 interface for Win NT & 2000
Used output format : User Defined Encoder
Selected bitrate : 768 kBit/s
Quality : High
Add ID3 tag : No
Command line compressor : C:\Program Files\Exact Audio Copy\FLAC\FLAC.EXE
Additional command line options : -6 -V -T "ARTIST=%a" -T "TITLE=%t" -T "ALBUM=%g" -T "DATE=%y" -T "TRACKNUMBER=%n" -T "GENRE=%m" -T "COMMENT=%e" %s -o %d
TOC of the extracted CD
Track | Start | Length | Start sector | End sector
---------------------------------------------------------
1 | 0:00.00 | 5:44.59 | 0 | 25858
2 | 5:44.59 | 4:05.15 | 25859 | 44248
3 | 9:49.74 | 2:58.19 | 44249 | 57617
4 | 12:48.18 | 7:45.20 | 57618 | 92512
5 | 20:33.38 | 3:07.04 | 92513 | 106541
6 | 23:40.42 | 2:37.17 | 106542 | 118333
7 | 26:17.59 | 7:51.72 | 118334 | 153730
8 | 34:09.56 | 2:22.43 | 153731 | 164423
9 | 36:32.24 | 4:21.72 | 164424 | 184070
10 | 40:54.21 | 2:41.37 | 184071 | 196182
11 | 43:35.58 | 3:35.67 | 196183 | 212374
12 | 47:11.50 | 4:22.42 | 212375 | 232066
13 | 51:34.17 | 2:50.38 | 232067 | 244854
14 | 54:24.55 | 2:17.15 | 244855 | 255144
15 | 56:41.70 | 3:10.64 | 255145 | 269458
16 | 59:52.59 | 3:53.25 | 269459 | 286958
17 | 63:46.09 | 7:17.60 | 286959 | 319793
Range status and errors
Selected range
Filename F:\Music\Deller - Vol.2\Alfred Deller - Music of Henry Purcell - CD1.wav
Peak level 100.0 %
Range quality 100.0 %
Copy CRC 0230B069
Copy OK
No errors occurred
End of status report

CD2 EAC log

Exact Audio Copy V0.99 prebeta 5 from 4. May 2009
EAC extraction logfile from 20. May 2010, 0:36
Various / Music of Henry Purcell. CD 2: Music of Purcell
Used drive : HL-DT-STDVDRAM GSA-4083N Adapter: 1 ID: 0
Read mode : Secure
Utilize accurate stream : Yes
Defeat audio cache : Yes
Make use of C2 pointers : No
Read offset correction : 667
Overread into Lead-In and Lead-Out : No
Fill up missing offset samples with silence : Yes
Delete leading and trailing silent blocks : No
Null samples used in CRC calculations : No
Used interface : Native Win32 interface for Win NT & 2000
Used output format : User Defined Encoder
Selected bitrate : 768 kBit/s
Quality : High
Add ID3 tag : No
Command line compressor : C:\Program Files\Exact Audio Copy\FLAC\FLAC.EXE
Additional command line options : -6 -V -T "ARTIST=%a" -T "TITLE=%t" -T "ALBUM=%g" -T "DATE=%y" -T "TRACKNUMBER=%n" -T "GENRE=%m" -T "COMMENT=%e" %s -o %d
TOC of the extracted CD
Track | Start | Length | Start sector | End sector
---------------------------------------------------------
1 | 0:00.00 | 2:04.24 | 0 | 9323
2 | 2:04.24 | 0:56.16 | 9324 | 13539
3 | 3:00.40 | 2:52.31 | 13540 | 26470
4 | 5:52.71 | 4:40.14 | 26471 | 47484
5 | 10:33.10 | 3:58.03 | 47485 | 65337
6 | 14:31.13 | 7:27.73 | 65338 | 98935
7 | 21:59.11 | 1:20.64 | 98936 | 104999
8 | 23:20.00 | 1:46.50 | 105000 | 112999
9 | 25:06.50 | 1:44.06 | 113000 | 120805
10 | 26:50.56 | 1:21.68 | 120806 | 126948
11 | 28:12.49 | 1:24.19 | 126949 | 133267
12 | 29:36.68 | 1:04.57 | 133268 | 138124
13 | 30:41.50 | 0:53.60 | 138125 | 142159
14 | 31:35.35 | 0:57.36 | 142160 | 146470
15 | 32:32.71 | 1:22.36 | 146471 | 152656
16 | 33:55.32 | 1:03.30 | 152657 | 157411
17 | 34:58.62 | 0:53.59 | 157412 | 161445
18 | 35:52.46 | 1:26.67 | 161446 | 167962
19 | 37:19.38 | 2:28.68 | 167963 | 179130
20 | 39:48.31 | 0:33.35 | 179131 | 181640
21 | 40:21.66 | 0:46.11 | 181641 | 185101
22 | 41:08.02 | 2:05.05 | 185102 | 194481
23 | 43:13.07 | 1:07.45 | 194482 | 199551
24 | 44:20.52 | 2:55.03 | 199552 | 212679
25 | 47:15.55 | 1:45.45 | 212680 | 220599
26 | 49:01.25 | 1:14.06 | 220600 | 226155
27 | 50:15.31 | 0:23.57 | 226156 | 227937
28 | 50:39.13 | 2:40.12 | 227938 | 239949
29 | 53:19.25 | 1:08.01 | 239950 | 245050
Range status and errors
Selected range
Filename F:\Music\Deller - Vol.2\Alfred Deller - Music of Henry Purcell - CD2.wav
Peak level 99.3 %
Range quality 100.0 %
Copy CRC F5EA5E17
Copy OK
No errors occurred
End of status report

CD3 EAC log

Exact Audio Copy V0.99 prebeta 5 from 4. May 2009
EAC extraction logfile from 20. May 2010, 1:19
The Deller Consort. Mary Thomas, Honor Sheppard, Ellen Dales, Helen Watts, Robert Tear, Maurice Bevan. Alfred Deller / Music of Henry Purcell. CD 3: Dido and Aeneas
Used drive : HL-DT-STDVDRAM GSA-4083N Adapter: 1 ID: 0
Read mode : Secure
Utilize accurate stream : Yes
Defeat audio cache : Yes
Make use of C2 pointers : No
Read offset correction : 667
Overread into Lead-In and Lead-Out : No
Fill up missing offset samples with silence : Yes
Delete leading and trailing silent blocks : No
Null samples used in CRC calculations : No
Used interface : Native Win32 interface for Win NT & 2000
Used output format : User Defined Encoder
Selected bitrate : 768 kBit/s
Quality : High
Add ID3 tag : No
Command line compressor : C:\Program Files\Exact Audio Copy\FLAC\FLAC.EXE
Additional command line options : -6 -V -T "ARTIST=%a" -T "TITLE=%t" -T "ALBUM=%g" -T "DATE=%y" -T "TRACKNUMBER=%n" -T "GENRE=%m" -T "COMMENT=%e" %s -o %d
TOC of the extracted CD
Track | Start | Length | Start sector | End sector
---------------------------------------------------------
1 | 0:00.00 | 2:46.05 | 0 | 12454
2 | 2:46.05 | 1:07.67 | 12455 | 17546
3 | 3:53.72 | 4:06.33 | 17547 | 36029
4 | 8:00.30 | 0:35.22 | 36030 | 38676
5 | 8:35.52 | 0:26.61 | 38677 | 40687
6 | 9:02.38 | 2:01.57 | 40688 | 49819
7 | 11:04.20 | 1:45.52 | 49820 | 57746
8 | 12:49.72 | 0:57.35 | 57747 | 62056
9 | 13:47.32 | 0:44.19 | 62057 | 65375
10 | 14:31.51 | 0:30.44 | 65376 | 67669
11 | 15:02.20 | 0:49.31 | 67670 | 71375
12 | 15:51.51 | 1:25.62 | 71376 | 77812
13 | 17:17.38 | 1:16.03 | 77813 | 83515
14 | 18:33.41 | 1:15.21 | 83516 | 89161
15 | 19:48.62 | 1:18.30 | 89162 | 95041
16 | 21:07.17 | 0:21.09 | 95042 | 96625
17 | 21:28.26 | 0:54.37 | 96626 | 100712
18 | 22:22.63 | 0:14.66 | 100713 | 101828
19 | 22:37.54 | 1:18.66 | 101829 | 107744
20 | 23:56.45 | 0:11.66 | 107745 | 108635
21 | 24:08.36 | 1:25.41 | 108636 | 115051
22 | 25:34.02 | 0:59.62 | 115052 | 119538
23 | 26:33.64 | 1:01.58 | 119539 | 124171
24 | 27:35.47 | 0:36.57 | 124172 | 126928
25 | 28:12.29 | 1:14.01 | 126929 | 132479
26 | 29:26.30 | 2:09.55 | 132480 | 142209
27 | 31:36.10 | 0:34.42 | 142210 | 144801
28 | 32:10.52 | 0:55.67 | 144802 | 148993
29 | 33:06.44 | 3:07.66 | 148994 | 163084
30 | 36:14.35 | 0:40.56 | 163085 | 166140
31 | 36:55.16 | 1:19.43 | 166141 | 172108
32 | 38:14.59 | 0:51.64 | 172109 | 175997
33 | 39:06.48 | 0:58.70 | 175998 | 180417
34 | 40:05.43 | 0:43.05 | 180418 | 183647
35 | 40:48.48 | 0:37.21 | 183648 | 186443
36 | 41:25.69 | 1:21.06 | 186444 | 192524
37 | 42:47.00 | 4:20.67 | 192525 | 212091
38 | 47:07.67 | 1:14.58 | 212092 | 217699
39 | 48:22.50 | 0:53.36 | 217700 | 221710
40 | 49:16.11 | 3:06.22 | 221711 | 235682
41 | 52:22.33 | 2:33.02 | 235683 | 247159
Range status and errors
Selected range
Filename F:\Music\Deller - Vol.2\Alfred Deller - Music of Henry Purcell - CD3.wav
Peak level 90.0 %
Range quality 100.0 %
Copy CRC 055D36A6
Copy OK
No errors occurred
End of status report

CD4 EAC log

Exact Audio Copy V0.99 prebeta 5 from 4. May 2009
EAC extraction logfile from 21. May 2010, 2:03
Various / Music of Henry Purcell. CD 4: Music for Saint Cecilia's Day
Used drive : HL-DT-STDVDRAM GSA-4083N Adapter: 1 ID: 0
Read mode : Secure
Utilize accurate stream : Yes
Defeat audio cache : Yes
Make use of C2 pointers : No
Read offset correction : 667
Overread into Lead-In and Lead-Out : No
Fill up missing offset samples with silence : Yes
Delete leading and trailing silent blocks : No
Null samples used in CRC calculations : No
Used interface : Native Win32 interface for Win NT & 2000
Used output format : User Defined Encoder
Selected bitrate : 768 kBit/s
Quality : High
Add ID3 tag : No
Command line compressor : C:\Program Files\Exact Audio Copy\FLAC\FLAC.EXE
Additional command line options : -6 -V -T "ARTIST=%a" -T "TITLE=%t" -T "ALBUM=%g" -T "DATE=%y" -T "TRACKNUMBER=%n" -T "GENRE=%m" -T "COMMENT=%e" %s -o %d
TOC of the extracted CD
Track | Start | Length | Start sector | End sector
---------------------------------------------------------
1 | 0:00.00 | 10:42.26 | 0 | 48175
2 | 10:42.26 | 4:50.71 | 48176 | 69996
3 | 15:33.22 | 5:12.73 | 69997 | 93469
4 | 20:46.20 | 4:19.53 | 93470 | 112947
5 | 25:05.73 | 3:20.25 | 112948 | 127972
6 | 28:26.23 | 4:09.19 | 127973 | 146666
7 | 32:35.42 | 3:00.73 | 146667 | 160239
8 | 35:36.40 | 3:08.57 | 160240 | 174396
9 | 38:45.22 | 1:46.65 | 174397 | 182411
10 | 40:32.12 | 5:13.59 | 182412 | 205945
11 | 45:45.71 | 3:04.26 | 205946 | 219771
12 | 48:50.22 | 3:21.08 | 219772 | 234854
13 | 52:11.30 | 5:00.25 | 234855 | 257379
14 | 57:11.55 | 3:17.14 | 257380 | 272168
15 | 60:28.69 | 2:31.14 | 272169 | 283507
16 | 63:00.08 | 4:06.49 | 283508 | 302006
17 | 67:06.57 | 1:36.59 | 302007 | 309265
18 | 68:43.41 | 2:04.67 | 309266 | 318632
19 | 70:48.33 | 1:53.11 | 318633 | 327118
20 | 72:41.44 | 3:04.04 | 327119 | 340922
21 | 75:45.48 | 1:27.12 | 340923 | 347459
Range status and errors
Selected range
Filename F:\Music\Deller - Vol.2\Alfred Deller - Music of Henry Purcell - CD4.wav
Peak level 98.0 %
Range quality 100.0 %
Copy CRC 9740E729
Copy OK
No errors occurred
End of status report

CD5 EAC log

Exact Audio Copy V0.99 prebeta 5 from 4. May 2009
EAC extraction logfile from 21. May 2010, 1:06
The Deller Consort, Chor und Orchester des Concentus Musicus Wien / Nikolaus Harnoncourt and Alfred Deller, conductors / Music of Henry Purcell. CD 5: The Masque in Dioclesian
Used drive : HL-DT-STDVDRAM GSA-4083N Adapter: 1 ID: 0
Read mode : Secure
Utilize accurate stream : Yes
Defeat audio cache : Yes
Make use of C2 pointers : No
Read offset correction : 667
Overread into Lead-In and Lead-Out : No
Fill up missing offset samples with silence : Yes
Delete leading and trailing silent blocks : No
Null samples used in CRC calculations : No
Used interface : Native Win32 interface for Win NT & 2000
Used output format : User Defined Encoder
Selected bitrate : 768 kBit/s
Quality : High
Add ID3 tag : No
Command line compressor : C:\Program Files\Exact Audio Copy\FLAC\FLAC.EXE
Additional command line options : -6 -V -T "ARTIST=%a" -T "TITLE=%t" -T "ALBUM=%g" -T "DATE=%y" -T "TRACKNUMBER=%n" -T "GENRE=%m" -T "COMMENT=%e" %s -o %d
TOC of the extracted CD
Track | Start | Length | Start sector | End sector
---------------------------------------------------------
1 | 0:00.00 | 1:44.13 | 0 | 7812
2 | 1:44.13 | 0:55.29 | 7813 | 11966
3 | 2:39.42 | 1:07.45 | 11967 | 17036
4 | 3:47.12 | 4:17.72 | 17037 | 36383
5 | 8:05.09 | 0:52.06 | 36384 | 40289
6 | 8:57.15 | 1:40.48 | 40290 | 47837
7 | 10:37.63 | 1:53.18 | 47838 | 56330
8 | 12:31.06 | 0:49.62 | 56331 | 60067
9 | 13:20.68 | 2:26.28 | 60068 | 71045
10 | 15:47.21 | 1:29.74 | 71046 | 77794
11 | 17:17.20 | 1:51.34 | 77795 | 86153
12 | 19:08.54 | 3:11.09 | 86154 | 100487
13 | 22:19.63 | 0:31.32 | 100488 | 102844
14 | 22:51.20 | 6:45.16 | 102845 | 133235
15 | 29:36.36 | 0:53.64 | 133236 | 137274
16 | 30:30.25 | 2:05.12 | 137275 | 146661
17 | 32:35.37 | 0:49.43 | 146662 | 150379
18 | 33:25.05 | 5:18.44 | 150380 | 174273
19 | 38:43.49 | 2:01.17 | 174274 | 183365
20 | 40:44.66 | 0:41.45 | 183366 | 186485
21 | 41:26.36 | 0:42.18 | 186486 | 189653
22 | 42:08.54 | 2:38.10 | 189654 | 201513
23 | 44:46.64 | 1:24.21 | 201514 | 207834
24 | 46:11.10 | 1:24.16 | 207835 | 214150
25 | 47:35.26 | 0:43.26 | 214151 | 217401
26 | 48:18.52 | 0:49.11 | 217402 | 221087
27 | 49:07.63 | 1:39.70 | 221088 | 228582
28 | 50:47.58 | 1:05.33 | 228583 | 233490
Range status and errors
Selected range
Filename F:\Music\Deller - Vol.2\Alfred Deller - Music of Henry Purcell - CD5.wav
Peak level 100.0 %
Range quality 100.0 %
Copy CRC 4BCBD1FE
Copy OK
No errors occurred
End of status report

CD6 EAC log

Exact Audio Copy V0.99 prebeta 5 from 4. May 2009
EAC extraction logfile from 21. May 2010, 21:46
The Deller Consort, Alfred Deller / Music of Henry Purcell. CD 6: Come, Ye Sons of Art
Used drive : HL-DT-STDVDRAM GSA-4083N Adapter: 1 ID: 0
Read mode : Secure
Utilize accurate stream : Yes
Defeat audio cache : Yes
Make use of C2 pointers : No
Read offset correction : 667
Overread into Lead-In and Lead-Out : No
Fill up missing offset samples with silence : Yes
Delete leading and trailing silent blocks : No
Null samples used in CRC calculations : No
Used interface : Native Win32 interface for Win NT & 2000
Used output format : User Defined Encoder
Selected bitrate : 768 kBit/s
Quality : High
Add ID3 tag : No
Command line compressor : C:\Program Files\Exact Audio Copy\FLAC\FLAC.EXE
Additional command line options : -6 -V -T "ARTIST=%a" -T "TITLE=%t" -T "ALBUM=%g" -T "DATE=%y" -T "TRACKNUMBER=%n" -T "GENRE=%m" -T "COMMENT=%e" %s -o %d
TOC of the extracted CD
Track | Start | Length | Start sector | End sector
---------------------------------------------------------
1 | 0:00.00 | 3:53.68 | 0 | 17542
2 | 3:53.68 | 2:13.14 | 17543 | 27531
3 | 6:07.07 | 2:40.63 | 27532 | 39594
4 | 8:47.70 | 1:29.34 | 39595 | 46303
5 | 10:17.29 | 5:12.43 | 46304 | 69746
6 | 15:29.72 | 3:12.19 | 69747 | 84165
7 | 18:42.16 | 3:04.29 | 84166 | 97994
8 | 21:46.45 | 1:43.50 | 97995 | 105769
9 | 23:30.20 | 2:50.68 | 105770 | 118587
10 | 26:21.13 | 9:29.26 | 118588 | 161288
11 | 35:50.39 | 1:03.51 | 161289 | 166064
12 | 36:54.15 | 0:55.05 | 166065 | 170194
13 | 37:49.20 | 1:47.61 | 170195 | 178280
14 | 39:37.06 | 1:46.50 | 178281 | 186280
15 | 41:23.56 | 1:31.14 | 186281 | 193119
16 | 42:54.70 | 1:03.35 | 193120 | 197879
17 | 43:58.30 | 0:35.23 | 197880 | 200527
18 | 44:33.53 | 3:06.44 | 200528 | 214521
19 | 47:40.22 | 3:56.43 | 214522 | 232264
20 | 51:36.65 | 4:54.12 | 232265 | 254326
21 | 56:31.02 | 2:50.30 | 254327 | 267106
22 | 59:21.32 | 2:05.49 | 267107 | 276530
23 | 61:27.06 | 2:46.53 | 276531 | 289033
24 | 64:13.59 | 3:38.36 | 289034 | 305419
25 | 67:52.20 | 2:48.25 | 305420 | 318044
Range status and errors
Selected range
Filename F:\Music\Deller - Vol.2\Alfred Deller - Music of Henry Purcell - CD6.wav
Peak level 100.0 %
Range quality 100.0 %
Copy CRC 630B2741
Copy OK
No errors occurred
End of status report
[teatrix.ru].t9760.torrent 
Торрент: Зарегистрирован [ 2015-10-23 17:26 ] · 911F4BA65E8E0C933CD69683A3D1FA3822E2435B

Скачать .torrent

Скачать

41 KB

Статус: проверено
Скачан: 1 раз
Размер: 1.83 GB
terms.php



Быстрый ответ

Имя:

      
Для отправки сообщений необходимо включить JavaScript
Показать сообщения:    

Текущее время: 06-Дек 22:51

Часовой пояс: UTC + 3


Вы можете начинать темы
Вы можете отвечать на сообщения
Вы не можете редактировать свои сообщения
Вы не можете удалять свои сообщения
Вы не можете голосовать в опросах
Вы не можете прикреплять файлы к сообщениям
Вы можете скачивать файлы