(Classical, choral) Alfred Deller - The Complete Vanguard Recordings - Volume 1 - Folk Songs and Ballads - Alfred Deller, The Deller Consort - 7CD+bonus CD-R - 2008, FLAC (image+.cue), lossless


Статистика раздачи [Обновить пиров]
Размер:  1.82 GB   |    Зарегистрирован:  1 год 1 месяц   |    Скачан:  1 раз

Полного источника не было: 1 месяц 7 дней

Личеров:  1  [  0 KB/s  ]   Подробная статистика пиров
 
   
 
 
 

[Цитировать]

Alfred Deller - The Complete Vanguard Recordings - Volume 1 - Folk Songs and Ballads - Alfred Deller, The Deller Consort
Жанр: Classical, choral
Год выпуска диска: 2008
Производитель диска: Vanguard Classics
Аудио кодек: FLAC
Тип рипа: image+.cue
Битрейт аудио: lossless
Продолжительность: 7:21:48
Первый том шеститомного полного собрания записей, сделанных на студии Vanguard замечательным контр-тенором Альфредом Деллером с товарищами.
Эти 7 CD содержат материал, изданный ранее на 10 LP дисках и почти никогда не переиздававшийся на CD.
Первые 4 тома:
Volume 1 - Folk Songs and Ballads (7CD)
Volume 2: Music of Purcell (6CD)

Volume 3: Christmas Carols and Motets (4CD)
Volume 4: Music of Handel, Bach and the English Renaissance (6CD)

Трэклист:

CD1: Tavern Songs - Catches and glees and other diverse entertainment of Merrie England

Henry Purcell: A choice collection of the most diverting CATCHES, composed by Mr. Henry Purcell -
1 Man is for the woman made 1:18
2 Sir Walter 1:43
3 To thee and to the maid 1:37
4 Chiding catch ("Fie, Nay") 1:25
5 Once, twice, thrice 2:45
6 When the cock begins to crow 2:49
7 An epitaph: "Under this stone" 1:57
8 Earl of Mornington: T'was you, Sir 1:26
9 Jeremy Savile: Had she not care enough 1:11
10 William Turner: Young Anthony 1:37
11 anon., publ. 1764: Amo, amas, I love a lass 1:46
12 William Cornyshe: Ah, Robin 2:25
13 William Lawes: Bess black 2:40
14 Anon., publ. 1609: I am athirst 0:36
15 John Eccles: Wine does wonder 2:35
16 William Cornyshe: Hoyda, jolly rutterkin 2:24
17 Henry Purcell: An ape, a lion, a fox and an ass 1:28
18 Anon., coll. by Thomas Lant, 1580: Troll the bowl 1:18
19 John Travers: Fair and ugly, false and true 2:38
20 Anon., publ. 1614: We be soldiers three 1:42
21 John Bennet: Hunting madrigal: Lure, falconers, lure! 1:36
22 Henry Lawes: Sing fair Clorinda 3:35
23 Benjamin Rogers: Restoration pastoral: In the merry month of May 1:45
24 Henry Purcell: Patriotic song: True Englismen 1:33
25 Reginald Spofforth: 18th century glee club: L'ape e la serpe 4:11
The Deller Consort / Alfred Deller, director
Alfred Deller (ct), Gerald English (t), Wilfred Brown (t), Maurice Bevan (bs)

26 John Hilton: Call George again 1:16
27 Luffman Atterbury: As t'other day 1:45
28 Thomas Arne: The street intrigue 2:09
29 John Blow: Batholomew Fair 1:37
30 Anon.: He that will an alehouse keep 1:23
31 John Blow: The self banished 2:34
32 Anon.: Inigo Jones 1:43
33 Thomas Arne: Which is the properest day to drink 1:53
34 John Blow: Galloping Joan 1:28
35 Anon.: Sumer is icumen in 1:46
36 William Boyce: John Cooper 1:42
37 Henry Lawes: The captive lovers 1:54
38 Henry Purcell: Young Collin 2:14
39 Henry Purcell: If all be true 1:17
40 Joseph Barnby: Sweet and low 3:21
The Deller Consort / Alfred Deller, director
Alfred Deller (ct), Edgar Fleet (t), Gerald English (t), Wilfred Brown (t), Owen Grundy (ba), Maurice Bevan (bs)

CD2: The Cries of London

1 John Cobb (ed. D. Stevens): These are the Cries of London Town 1:26
2 Thomas Ravenscroft (ed. D. Stevens): New Oysters 0:54
3 Richard Dering (ed. D. Stevens): The Cries of London 0:26
4 Thomas Ravenscroft (ed. D. Stevens): A Bellman's song 0:52
5 Anon.: New Oysters 1:13
6 Anon.: The Painter's Song 2:21
7 Savage: Muffins Ho! 1:16
8 Richard Dering (ed. H. Purcell): Country Cries 6:01
9 Anon. (ed. D. Stevens): A Quart a Penny 1:16
10 Anon.: I Can Mend Your Tubs and Pails 1:12
11 Edmund Nelham (ed. D. Stevens): Have You any Work for the Tinker 1:33
12 Thomas Ravenscroft (ed. D. Stevens): Brooms for Old Shoes 2:10
13 Thomas Weelkes (ed. J. Noble): The Cries of London 6:34
14 Luffman Atterbury: One a Penny, Two a Penny 1:32
The Ambrosian Singers / Denis Stevens, conductor (1-2, 5, 7, 9-12)
The Deller Consort (3, 4-6, 8, 13-14)
Alfred Deller (ct, tr.4), April Cantelo (s, tr.13), Wilfred Brown (t, tr.6)
London Chambers Players / Alfred Deller, director
Granville Jones & James Barton (vln), Patrick Ireland & Kenneth Essex (vla), William Pleeth (c)

15 William Lawes: She weepeth sore 2:11
16 Henry Lawes: Angler's Song 1:07
17 Jonathan Bartishill: Here on his back 2:21
The Deller Consort
Alfred Deller (ct), Edgar Fleet (t), Gerald English (t), Wilfred Brown (t), Owen Grundy (ba), Maurice Bevan (bs)

CD3: The Three Ravens / The Wraggle-Taggle Gypsies

Anon.:
1 The Three Ravens 3:22
2 The Cuckoo 1:44
3 How Should I Your True Love Know (Ophelia's song from Hamlet) 1:43
4 Sweet Nightingale 2:16
5 I Will Give My Love an Apple 1:45
6 The Oak and the Ash 2:23
7 King Henry 2:43
8 Coventry Carol 2:20
9 Barbara Allen 2:10
10 Heigh Ho, the Wind and the Rain ("Twelfth Night") 1:58
11 Waly, Waly 3:02
12 Down in Yon Forest 2:14
13 Matthew, Mark, Luke and John 3:07
14 The Tailor and the Mouse 1:34
15 Greensleaves 2:17
16 The Wraggle Taggle Gypsies 3:16
17 Lord Rendall 5:40
18 Sweet Jane 2:39
19 The Frog and the Mouse 1:47
20 The Seeds of Love 3:53
21 Flowers in the Valley 2:17
22 Near London Town 3:05
23 O Who's Going to Shoe Your Pretty Little Foot 1:36
24 Blow Away the Morning Dew 3:16
25 Searching for lambs 2:17
26 Sweet England 2:59
27 Dabbling in the Dew 2:00
28 Strawberry Fair 2:12
29 Just as the Tide Was a-Flowing 2:24
Alfred Deller, countertenor / Desmond Dupre, lute and guitar

CD4: Ralph Vaughan Williams - Folk Songs of Britain / English Lute Songs

Anon. trad. British, arr. Ralph Vaughan Williams:
1 An Acre of Land 1:33
2 A Farmer's Son So Sweet 1:36
3 The Lover's Ghost 3:24
4 The Turtle Dove 2:50
5 John Dory 2:25
6 Greensleeves 5:07
7 The Jolly Ploughboy 1:08
8 Gloucestershire Wassail 2:34
9 Down by the Riverside 1:34
10 Bushes and Briars 2:57
11 Just as the Tide was Flowing 2:15
12 Ca' the Yowes 4:20
13 My Boy Billy 2:14
14 The Spring Time of the Year 2:49
15 Ward the Pirate 2:47
16 The Painful Plough 3:52
17 The Dark-Eyed Sailor 2:08
18 The Cuckoo and the Nightingale 2:02
19 Loch Lomond 3:14
The Deller Consort / Alfred Deller, director
Eileen Poulter (s), Mary Thomas (s), Alfred Deller (ct), Wilfred Brown (t), Gerald English (t), Maurice Bevan (ba), Geoffrey Coleby (bs)
Desmond Dupre, lute and guitar

20 Thomas Campion: Shall I come sweet love to thee 3:06
21 Thomas Morley: Will ye by a fine dog 1:17
22 John Dowland: Me, me and none but me 3:45
23 Wilt thou unkind 1:39
Alfred Deller, countertenor / Desmond Dupre, lute

CD5: Awake, Sweet Love - Airs & Partsongs of John Dowland / English Lute Songs

1 John Dowland: First Book of Airs, 1597 - Wilt thou, unkind, thus reave me? 1:59
2 First Book of Airs, 1597 - Awake, sweet love 3:27
3 A Musical Banquet, 1610 - In darkness let me dwell 4:41
4 Third Book of Airs, 1603 - Me, me, and none but me 3:58
5 A Pilgrim' Solace, 1612 - Go, nightly cares 5:19
6 First Book of Airs, 1597 - If my complaints could passions move 4:25
7 First Book of Airs, 1597 - Sleep, wayward thoughts 3:52
8 Third Book of Airs, 1603 - Flow not so fast, Ye fountains 3:56
9 First Book of Airs, 1597 - Come again! Sweet love doth now invite 2:03
10 Second Book of Airs, 1600 - Sorrow, stay 4:11
11 If that a sinner's sighs 3:23
The Deller Consort
Honor Sheppard, soprano / Alfred Deller, countertenor / Maurice Bevan, baritone / Philipp Todd, tenor / Desmond Dupre, lute / Beatrice Reichert, viola da gamba (track 5) / Viktor Redtenbacher,violin (track 5)

12 Francis Pilkington: Rest, sweet Nymphs 4:07
13 John Dowland: What if I never speed 2:14
14 Thomas Campion: Care charming sleep 5:39
15 John Dowland: Shall I sue 2:52
Alfred Deller, countertenor / Desmond Dupre, lute

CD6: Awake, Sweet Love / The Cruel Mother / The Western Wind

1 John Dowland: Second Book of Airs, 1600 - Fine knack for ladies 2:20
2 Second Book of Airs, 1600 - Flow, my tears 5:20
3 First Book of Airs, 1597 - Can she excuse my wrongs 4:04
The Deller Consort
Honor Sheppard, soprano / Alfred Deller, countertenor / Maurice Bevan, baritone / Philipp Todd, tenor / Desmond Dupre, lute

Anon.:
4 When Cockleshells Turn Silver Bells 1:47
5 An Eriskay Love Lilt 2:57
6 Peggy Ramsay 1:38
7 Bushes and Briars 2:22
8 Brigg Fair 2:17
9 The Cruel Mother 6:26
10 A Sweet Country Life 1:36
11 The Bitter Withy 2:44
12 Lang a-Growing 4:45
13 The Lover's Ghost 3:56
14 Lovely Joan 2:03
15 She Moved Through the Fair 3:33
16 A Brisk Young Lad He Courted Me 2:30
17 Geordie 3:54
The Deller Consort / Alfred Deller, director
Eileen Poulter (s), Mary Thomas (s), Alfred Deller (ct), Wilfred Brown (t), Gerald English (t), Maurice Bevan (ba), Geoffrey Coleby (bs)
Desmond Dupre, lute

18 Westron Wynd 0:47
19 Early One Morning 2:14
20 Black is the Color 1:52
21 All the Pretty Little Horses 1:33
22 Lowlands 2:35
23 The Sally Gardens (text: William Butler Yeats) 2:04
24 Bendemeer's Stream (text: Thomas Moore) 1:08
Alfred Deller, countertenor / Desmond Dupre, lute and guitar / John Sothcott, recorder

CD7: English Lute Songs / The Western Wind

1 Anon.: Have you seen but a white lilly 2:39
2 Philip Rosseter: When Laura smiles 1:48
3 John Dowland: Come again! Sweet love doth now invite 2:26
4 John Danyel: Chromatic tunes 8:35
Alfred Deller, countertenor / Desmond Dupre, lute and guitar
Anon.:
5 Annie Laurie (text: William Douglas of Fingland, 1686) 3:30
6 The Miller of the Dee 1:34
7 Cockles and Mussels 1:50
8 Drink to Me Only (text: Ben Johnson) 2:57
9 The Foggy, Foggy Dew 1:58
10 Frog Went a-Courtin' 1:48
11 The Turtle Dove 3:22
12 Pretty Polly Oliver 1:29
13 The Carrion Crow 1:48
14 The Wife of Usher's Well 3:52
15 Henry Martin 2:32
16 Anon., early settlers of De Kalb County, Texas: I am a poor wayfaring stranger 4:14
17 Anon.: Cold Blows the Wind 4:40
18 Anon.: Skye Boat Song 1:35
19 Anon., from Cecil Sharp's "English Folksongs of the South Appalachians": When the Sun Goes In 6:39
20 Anon.: A Ballad upon a Wedding (text: Sir John Suckling) 1:35
Alfred Deller, countertenor / Desmond Dupre, lute and guitar / John Sothcott, recorder
Бонусный CD-R содержит материалы, относящиеся ко всему шеститомному изданию: трэклисты, тексты исполняемых произведений, картинки.
Доп. информация:
Канал не очень быстрый. Надеюсь на понимание.

CD1 EAC log

Exact Audio Copy V0.99 prebeta 5 from 4. May 2009
EAC extraction logfile from 17. May 2010, 21:09
The Deller Consort, Alfred Deller / Folk Songs and Ballads. CD1: Tavern Songs. Catches and Glees
Used drive : HL-DT-STDVDRAM GSA-4083N Adapter: 1 ID: 0
Read mode : Secure
Utilize accurate stream : Yes
Defeat audio cache : Yes
Make use of C2 pointers : No
Read offset correction : 667
Overread into Lead-In and Lead-Out : No
Fill up missing offset samples with silence : Yes
Delete leading and trailing silent blocks : No
Null samples used in CRC calculations : No
Used interface : Native Win32 interface for Win NT & 2000
Used output format : User Defined Encoder
Selected bitrate : 768 kBit/s
Quality : High
Add ID3 tag : No
Command line compressor : C:\Program Files\Exact Audio Copy\FLAC\FLAC.EXE
Additional command line options : -6 -V -T "ARTIST=%a" -T "TITLE=%t" -T "ALBUM=%g" -T "DATE=%y" -T "TRACKNUMBER=%n" -T "GENRE=%m" -T "COMMENT=%e" %s -o %d
TOC of the extracted CD
Track | Start | Length | Start sector | End sector
---------------------------------------------------------
1 | 0:00.00 | 1:18.03 | 0 | 5852
2 | 1:18.03 | 1:43.63 | 5853 | 13640
3 | 3:01.66 | 1:37.19 | 13641 | 20934
4 | 4:39.10 | 1:25.02 | 20935 | 27311
5 | 6:04.12 | 2:45.45 | 27312 | 39731
6 | 8:49.57 | 2:49.10 | 39732 | 52416
7 | 11:38.67 | 1:57.44 | 52417 | 61235
8 | 13:36.36 | 1:26.67 | 61236 | 67752
9 | 15:03.28 | 1:11.05 | 67753 | 73082
10 | 16:14.33 | 1:36.72 | 73083 | 80354
11 | 17:51.30 | 1:46.46 | 80355 | 88350
12 | 19:38.01 | 2:25.01 | 88351 | 99226
13 | 22:03.02 | 2:39.72 | 99227 | 111223
14 | 24:42.74 | 0:36.52 | 111224 | 113975
15 | 25:19.51 | 2:35.19 | 113976 | 125619
16 | 27:54.70 | 2:24.39 | 125620 | 136458
17 | 30:19.34 | 1:28.34 | 136459 | 143092
18 | 31:47.68 | 1:18.03 | 143093 | 148945
19 | 33:05.71 | 2:38.45 | 148946 | 160840
20 | 35:44.41 | 1:42.05 | 160841 | 168495
21 | 37:26.46 | 1:36.20 | 168496 | 175715
22 | 39:02.66 | 3:35.01 | 175716 | 191841
23 | 42:37.67 | 1:45.08 | 191842 | 199724
24 | 44:23.00 | 1:34.04 | 199725 | 206778
25 | 45:57.04 | 4:12.36 | 206779 | 225714
26 | 50:09.40 | 1:15.24 | 225715 | 231363
27 | 51:24.64 | 1:45.50 | 231364 | 239288
28 | 53:10.39 | 2:09.15 | 239289 | 248978
29 | 55:19.54 | 1:37.45 | 248979 | 256298
30 | 56:57.24 | 1:23.38 | 256299 | 262561
31 | 58:20.62 | 2:34.44 | 262562 | 274155
32 | 60:55.31 | 1:43.43 | 274156 | 281923
33 | 62:38.74 | 1:53.34 | 281924 | 290432
34 | 64:32.33 | 1:28.39 | 290433 | 297071
35 | 66:00.72 | 1:46.23 | 297072 | 305044
36 | 67:47.20 | 1:42.65 | 305045 | 312759
37 | 69:30.10 | 1:54.46 | 312760 | 321355
38 | 71:24.56 | 2:14.18 | 321356 | 331423
39 | 73:38.74 | 1:17.63 | 331424 | 337261
40 | 74:56.62 | 3:22.45 | 337262 | 352456
Range status and errors
Selected range
Filename F:\Music\Deller - Vol.1\Alfred Deller - Folk Songs and Ballads - CD1.wav
Peak level 99.9 %
Range quality 100.0 %
Copy CRC 98B8A029
Copy OK
No errors occurred
End of status report

CD2 EAC log

Exact Audio Copy V0.99 prebeta 5 from 4. May 2009
EAC extraction logfile from 17. May 2010, 21:33
The Deller Consort, Alfred Deller / Folk Songs and Ballads. CD2: The Cries of London
Used drive : HL-DT-STDVDRAM GSA-4083N Adapter: 1 ID: 0
Read mode : Secure
Utilize accurate stream : Yes
Defeat audio cache : Yes
Make use of C2 pointers : No
Read offset correction : 667
Overread into Lead-In and Lead-Out : No
Fill up missing offset samples with silence : Yes
Delete leading and trailing silent blocks : No
Null samples used in CRC calculations : No
Used interface : Native Win32 interface for Win NT & 2000
Used output format : User Defined Encoder
Selected bitrate : 768 kBit/s
Quality : High
Add ID3 tag : No
Command line compressor : C:\Program Files\Exact Audio Copy\FLAC\FLAC.EXE
Additional command line options : -6 -V -T "ARTIST=%a" -T "TITLE=%t" -T "ALBUM=%g" -T "DATE=%y" -T "TRACKNUMBER=%n" -T "GENRE=%m" -T "COMMENT=%e" %s -o %d
TOC of the extracted CD
Track | Start | Length | Start sector | End sector
---------------------------------------------------------
1 | 0:00.00 | 1:26.74 | 0 | 6523
2 | 1:26.74 | 0:54.14 | 6524 | 10587
3 | 2:21.13 | 10:26.27 | 10588 | 57564
4 | 12:47.40 | 0:52.03 | 57565 | 61467
5 | 13:39.43 | 1:13.37 | 61468 | 66979
6 | 14:53.05 | 2:21.16 | 66980 | 77570
7 | 17:14.21 | 1:16.40 | 77571 | 83310
8 | 18:30.61 | 6:01.45 | 83311 | 110430
9 | 24:32.31 | 1:16.10 | 110431 | 116140
10 | 25:48.41 | 1:12.60 | 116141 | 121600
11 | 27:01.26 | 1:34.00 | 121601 | 128650
12 | 28:35.26 | 2:10.09 | 128651 | 138409
13 | 30:45.35 | 6:33.60 | 138410 | 167944
14 | 37:19.20 | 1:32.50 | 167945 | 174894
15 | 38:51.70 | 2:11.05 | 174895 | 184724
16 | 41:03.00 | 1:07.00 | 184725 | 189749
17 | 42:10.00 | 2:22.11 | 189750 | 200410
Range status and errors
Selected range
Filename F:\Music\Deller - Vol.1\Alfred Deller - Folk Songs and Ballads - CD2.wav
Peak level 93.8 %
Range quality 99.9 %
Copy CRC 6B5F9754
Copy OK
No errors occurred
End of status report

CD3 EAC log

Exact Audio Copy V0.99 prebeta 5 from 4. May 2009
EAC extraction logfile from 18. May 2010, 1:32
Alfred Deller, Desmond Dupre / Folk Songs and Ballads. CD3: The Three Ravens / The Wraggle-Taggle Gypsies
Used drive : HL-DT-STDVDRAM GSA-4083N Adapter: 1 ID: 0
Read mode : Secure
Utilize accurate stream : Yes
Defeat audio cache : Yes
Make use of C2 pointers : No
Read offset correction : 667
Overread into Lead-In and Lead-Out : No
Fill up missing offset samples with silence : Yes
Delete leading and trailing silent blocks : No
Null samples used in CRC calculations : No
Used interface : Native Win32 interface for Win NT & 2000
Used output format : User Defined Encoder
Selected bitrate : 768 kBit/s
Quality : High
Add ID3 tag : No
Command line compressor : C:\Program Files\Exact Audio Copy\FLAC\FLAC.EXE
Additional command line options : -6 -V -T "ARTIST=%a" -T "TITLE=%t" -T "ALBUM=%g" -T "DATE=%y" -T "TRACKNUMBER=%n" -T "GENRE=%m" -T "COMMENT=%e" %s -o %d
TOC of the extracted CD
Track | Start | Length | Start sector | End sector
---------------------------------------------------------
1 | 0:00.00 | 3:22.70 | 0 | 15219
2 | 3:22.70 | 1:44.43 | 15220 | 23062
3 | 5:07.38 | 1:43.33 | 23063 | 30820
4 | 6:50.71 | 2:17.00 | 30821 | 41095
5 | 9:07.71 | 1:45.00 | 41096 | 48970
6 | 10:52.71 | 2:23.09 | 48971 | 59704
7 | 13:16.05 | 2:43.29 | 59705 | 71958
8 | 15:59.34 | 2:19.73 | 71959 | 82456
9 | 18:19.32 | 2:10.00 | 82457 | 92206
10 | 20:29.32 | 1:58.39 | 92207 | 101095
11 | 22:27.71 | 3:02.71 | 101096 | 114816
12 | 25:30.67 | 2:14.00 | 114817 | 124866
13 | 27:44.67 | 3:07.72 | 124867 | 138963
14 | 30:52.64 | 1:34.67 | 138964 | 146080
15 | 32:27.56 | 2:18.00 | 146081 | 156430
16 | 34:45.56 | 3:15.72 | 156431 | 171127
17 | 38:01.53 | 5:40.01 | 171128 | 196628
18 | 43:41.54 | 2:39.59 | 196629 | 208612
19 | 46:21.38 | 1:47.38 | 208613 | 216675
20 | 48:09.01 | 3:53.40 | 216676 | 234190
21 | 52:02.41 | 2:17.43 | 234191 | 244508
22 | 54:20.09 | 3:05.47 | 244509 | 258430
23 | 57:25.56 | 1:36.27 | 258431 | 265657
24 | 59:02.08 | 3:16.70 | 265658 | 280427
25 | 62:19.03 | 2:17.60 | 280428 | 290762
26 | 64:36.63 | 2:58.71 | 290763 | 304183
27 | 67:35.59 | 2:00.21 | 304184 | 313204
28 | 69:36.05 | 2:12.45 | 313205 | 323149
29 | 71:48.50 | 2:24.69 | 323150 | 334018
Range status and errors
Selected range
Filename F:\Music\Deller - Vol.1\Alfred Deller - Folk Songs and Ballads - CD3.wav
Peak level 99.6 %
Range quality 100.0 %
Copy CRC 6B7A93DE
Copy OK
No errors occurred
End of status report

CD4 EAC log

Exact Audio Copy V0.99 prebeta 5 from 4. May 2009
EAC extraction logfile from 18. May 2010, 2:03
The Deller Consort, Alfred Deller / Folk Songs and Ballads. CD4: Ralph Vaughan Williams - Folk Songs of Britain / English Lute Songs
Used drive : HL-DT-STDVDRAM GSA-4083N Adapter: 1 ID: 0
Read mode : Secure
Utilize accurate stream : Yes
Defeat audio cache : Yes
Make use of C2 pointers : No
Read offset correction : 667
Overread into Lead-In and Lead-Out : No
Fill up missing offset samples with silence : Yes
Delete leading and trailing silent blocks : No
Null samples used in CRC calculations : No
Used interface : Native Win32 interface for Win NT & 2000
Used output format : User Defined Encoder
Selected bitrate : 768 kBit/s
Quality : High
Add ID3 tag : No
Command line compressor : C:\Program Files\Exact Audio Copy\FLAC\FLAC.EXE
Additional command line options : -6 -V -T "ARTIST=%a" -T "TITLE=%t" -T "ALBUM=%g" -T "DATE=%y" -T "TRACKNUMBER=%n" -T "GENRE=%m" -T "COMMENT=%e" %s -o %d
TOC of the extracted CD
Track | Start | Length | Start sector | End sector
---------------------------------------------------------
1 | 0:00.00 | 1:33.32 | 0 | 7006
2 | 1:33.32 | 1:36.25 | 7007 | 14231
3 | 3:09.57 | 3:24.65 | 14232 | 29596
4 | 6:34.47 | 2:50.60 | 29597 | 42406
5 | 9:25.32 | 2:25.04 | 42407 | 53285
6 | 11:50.36 | 5:07.30 | 53286 | 76340
7 | 16:57.66 | 1:08.43 | 76341 | 81483
8 | 18:06.34 | 2:34.06 | 81484 | 93039
9 | 20:40.40 | 1:34.55 | 93040 | 100144
10 | 22:15.20 | 2:57.03 | 100145 | 113422
11 | 25:12.23 | 2:15.48 | 113423 | 123595
12 | 27:27.71 | 4:20.39 | 123596 | 143134
13 | 31:48.35 | 2:15.01 | 143135 | 153260
14 | 34:03.36 | 2:49.05 | 153261 | 165940
15 | 36:52.41 | 2:47.42 | 165941 | 178507
16 | 39:40.08 | 3:52.58 | 178508 | 195965
17 | 43:32.66 | 2:08.39 | 195966 | 205604
18 | 45:41.30 | 2:02.00 | 205605 | 214754
19 | 47:43.30 | 3:14.32 | 214755 | 229336
20 | 50:57.62 | 3:06.09 | 229337 | 243295
21 | 54:03.71 | 1:17.73 | 243296 | 249143
22 | 55:21.69 | 3:45.72 | 249144 | 266090
23 | 59:07.66 | 1:39.58 | 266091 | 273573
Range status and errors
Selected range
Filename F:\Music\Deller - Vol.1\Alfred Deller - Folk Songs and Ballads - CD4.wav
Peak level 100.0 %
Range quality 100.0 %
Copy CRC AFE1F5C1
Copy OK
No errors occurred
End of status report

CD5 EAC log

Exact Audio Copy V0.99 prebeta 5 from 4. May 2009
EAC extraction logfile from 18. May 2010, 2:27
The Deller Consort, Alfred Deller / Folk Songs and Ballads. CD5: Awake, Sweet Love - Airs & Partsongs of John Dowland / English Lute Songs
Used drive : HL-DT-STDVDRAM GSA-4083N Adapter: 1 ID: 0
Read mode : Secure
Utilize accurate stream : Yes
Defeat audio cache : Yes
Make use of C2 pointers : No
Read offset correction : 667
Overread into Lead-In and Lead-Out : No
Fill up missing offset samples with silence : Yes
Delete leading and trailing silent blocks : No
Null samples used in CRC calculations : No
Used interface : Native Win32 interface for Win NT & 2000
Used output format : User Defined Encoder
Selected bitrate : 768 kBit/s
Quality : High
Add ID3 tag : No
Command line compressor : C:\Program Files\Exact Audio Copy\FLAC\FLAC.EXE
Additional command line options : -6 -V -T "ARTIST=%a" -T "TITLE=%t" -T "ALBUM=%g" -T "DATE=%y" -T "TRACKNUMBER=%n" -T "GENRE=%m" -T "COMMENT=%e" %s -o %d
TOC of the extracted CD
Track | Start | Length | Start sector | End sector
---------------------------------------------------------
1 | 0:00.00 | 1:59.13 | 0 | 8937
2 | 1:59.13 | 3:27.09 | 8938 | 24471
3 | 5:26.22 | 4:41.69 | 24472 | 45615
4 | 10:08.16 | 3:58.46 | 45616 | 63511
5 | 14:06.62 | 5:19.54 | 63512 | 87490
6 | 19:26.41 | 4:25.35 | 87491 | 107400
7 | 23:52.01 | 3:52.39 | 107401 | 124839
8 | 27:44.40 | 3:56.16 | 124840 | 142555
9 | 31:40.56 | 2:03.45 | 142556 | 151825
10 | 33:44.26 | 4:11.63 | 151826 | 170713
11 | 37:56.14 | 3:23.34 | 170714 | 185972
12 | 41:19.48 | 4:06.33 | 185973 | 204455
13 | 45:26.06 | 2:14.13 | 204456 | 214518
14 | 47:40.19 | 5:39.49 | 214519 | 239992
15 | 53:19.68 | 2:52.50 | 239993 | 252942
Range status and errors
Selected range
Filename F:\Music\Deller - Vol.1\Alfred Deller - Folk Songs and Ballads - CD5.wav
Peak level 100.0 %
Range quality 100.0 %
Copy CRC 9377ABE1
Copy OK
No errors occurred
End of status report

CD6 EAC log

Exact Audio Copy V0.99 prebeta 5 from 4. May 2009
EAC extraction logfile from 18. May 2010, 2:54
The Deller Consort, Alfred Deller / Folk Songs and Ballads. CD 6: Awake, Sweet Love / The Cruel Mother / The Western Wind
Used drive : HL-DT-STDVDRAM GSA-4083N Adapter: 1 ID: 0
Read mode : Secure
Utilize accurate stream : Yes
Defeat audio cache : Yes
Make use of C2 pointers : No
Read offset correction : 667
Overread into Lead-In and Lead-Out : No
Fill up missing offset samples with silence : Yes
Delete leading and trailing silent blocks : No
Null samples used in CRC calculations : No
Used interface : Native Win32 interface for Win NT & 2000
Used output format : User Defined Encoder
Selected bitrate : 768 kBit/s
Quality : High
Add ID3 tag : No
Command line compressor : C:\Program Files\Exact Audio Copy\FLAC\FLAC.EXE
Additional command line options : -6 -V -T "ARTIST=%a" -T "TITLE=%t" -T "ALBUM=%g" -T "DATE=%y" -T "TRACKNUMBER=%n" -T "GENRE=%m" -T "COMMENT=%e" %s -o %d
TOC of the extracted CD
Track | Start | Length | Start sector | End sector
---------------------------------------------------------
1 | 0:00.00 | 2:21.48 | 0 | 10622
2 | 2:21.48 | 5:20.19 | 10623 | 34641
3 | 7:41.67 | 4:04.01 | 34642 | 52942
4 | 11:45.68 | 1:46.58 | 52943 | 60950
5 | 13:32.51 | 2:57.23 | 60951 | 74248
6 | 16:29.74 | 1:38.33 | 74249 | 81631
7 | 18:08.32 | 2:22.13 | 81632 | 92294
8 | 20:30.45 | 2:17.05 | 92295 | 102574
9 | 22:47.50 | 6:26.56 | 102575 | 131580
10 | 29:14.31 | 1:36.35 | 131581 | 138815
11 | 30:50.66 | 2:44.00 | 138816 | 151115
12 | 33:34.66 | 4:45.39 | 151116 | 172529
13 | 38:20.30 | 3:55.73 | 172530 | 190227
14 | 42:16.28 | 2:03.09 | 190228 | 199461
15 | 44:19.37 | 3:33.66 | 199462 | 215502
16 | 47:53.28 | 2:30.54 | 215503 | 226806
17 | 50:24.07 | 3:57.07 | 226807 | 244588
18 | 54:21.14 | 0:47.04 | 244589 | 248117
19 | 55:08.18 | 2:14.00 | 248118 | 258167
20 | 57:22.18 | 1:52.61 | 258168 | 266628
21 | 59:15.04 | 1:33.64 | 266629 | 273667
22 | 60:48.68 | 2:35.35 | 273668 | 285327
23 | 63:24.28 | 2:04.56 | 285328 | 294683
24 | 65:29.09 | 1:09.62 | 294684 | 299920
Range status and errors
Selected range
Filename F:\Music\Deller - Vol.1\Alfred Deller - Folk Songs and Ballads - CD6.wav
Peak level 99.0 %
Range quality 100.0 %
Copy CRC 3E4A4D54
Copy OK
No errors occurred
End of status report

CD7 EAC log

Exact Audio Copy V0.99 prebeta 5 from 4. May 2009
EAC extraction logfile from 18. May 2010, 3:20
Alfred Deller, Despond Dupre / Folk Songs and Ballads. CD 7: English Lute Songs / The Western Wind
Used drive : HL-DT-STDVDRAM GSA-4083N Adapter: 1 ID: 0
Read mode : Secure
Utilize accurate stream : Yes
Defeat audio cache : Yes
Make use of C2 pointers : No
Read offset correction : 667
Overread into Lead-In and Lead-Out : No
Fill up missing offset samples with silence : Yes
Delete leading and trailing silent blocks : No
Null samples used in CRC calculations : No
Used interface : Native Win32 interface for Win NT & 2000
Used output format : User Defined Encoder
Selected bitrate : 768 kBit/s
Quality : High
Add ID3 tag : No
Command line compressor : C:\Program Files\Exact Audio Copy\FLAC\FLAC.EXE
Additional command line options : -6 -V -T "ARTIST=%a" -T "TITLE=%t" -T "ALBUM=%g" -T "DATE=%y" -T "TRACKNUMBER=%n" -T "GENRE=%m" -T "COMMENT=%e" %s -o %d
TOC of the extracted CD
Track | Start | Length | Start sector | End sector
---------------------------------------------------------
1 | 0:00.00 | 2:39.19 | 0 | 11943
2 | 2:39.19 | 1:48.18 | 11944 | 20061
3 | 4:27.37 | 2:26.31 | 20062 | 31042
4 | 6:53.68 | 8:35.09 | 31043 | 69676
5 | 15:29.02 | 3:30.13 | 69677 | 85439
6 | 18:59.15 | 1:34.67 | 85440 | 92556
7 | 20:34.07 | 1:50.21 | 92557 | 100827
8 | 22:24.28 | 2:57.71 | 100828 | 114173
9 | 25:22.24 | 1:58.31 | 114174 | 123054
10 | 27:20.55 | 1:48.63 | 123055 | 131217
11 | 29:09.43 | 3:22.13 | 131218 | 146380
12 | 32:31.56 | 1:29.57 | 146381 | 153112
13 | 34:01.38 | 1:48.28 | 153113 | 161240
14 | 35:49.66 | 3:52.25 | 161241 | 178665
15 | 39:42.16 | 2:32.66 | 178666 | 190131
16 | 42:15.07 | 4:14.12 | 190132 | 209193
17 | 46:29.19 | 4:40.71 | 209194 | 230264
18 | 51:10.15 | 1:35.49 | 230265 | 237438
19 | 52:45.64 | 6:39.50 | 237439 | 267413
20 | 59:25.39 | 1:35.47 | 267414 | 274585
Range status and errors
Selected range
Filename F:\Music\Deller - Vol.1\Alfred Deller - Folk Songs and Ballads - CD7.wav
Peak level 100.0 %
Range quality 100.0 %
Copy CRC 9E981201
Copy OK
No errors occurred
End of status report
[teatrix.ru].t9762.torrent 
Торрент: Зарегистрирован [ 2015-10-23 17:26 ] · 4476DAFCC6F9F29142F790ABB3A8BEF127FD06C8

Скачать .torrent

Скачать

58 KB

Статус: проверено
Скачан: 1 раз
Размер: 1.82 GB
terms.php



Быстрый ответ

Имя:

      
Для отправки сообщений необходимо включить JavaScript
Показать сообщения:    

Текущее время: 08-Дек 23:07

Часовой пояс: UTC + 3


Вы можете начинать темы
Вы можете отвечать на сообщения
Вы не можете редактировать свои сообщения
Вы не можете удалять свои сообщения
Вы не можете голосовать в опросах
Вы не можете прикреплять файлы к сообщениям
Вы можете скачивать файлы