(Classical) Dang Thai Son - Chopin's Piano Album (Frederic Chopin) [8CD] - 2005, FLAC (image+.cue), lossless


Статистика раздачи [Обновить пиров]
Размер:  1.22 GB   |    Зарегистрирован:  1 год 1 месяц   |    Скачан:  0 раз

Полного источника не было: Никогда

Личеров:  1  [  0 KB/s  ]   Подробная статистика пиров
 
   
 
 
 

[Цитировать]

Dang Thai Son - Chopin's Piano Album [8CD]
Жанр: Classical
Год выпуска диска: 2005
Производитель диска: JVC
Аудио кодек: FLAC
Тип рипа: image+.cue
Битрейт аудио: lossless
Продолжительность: 45:58+60:21+57:06+50:04+45:02+54:29+70:48+62:47
Трэклист:Frédéric Chopin - Frederic Chopin

CD1 - 4 Ballades, Bolero, Tarantella

1. Ballade N° 1 in G minor op. 23
2. Ballade N° 2 in F major op. 38
3. Ballade N° 3 in A flat major op. 47
4. Ballade N° 4 in F minor op. 52
5. Bolero op. 19
6. Tarantelle op. 43

CD2 - 4 Impromptus & 4 Scherzos

1. Impromtus - No 1 in A flat major Op.29
2. Impromtus - No 2 in F sharp major Op.36
3. Impromtus - No 3 in G flat major Op.51
4. Impromtus - No 4 in C minor op 66 Fantasie Impromptu
5. Scherzos - No 1 in B minor Op.20
6. Scherzos - No 2 in B flat minor Op.31
7. Scherzos - No 3 in C sharp minor Op.39
8. Scherzos - No 4 in E major Op.54

CD3 - 19 Waltzes

1. Op. 18 No. 1 Grand valse brillante in E flat major
2. Op. 34-1 No. 2 valse brillante in A flat major
3. Op. 34-1 No. 3 valse brillante in A flat major
4. Op. 34-3 No. 4 valse brillante in F major
5. Op. 42 No.r 'grand valse in A flat major
6. Op. 64-1 No. 6 petit chien in D flat major
7. Op. 64-2 No. 7 in C sharp minor
8. Op. 64-3 No. 64-3 No. 8 in A flat major
9. Op. 69 No. 9 in A flat major
10. Op. 69-2 No. 10 in minor
11. Op. 70-1 No. 11 in G flat major
12. Op. 70-2 No. 12 in F minor
13. Op. 70-3 No. 13 in D flat major posthumous
14. No. 14 in A flat major posthumous
15. No. 15 in E major posthumous
16. No. 16 in E minor posthumous
17. No. 17 in A minor posthumous
18. No. 18 in E flat major posthumous
19. No. 19 in E flat major posthumous

CD4 - 24 Preludes

1. No.1 in C Major
2. No.2 in a Minor
3. No.3 in G Major
4. No.4 in e Minor
5. No.5 in D Major
6. No.6 in b Minor
7. No.7 in A Major
8. No.8 in f Sharp Minor
9. No.9 in E Major
10. No.10 in c Sharp Minor
11. No.11 in B Major
12. No.12 in g Sharp Minor
13. No.13 in F Sharp Major
14. No.14 in e Flat Minor
15. No.15 in D Flat Major 'Raindrop'
16. No.16 in b Flat Minor
17. No.17 in A Flat Major
18. No.18 in f Minor
19. No.19 in E Flat Major
20. No.20 in c Minor
21. No.21 in B Flat Major
22. No.22 in g Minor
23. No.23 in F Major
24. No.24 in D Minor
25. Prelude in c Sharp Minor Op.45
26. Prelude in A Flat Major Posth
27. Barcarolle in F Glat Major Op.60

CD5 - Complete Nocturnes - Part1

1. No. 1 in B Flat Minor Op. 9-1
2. No. 2 in E Flat Major Op. 9-2
3. No. 3 in B Major Op. 9-3
4. No. 4 in F Major Op. 15-1
5. No. 5 in F Sharp Major Op. 15-2
6. No. 6 in G Minor Op. 15-3
7. No. 7 in C Sharp Minor Op. 27-1
8. No. 8 in D Flat Major Op. 27-2
9. No. 9 in B Major Op. 32-1
10. No. 10 in A Flat Major Op. 32-2

CD6 - Complete Nocturnes - Part2

1. No. 11 in G Minor Op. 37-1
2. No. 12 in G Major Op. 37-2
3. No. 13 in C Minor Op. 48-1
4. No. 14 in F Sharp Minor Op. 48-2
5. No. 15 in F Minor Op. 55-1
6. No. 16 in E Flat Major Op. 55-2
7. No. 17 in B Major Op. 62-1
8. No. 18 in E Major Op. 62-2
9. No. 19 in E Minor Op. 72-1
10. No. 20 in C Sharp Minor Posth.
11. No. 21 in C Minor Posth.

CD7 - Piano Concertos

Piano Concerto No.1 in E minor Op.11
1. Allegro Maestoso
2. Romanze Larghetto
3. Rondo Vivace
Piano Concerto No.2 in F minor Op.21
4. Maestoso
5. Larghetto
6. Allgegro vivace

CD8 - Favorites

1. Nocturne No.1 in B Flat Minor Op. 9-1
2. Nocturen No.2 in Flat Major Op. 9-2
3. Nocturne No.5 in F Sharp Major Op. 15-2
4. Waltz No. 1 'Grande Valse Brillante' in E Flat Major Op. 18
5. Waltz No. 3 in A Minor Op. 34-2
6. Waltz No. 6 'Petit Chien' in D Flat Major Op. 40-1
7. Waltz No. 7 in C Sharp Minor Op. 64-2
8. Polonaise No. 3 'Militaire' in A Major Op. 40-1
9. Polonaise No. 6 'Heroique' in A Flat Major Op. 53
10. Etude 'Chanson De L' adieu' in E Major Op. 10-3
11. Etude in F Major Op. 10-8
12. Etude 'Revolutionary' in C Minor Op. 10-12
13. Berceuse in D Flat Major Op. 57
14. Prelude 'Raindrop' in D Flat Major Op. 28-15
15. Fantasie-Impromtu in C Sharp Minor Op. 66
Доп. информация:
Dang Thai Son - Piano
Sinfonia Varsovia
Conductor: Jerzy Maksymiuk

ДАНГ ТХАЙ ШОН

ДАНГ ТХАЙ ШОН (Dang Thai Son)
(р. 1958)
Триумфальная победа этого пианиста на юбилейном Шопеновском конкурсе в Варшаве в 1980 году стала одновременно и подтверждением высокого уровня советской фортепианной школы, и, можно сказать, исторической вехой в летописи культурной жизни его родного Вьетнама. Впервые представитель этой страны завоевал первую премию на соревновании столь высокого ранга.
Талант вьетнамского мальчика открыл советский педагог, профессор Горьковской консерватории И. И. Кац, проводивший в середине 70-х годов семинар для пианистов-аспирантов Ханойской консерватории. К нему и привела юношу мать - известная пианистка Тхай Тхи Лиен, учившая сына с 5 лет. Опытный профессор принял его в свой класс в порядке исключения: возраст его был далек от аспирантского, но одаренность не вызывала сомнений.
Позади были трудные годы учебы в Музыкальном училище при Ханойской консерватории. Долгое время приходилось заниматься в эвакуации, в селе Суан Фу (под Ханоем); уроки шли в классах-землянках, крытых соломой, под грохот американских самолетов и разрывы бомб. После 1973 года консерватория вернулась в столицу, и в 1976 году Шон окончил курс, сыграв на дипломном отчете Второй концерт Рахманинова. А затем, по совету И. Каца, его направили в Московскую консерваторию. Здесь, в классе профессора В. А. Натансона, вьетнамский пианист быстро совершенствовался и с увлечением готовился к Шопеновскому конкурсу. Но все же он ехал в Варшаву без особых амбиций, зная, что среди почти полутораста соперников многие обладали куда большим опытом.
Случилось так, что Данг Тхай Шон покорил всех, завоевав не только главный приз, но и все дополнительные. Газеты называли его феноменальным талантом. Один из польских критиков констатировал: "Он любуется звучанием каждой фразы, бережно доносит до слушателей каждый звук и не столько играет, сколько поет ноты. По природе он лирик, но ему доступен и драматизм; хотя он предпочитает интимную сферу переживаний, но не чужд и виртуозной эффектности. Словом, он обладает всем, что необходимо большому пианисту: пальцевой техникой, скоростью, интеллектуальным самоконтролем, искренностью чувства и артистизмом".
За срок, прошедший с осени 1980 года, артистическая биография Данг Тхай Шона пополнилась многими событиями. Он окончил консерваторию, много концертировал (лишь в 1981 году выступал в ФРГ, Польше, Японии, Франции, ЧССР и неоднократно в СССР), значительно расширил свой репертуар. Зрелый не по годам, он по-прежнему поражает свежестью и поэтичностью игры, обаянием артистической личности. Как и другим лучшим пианистам Азии, ему свойственны особая гибкость и мягкость звука, своеобразие кантилены, тонкость красочной палитры. Вместе с тем в его игре нет и тени сентиментальности, салонности, экстравагантности, подчас ощутимых, скажем, у его японских коллег. Чувство формы, редкая "гомогенность" фортепианной фактуры, при которой музыку невозможно разделить на отдельные элементы, также относятся к числу достоинств его игры. Все это предвещает артисту новые художественные открытия.
В настоящее время Данг Тхай Шон живёт в Канаде. Он преподает в Монреальском университете. С 1987 года является также профессором музыкального колледжа "Кунитачи" в Токио.
Записи пианиста изданы фирмами Мелодия Deutsche Grammophon, Polskie Nagranja, CBS, Sony, Victor и Analekta.

Отчёт EACCD1

Exact Audio Copy V0.99 prebeta 4 from 23. January 2008
EAC extraction logfile from 19. November 2009, 18:39
Dang Thai Son / Chopin 4 Ballades - Bolero - Tarantelle
Used drive : Optiarc DVD RW AD-5200A Adapter: 0 ID: 0
Read mode : SecureUtilize accurate stream : YesDefeat audio cache : YesMake use of C2 pointers : No
Read offset correction : 48Overread into Lead-In and Lead-Out : NoFill up missing offset samples with silence : YesDelete leading and trailing silent blocks : NoNull samples used in CRC calculations : YesUsed interface : Native Win32 interface for Win NT & 2000
Used output format : Internal WAV RoutinesSample format : 44.100 Hz; 16 Bit; Stereo
TOC of the extracted CD
Track | Start | Length | Start sector | End sector --------------------------------------------------------- 1 | 0:00.37 | 9:13.40 | 37 | 41551 2 | 9:14.02 | 7:36.18 | 41552 | 75769 3 | 16:50.20 | 7:12.07 | 75770 | 108176 4 | 24:02.27 | 11:15.13 | 108177 | 158814 5 | 35:17.40 | 7:18.70 | 158815 | 191734 6 | 42:36.35 | 3:21.45 | 191735 | 206854
Range status and errors
Selected range
Filename D:\Chopin's Piano album\Dang Thai Son - Chopin 4 Ballades - Bolero - Tarantelle.wav
Peak level 95.6 % Range quality 100.0 % Copy CRC D87308D2 Copy OK
No errors occurred

CD2

Exact Audio Copy V0.99 prebeta 4 from 23. January 2008
EAC extraction logfile from 19. November 2009, 18:27
Dang Thai Son / CHOPIN - 4 Impromptus & 4 Scherzos
Used drive : Optiarc DVD RW AD-5200A Adapter: 0 ID: 0
Read mode : SecureUtilize accurate stream : YesDefeat audio cache : YesMake use of C2 pointers : No
Read offset correction : 48Overread into Lead-In and Lead-Out : NoFill up missing offset samples with silence : YesDelete leading and trailing silent blocks : NoNull samples used in CRC calculations : YesUsed interface : Native Win32 interface for Win NT & 2000
Used output format : Internal WAV RoutinesSample format : 44.100 Hz; 16 Bit; Stereo
TOC of the extracted CD
Track | Start | Length | Start sector | End sector --------------------------------------------------------- 1 | 0:00.37 | 4:07.68 | 37 | 18629 2 | 4:08.30 | 5:19.10 | 18630 | 42564 3 | 9:27.40 | 5:36.52 | 42565 | 67816 4 | 15:04.17 | 5:16.20 | 67817 | 91536 5 | 20:20.37 | 10:23.28 | 91537 | 138289 6 | 30:43.65 | 10:22.30 | 138290 | 184969 7 | 41:06.20 | 7:37.52 | 184970 | 219296 8 | 48:43.72 | 11:37.00 | 219297 | 271571
Range status and errors
Selected range
Filename D:\Chopin's Piano album\Dang Thai Son - CHOPIN - 4 Impromptus & 4 Scherzos.wav
Peak level 100.0 % Range quality 100.0 % Copy CRC 5622AFF4 Copy OK
No errors occurred

CD3

Exact Audio Copy V0.99 prebeta 4 from 23. January 2008
EAC extraction logfile from 19. November 2009, 17:50
Chopin / Waltzes played by Dang Thai Son
Used drive : Optiarc DVD RW AD-5200A Adapter: 0 ID: 0
Read mode : SecureUtilize accurate stream : YesDefeat audio cache : YesMake use of C2 pointers : No
Read offset correction : 48Overread into Lead-In and Lead-Out : NoFill up missing offset samples with silence : YesDelete leading and trailing silent blocks : NoNull samples used in CRC calculations : YesUsed interface : Native Win32 interface for Win NT & 2000
Used output format : Internal WAV RoutinesSample format : 44.100 Hz; 16 Bit; Stereo
TOC of the extracted CD
Track | Start | Length | Start sector | End sector --------------------------------------------------------- 1 | 0:00.37 | 5:06.35 | 37 | 23021 2 | 5:06.72 | 5:08.50 | 23022 | 46171 3 | 10:15.47 | 5:15.38 | 46172 | 69834 4 | 15:31.10 | 2:16.10 | 69835 | 80044 5 | 17:47.20 | 3:46.10 | 80045 | 97004 6 | 21:33.30 | 1:49.02 | 97005 | 105181 7 | 23:22.32 | 3:50.15 | 105182 | 122446 8 | 27:12.47 | 2:47.35 | 122447 | 135006 9 | 30:00.07 | 4:06.60 | 135007 | 153516 10 | 34:06.67 | 3:23.60 | 153517 | 168801 11 | 37:30.52 | 2:00.05 | 168802 | 177806 12 | 39:30.57 | 2:55.45 | 177807 | 190976 13 | 42:26.27 | 2:55.23 | 190977 | 204124 14 | 45:21.50 | 1:20.32 | 204125 | 210156 15 | 46:42.07 | 2:09.65 | 210157 | 219896 16 | 48:51.72 | 2:48.28 | 219897 | 232524 17 | 51:40.25 | 2:02.62 | 232525 | 241736 18 | 53:43.12 | 1:25.05 | 241737 | 248116 19 | 55:08.17 | 1:57.30 | 248117 | 256921
Range status and errors
Selected range
Filename D:\Chopin's Piano album\Chopin - Waltzes played by Dang Thai Son.wav
Peak level 69.8 % Range quality 100.0 % Copy CRC FB5986C0 Copy OK
No errors occurred

CD4

Exact Audio Copy V0.99 prebeta 4 from 23. January 2008
EAC extraction logfile from 19. November 2009, 17:28
Chopin / Dang Thai Son\CHOPIN - 24 Preludes
Used drive : Optiarc DVD RW AD-5200A Adapter: 0 ID: 0
Read mode : SecureUtilize accurate stream : YesDefeat audio cache : YesMake use of C2 pointers : No
Read offset correction : 48Overread into Lead-In and Lead-Out : NoFill up missing offset samples with silence : YesDelete leading and trailing silent blocks : NoNull samples used in CRC calculations : YesUsed interface : Native Win32 interface for Win NT & 2000
Used output format : Internal WAV RoutinesSample format : 44.100 Hz; 16 Bit; Stereo
TOC of the extracted CD
Track | Start | Length | Start sector | End sector --------------------------------------------------------- 1 | 0:00.37 | 0:30.03 | 37 | 2289 2 | 0:30.40 | 2:10.45 | 2290 | 12084 3 | 2:41.10 | 0:51.05 | 12085 | 15914 4 | 3:32.15 | 1:51.42 | 15915 | 24281 5 | 5:23.57 | 0:29.55 | 24282 | 26511 6 | 5:53.37 | 2:00.55 | 26512 | 35566 7 | 7:54.17 | 0:43.63 | 35567 | 38854 8 | 8:38.05 | 1:43.25 | 38855 | 46604 9 | 10:21.30 | 1:21.22 | 46605 | 52701 10 | 11:42.52 | 0:27.48 | 52702 | 54774 11 | 12:10.25 | 0:33.57 | 54775 | 57306 12 | 12:44.07 | 1:10.10 | 57307 | 62566 13 | 13:54.17 | 2:47.00 | 62567 | 75091 14 | 16:41.17 | 0:26.55 | 75092 | 77096 15 | 17:07.72 | 5:31.73 | 77097 | 101994 16 | 22:39.70 | 1:07.00 | 101995 | 107019 17 | 23:46.70 | 2:39.52 | 107020 | 118996 18 | 26:26.47 | 0:52.38 | 118997 | 122934 19 | 27:19.10 | 1:20.52 | 122935 | 128986 20 | 28:39.62 | 1:21.40 | 128987 | 135101 21 | 30:01.27 | 1:47.00 | 135102 | 143126 22 | 31:48.27 | 0:38.43 | 143127 | 146019 23 | 32:26.70 | 0:58.30 | 146020 | 150399 24 | 33:25.25 | 2:30.45 | 150400 | 161694 25 | 35:55.70 | 5:01.02 | 161695 | 184271 26 | 40:56.72 | 0:45.73 | 184272 | 187719 27 | 41:42.70 | 8:21.42 | 187720 | 225336
Range status and errors
Selected range
Filename D:\Chopin's Piano album\Chopin - Dang Thai Son CHOPIN - 24 Preludes.wav
Peak level 90.1 % Range quality 100.0 % Copy CRC 29A0C1A5 Copy OK
No errors occurred

CD5

Exact Audio Copy V0.99 prebeta 4 from 23. January 2008
EAC extraction logfile from 19. November 2009, 17:09
Dang Thai Son / Chopin Complete Nocturnes Disk 1
Used drive : Optiarc DVD RW AD-5200A Adapter: 0 ID: 0
Read mode : SecureUtilize accurate stream : YesDefeat audio cache : YesMake use of C2 pointers : No
Read offset correction : 48Overread into Lead-In and Lead-Out : NoFill up missing offset samples with silence : YesDelete leading and trailing silent blocks : NoNull samples used in CRC calculations : YesUsed interface : Native Win32 interface for Win NT & 2000
Used output format : Internal WAV RoutinesSample format : 44.100 Hz; 16 Bit; Stereo
TOC of the extracted CD
Track | Start | Length | Start sector | End sector --------------------------------------------------------- 1 | 0:00.37 | 5:16.20 | 37 | 23756 2 | 5:16.57 | 3:55.13 | 23757 | 41394 3 | 9:11.70 | 5:48.67 | 41395 | 67561 4 | 15:00.62 | 4:00.30 | 67562 | 85591 5 | 19:01.17 | 3:05.25 | 85592 | 99491 6 | 22:06.42 | 4:04.45 | 99492 | 117836 7 | 26:11.12 | 4:56.73 | 117837 | 140109 8 | 31:08.10 | 5:15.02 | 140110 | 163736 9 | 36:23.12 | 4:08.43 | 163737 | 182379 10 | 40:31.55 | 4:30.12 | 182380 | 202641
Range status and errors
Selected range
Filename D:\Chopin's Piano album\Dang Thai Son - Chopin Complete Nocturnes Disk 1.wav
Peak level 90.5 % Range quality 100.0 % Copy CRC 55755CE0 Copy OK
No errors occurred

CD6

Exact Audio Copy V0.99 prebeta 4 from 23. January 2008
EAC extraction logfile from 19. November 2009, 16:47
Dang Thai Son / Chopin: Complete Nocturnes CD 2
Used drive : Optiarc DVD RW AD-5200A Adapter: 0 ID: 0
Read mode : SecureUtilize accurate stream : YesDefeat audio cache : YesMake use of C2 pointers : No
Read offset correction : 48Overread into Lead-In and Lead-Out : NoFill up missing offset samples with silence : YesDelete leading and trailing silent blocks : NoNull samples used in CRC calculations : YesUsed interface : Native Win32 interface for Win NT & 2000
Used output format : Internal WAV RoutinesSample format : 44.100 Hz; 16 Bit; Stereo
TOC of the extracted CD
Track | Start | Length | Start sector | End sector --------------------------------------------------------- 1 | 0:00.37 | 5:58.55 | 37 | 26941 2 | 5:59.17 | 5:18.28 | 26942 | 50819 3 | 11:17.45 | 5:10.40 | 50820 | 74109 4 | 16:28.10 | 6:13.65 | 74110 | 102149 5 | 22:42.00 | 4:15.60 | 102150 | 121334 6 | 26:57.60 | 4:54.22 | 121335 | 143406 7 | 31:52.07 | 6:04.10 | 143407 | 170716 8 | 37:56.17 | 5:52.18 | 170717 | 197134 9 | 43:48.35 | 4:09.62 | 197135 | 215871 10 | 47:58.22 | 3:51.10 | 215872 | 233206 11 | 51:49.32 | 2:40.03 | 233207 | 245209
Range status and errors
Selected range
Filename D:\Chopin's Piano album\Dang Thai Son - Chopin Complete Nocturnes CD 2.wav
Peak level 90.1 % Range quality 100.0 % Copy CRC ACB87950 Copy OK
No errors occurred

CD7

Exact Audio Copy V0.99 prebeta 4 from 23. January 2008
EAC extraction logfile from 19. November 2009, 16:14
Chopin-Dan Thaison--Maksymiuk-Sinfonia Varsovia / Piano Concerto No.1 & No.2
Used drive : Optiarc DVD RW AD-5200A Adapter: 0 ID: 0
Read mode : SecureUtilize accurate stream : YesDefeat audio cache : YesMake use of C2 pointers : No
Read offset correction : 48Overread into Lead-In and Lead-Out : NoFill up missing offset samples with silence : YesDelete leading and trailing silent blocks : NoNull samples used in CRC calculations : YesUsed interface : Native Win32 interface for Win NT & 2000
Used output format : Internal WAV RoutinesSample format : 44.100 Hz; 16 Bit; Stereo
TOC of the extracted CD
Track | Start | Length | Start sector | End sector --------------------------------------------------------- 1 | 0:00.37 | 19:54.60 | 37 | 89646 2 | 19:55.22 | 9:49.53 | 89647 | 133874 3 | 29:45.00 | 9:41.37 | 133875 | 177486 4 | 39:26.37 | 14:04.20 | 177487 | 240806 5 | 53:30.57 | 8:57.00 | 240807 | 281081 6 | 62:27.57 | 8:20.38 | 281082 | 318619
Range status and errors
Selected range
Filename D:\Chopin's Piano album\Chopin-Dan Thaison--Maksymiuk-Sinfonia Varsovia - Piano Concerto No.1 & No.2.wav
Peak level 97.2 % Range quality 100.0 % Copy CRC BC7B8B29 Copy OK
No errors occurred

CD8

Exact Audio Copy V0.99 prebeta 4 from 23. January 2008
EAC extraction logfile from 19. November 2009, 16:30
Dang Thai Son / Chopin Favourites
Used drive : Optiarc DVD RW AD-5200A Adapter: 0 ID: 0
Read mode : SecureUtilize accurate stream : YesDefeat audio cache : YesMake use of C2 pointers : No
Read offset correction : 48Overread into Lead-In and Lead-Out : NoFill up missing offset samples with silence : YesDelete leading and trailing silent blocks : NoNull samples used in CRC calculations : YesUsed interface : Native Win32 interface for Win NT & 2000
Used output format : Internal WAV RoutinesSample format : 44.100 Hz; 16 Bit; Stereo
TOC of the extracted CD
Track | Start | Length | Start sector | End sector --------------------------------------------------------- 1 | 0:00.37 | 5:16.70 | 37 | 23806 2 | 5:17.32 | 3:55.35 | 23807 | 41466 3 | 9:12.67 | 3:04.53 | 41467 | 55319 4 | 12:17.45 | 5:14.07 | 55320 | 78876 5 | 17:31.52 | 5:22.10 | 78877 | 103036 6 | 22:53.62 | 1:47.25 | 103037 | 111086 7 | 24:41.12 | 3:43.60 | 111087 | 127871 8 | 28:24.72 | 5:17.13 | 127872 | 151659 9 | 33:42.10 | 6:33.32 | 151660 | 181166 10 | 40:15.42 | 3:52.18 | 181167 | 198584 11 | 44:07.60 | 2:24.07 | 198585 | 209391 12 | 46:31.67 | 2:33.65 | 209392 | 220931 13 | 49:05.57 | 3:53.60 | 220932 | 238466 14 | 52:59.42 | 5:03.68 | 238467 | 261259 15 | 58:03.35 | 4:43.20 | 261260 | 282504
Range status and errors
Selected range
Filename D:\Chopin's Piano album\Dang Thai Son - Chopin Favourites.wav
Peak level 99.9 % Range quality 100.0 % Copy CRC 978FF784 Copy OK
No errors occurred
[teatrix.ru].t9765.torrent 
Торрент: Зарегистрирован [ 2015-10-23 17:26 ] · 18C8E08D9D74E04B5B055C3469382F9D7DF5BE7E

Скачать .torrent

Скачать

16 KB

Статус: проверено
Скачан: 0 раз
Размер: 1.22 GB
terms.php



Быстрый ответ

Имя:

      
Для отправки сообщений необходимо включить JavaScript
Показать сообщения:    

Текущее время: 04-Дек 21:21

Часовой пояс: UTC + 3


Вы можете начинать темы
Вы можете отвечать на сообщения
Вы не можете редактировать свои сообщения
Вы не можете удалять свои сообщения
Вы не можете голосовать в опросах
Вы не можете прикреплять файлы к сообщениям
Вы можете скачивать файлы