(Classical) Otto Klemperer - Wiener Philharmoniker - Live broadcast performances (Mozart, Beethoven, Bruckner, Mahler, Bach, Strauss, Brahms, Rameau) Testament [8CD] - 2005, FLAC (image+.cue), lossless


Статистика раздачи [Обновить пиров]
Размер:  2.37 GB   |    Зарегистрирован:  1 год 1 месяц   |    Скачан:  0 раз

Полного источника не было: 2 месяца 23 дня

Личеров:  1  [  0 KB/s  ]   Подробная статистика пиров
 
   
 
 
 

[Цитировать]

Otto Klemperer - Wiener Philharmoniker - Live broadcast performances (Testament)[8CD]
Жанр: Classical
Год выпуска диска: 2005
Производитель диска: Testament
Аудио кодек: FLAC
Тип рипа: image+.cue
Битрейт аудио: lossless
Продолжительность: 62:46+79:21+50:41+76:07+60:34+51:03+62:18+66:26
Трэклист:

CD1 - Mozart - Serenade No.12, Symphony No.41

Wolfgang Amadeus Mozart
1. Ambience
Serenade No.12 in C
2. Allegro
3. Andante
4. Menuetto in canone
5. Allegro
6. Applause
Symphony No.41 in C 'Jupiter'
7. Allegro vivvace
8. Andante cantabile
9. Menuetto. Allegretto
10. Finale. Molto allegro

CD2 - Beethoven - Coriolan, Symphony No. 4, Schubert - Symphony No. 8

1. Applause
Ludwig van Beethoven
2. Coriolan, Overture, op.62
Symphony No. 4 in B, op.60
3. Adagio - Allegro vivace
4. Adagio
5. Allegro vivace - Trio. Un poco meno allegro
6. Allegro ma non troppo
7. Applause
Franz Schubert
Symphony No. 8 in b, D.759'Unfinished'
8. Allegro moderato
9. Andante con moto

CD3 - Beethoven - Symphony No. 5, Rameau - Gavotte mit 6 Variationen (Orch. Klemperer)

1. Applause
Ludwig van Beethoven
Symphony No. 5 in c, op.67
2. Allegro con brio
3. Andante con moto - Piu mosso - Tempo I
4. Allegro
5. Allegro - Presto
6. Applause
Jean-Philippe Rameau
Gavotte mit 6 Variationen (Orch. Klemperer)
7. Gavotte
8. Variation I
9. Variation II
10. Variation III
11. Variation IV
12. Variation V
13. Variation VI

CD4 - Bruckner - Symphony No. 5

Anton Bruckner
Symphony No. 5 in B flat major
1. Introduction (Adagio) - Allegro
2. Adagio (sehr langsam)
3. Scherzo (Molto vivace) and Trio
4. Finale (Adagio - Allegro mode...

CD5 - Mahler - Symphony No. 9 in D minor (movements I-III)

1. Applause
Gustav Mahler
Symphony No. 9 in D minor (movements I-III)
2. Andante comodo
3. Im Tempo eines gemдchlichen Lдnders
4. Rondo-Burleske.Allegro assai

CD6 - Mahler - Symphony No. 9 in D minor (movements IV), Bach - Brandenburg Concerto No. 1

Gustav Mahler
Symphony No. 9 in D minor (movements IV)
1. Adagio. Sehr langsam und noch zurьckhaltend
2.Applause
Johann Sebastian Bach
Brandenburg Concerto No. 1 in F
3. (Allegro)
4. Adagio
5. Allegro
6. Menuet - Trio I - Menuet - Polacca

CD7 - Strauss - Don Juan, Wagner - Siegfried, Triston und Isolde, Die Meistersinger,

Richard Strauss
1. Don Juan, Op. 20
Richard Wagner
2. Siegfried Idyll
3. Applause
4. Tristan und Isolde - Vorspiel
5. Applause
6. Die Meistersinger - Vorspiel

CD8 - Brahms - Ein Deutsches Requiem

Johannes Brahms
Ein Deutsches Requiem

1. Applause
2. Selig sind, die da Leid tragen
3. Denn alles Fleisch es ist wie Gras
4. Herr, lehre doch mich
5. Wie lieblich sind deine Wohnungen
6. Ihr habt nun Traurigkeit
7. Denn wir haben hie keine bleibende Statt
8. Selig sind die Toten
Wilma Lipp - soprano
Eberhard Wachter - baritone
Singverein der Gesellschaft der Musikfreunde
Доп. информация:
Wiener Philharmoniker
Conductor: Otto Klemperer

Отчёт EACCD1

Exact Audio Copy V0.99 prebeta 4 from 23. January 2008
EAC extraction logfile from 11. May 2010, 16:13
Mozart, Wolfgang Amadeus / Serenade No.12 in c & Symphony No.41 in C"Jupiter"
Used drive : ASUS DRW-1814BLT Adapter: 2 ID: 2
Read mode : SecureUtilize accurate stream : YesDefeat audio cache : YesMake use of C2 pointers : No
Read offset correction : 6Overread into Lead-In and Lead-Out : NoFill up missing offset samples with silence : YesDelete leading and trailing silent blocks : NoNull samples used in CRC calculations : YesUsed interface : Native Win32 interface for Win NT & 2000
Used output format : Internal WAV RoutinesSample format : 44.100 Hz; 16 Bit; Stereo
TOC of the extracted CD
Track | Start | Length | Start sector | End sector --------------------------------------------------------- 1 | 0:00.00 | 0:21.05 | 0 | 1579 2 | 0:21.05 | 8:27.67 | 1580 | 39671 3 | 8:48.72 | 4:43.50 | 39672 | 60946 4 | 13:32.47 | 4:54.23 | 60947 | 83019 5 | 18:26.70 | 7:55.57 | 83020 | 118701 6 | 26:22.52 | 0:28.23 | 118702 | 120824 7 | 26:51.00 | 12:39.72 | 120825 | 177821 8 | 39:30.72 | 9:20.35 | 177822 | 219856 9 | 48:51.32 | 4:25.43 | 219857 | 239774 10 | 53:17.00 | 9:27.40 | 239775 | 282339
Range status and errors
Selected range
Filename D:\EAC\Mozart, Wolfgang Amadeus - Serenade No.12 in c & Symphony No.41 in C Jupiter.wav
Peak level 92.1 % Range quality 100.0 % Copy CRC EE9A7E2E Copy OK
No errors occurred
AccurateRip summary
Track 1 accurately ripped (confidence 5) [7FF375FC]Track 2 accurately ripped (confidence 5) [B2E468F5]Track 3 accurately ripped (confidence 5) [32335B5D]Track 4 accurately ripped (confidence 5) [5D260B2C]Track 5 accurately ripped (confidence 5) [F9A65BB8]Track 6 accurately ripped (confidence 5) [9A139E6C]Track 7 accurately ripped (confidence 5) [5AC8DBB6]Track 8 accurately ripped (confidence 5) [D7BAE143]Track 9 accurately ripped (confidence 5) [FE6FAF69]Track 10 accurately ripped (confidence 5) [DD6ED7A5]
All tracks accurately ripped
End of status report

CD2

Exact Audio Copy V0.99 prebeta 4 from 23. January 2008
EAC extraction logfile from 11. May 2010, 16:29
Ludwig van Beethoven; Franz Schubert / Coriolan, Symphony No. 4 (Beethoven)/ No. 8 (Schubert)
Used drive : ASUS DRW-1814BLT Adapter: 2 ID: 2
Read mode : SecureUtilize accurate stream : YesDefeat audio cache : YesMake use of C2 pointers : No
Read offset correction : 6Overread into Lead-In and Lead-Out : NoFill up missing offset samples with silence : YesDelete leading and trailing silent blocks : NoNull samples used in CRC calculations : YesUsed interface : Native Win32 interface for Win NT & 2000
Used output format : Internal WAV RoutinesSample format : 44.100 Hz; 16 Bit; Stereo
TOC of the extracted CD
Track | Start | Length | Start sector | End sector --------------------------------------------------------- 1 | 0:00.00 | 0:17.62 | 0 | 1336 2 | 0:17.62 | 9:13.18 | 1337 | 42829 3 | 9:31.05 | 1:01.40 | 42830 | 47444 4 | 10:32.45 | 13:46.30 | 47445 | 109424 5 | 24:19.00 | 11:16.07 | 109425 | 160131 6 | 35:35.07 | 6:30.30 | 160132 | 189411 7 | 42:05.37 | 8:38.00 | 189412 | 228261 8 | 50:43.37 | 0:31.23 | 228262 | 230609 9 | 51:14.60 | 15:34.37 | 230610 | 300696 10 | 66:49.22 | 12:30.50 | 300697 | 356996
Range status and errors
Selected range
Filename D:\EAC\Ludwig van Beethoven; Franz Schubert - Coriolan, Symphony No. 4 (Beethoven) No. 8 (Schubert).wav
Peak level 94.6 % Range quality 100.0 % Copy CRC 296DABBB Copy OK
No errors occurred
AccurateRip summary
Track 1 accurately ripped (confidence 4) [8963505E]Track 2 accurately ripped (confidence 4) [1944429A]Track 3 accurately ripped (confidence 4) [04BA24C3]Track 4 accurately ripped (confidence 4) [8E4B7BEB]Track 5 accurately ripped (confidence 4) [DD95E1F2]Track 6 accurately ripped (confidence 4) [071EE549]Track 7 accurately ripped (confidence 4) [8C496511]Track 8 accurately ripped (confidence 4) [C4380143]Track 9 accurately ripped (confidence 4) [6BCC4FCC]Track 10 accurately ripped (confidence 3) [27AA2131]
All tracks accurately ripped
End of status report

CD3

Exact Audio Copy V0.99 prebeta 4 from 23. January 2008
EAC extraction logfile from 11. May 2010, 16:42
Ludwig van Beethoven; Jean-Philippe Rameau / Symphony No. 5, Gavotte mit 6 variationen
Used drive : ASUS DRW-1814BLT Adapter: 2 ID: 2
Read mode : SecureUtilize accurate stream : YesDefeat audio cache : YesMake use of C2 pointers : No
Read offset correction : 6Overread into Lead-In and Lead-Out : NoFill up missing offset samples with silence : YesDelete leading and trailing silent blocks : NoNull samples used in CRC calculations : YesUsed interface : Native Win32 interface for Win NT & 2000
Used output format : Internal WAV RoutinesSample format : 44.100 Hz; 16 Bit; Stereo
TOC of the extracted CD
Track | Start | Length | Start sector | End sector --------------------------------------------------------- 1 | 0:00.00 | 0:18.32 | 0 | 1381 2 | 0:18.32 | 9:08.45 | 1382 | 42526 3 | 9:27.02 | 11:51.28 | 42527 | 95879 4 | 21:18.30 | 6:26.40 | 95880 | 124869 5 | 27:44.70 | 12:39.15 | 124870 | 181809 6 | 40:24.10 | 0:18.45 | 181810 | 183204 7 | 40:42.55 | 1:26.62 | 183205 | 189716 8 | 42:09.42 | 1:20.15 | 189717 | 195731 9 | 43:29.57 | 1:22.35 | 195732 | 201916 10 | 44:52.17 | 1:24.58 | 201917 | 208274 11 | 46:17.00 | 1:10.55 | 208275 | 213579 12 | 47:27.55 | 1:23.62 | 213580 | 219866 13 | 48:51.42 | 1:47.43 | 219867 | 227934
Range status and errors
Selected range
Filename D:\EAC\Ludwig van Beethoven; Jean-Philippe Rameau - Symphony No. 5, Gavotte mit 6 variationen.wav
Peak level 92.1 % Range quality 100.0 % Copy CRC 5E3A19E5 Copy OK
No errors occurred
AccurateRip summary
Track 1 accurately ripped (confidence 4) [59E96739]Track 2 accurately ripped (confidence 4) [62C284DA]Track 3 accurately ripped (confidence 4) [B0722F15]Track 4 accurately ripped (confidence 4) [2B97733D]Track 5 accurately ripped (confidence 4) [9CEC87DA]Track 6 accurately ripped (confidence 4) [0124BFB3]Track 7 accurately ripped (confidence 4) [F40618DB]Track 8 accurately ripped (confidence 4) [4180FFCA]Track 9 accurately ripped (confidence 4) [48B5E718]Track 10 accurately ripped (confidence 4) [EB400C69]Track 11 accurately ripped (confidence 4) [5E34F258]Track 12 accurately ripped (confidence 4) [8F01EF98]Track 13 accurately ripped (confidence 4) [CB2C0613]
All tracks accurately ripped
End of status report

CD4

Exact Audio Copy V0.99 prebeta 4 from 23. January 2008
EAC extraction logfile from 11. May 2010, 17:06
Otto Klemperer, Wiener Philharmoniker / Bruckner : Symphony No. 5 in B flat major
Used drive : ASUS DRW-1814BLT Adapter: 2 ID: 2
Read mode : SecureUtilize accurate stream : YesDefeat audio cache : YesMake use of C2 pointers : No
Read offset correction : 6Overread into Lead-In and Lead-Out : NoFill up missing offset samples with silence : YesDelete leading and trailing silent blocks : NoNull samples used in CRC calculations : YesUsed interface : Native Win32 interface for Win NT & 2000
Used output format : Internal WAV RoutinesSample format : 44.100 Hz; 16 Bit; Stereo
TOC of the extracted CD
Track | Start | Length | Start sector | End sector --------------------------------------------------------- 1 | 0:00.00 | 21:08.65 | 0 | 95164 2 | 21:08.65 | 15:16.02 | 95165 | 163866 3 | 36:24.67 | 14:26.48 | 163867 | 228864 4 | 50:51.40 | 25:13.50 | 228865 | 342389
Range status and errors
Selected range
Filename D:\EAC\Otto Klemperer, Wiener Philharmoniker - Bruckner Symphony No. 5 in B flat major.wav
Peak level 93.6 % Range quality 99.9 % Copy CRC 2E38B31D Copy OK
No errors occurred
AccurateRip summary
Track 1 accurately ripped (confidence 4) [19D82B73]Track 2 accurately ripped (confidence 4) [B584EC68]Track 3 accurately ripped (confidence 3) [5E5A3FA2]Track 4 accurately ripped (confidence 3) [8A9376FB]
All tracks accurately ripped
End of status report

CD5

Exact Audio Copy V0.99 prebeta 4 from 23. January 2008
EAC extraction logfile from 11. May 2010, 17:22
Otto Klemperer - VPO (CD5) / Mahler - Symphony No. 9 [Mov. I-III]
Used drive : ASUS DRW-1814BLT Adapter: 2 ID: 2
Read mode : SecureUtilize accurate stream : YesDefeat audio cache : YesMake use of C2 pointers : No
Read offset correction : 6Overread into Lead-In and Lead-Out : NoFill up missing offset samples with silence : YesDelete leading and trailing silent blocks : NoNull samples used in CRC calculations : YesUsed interface : Native Win32 interface for Win NT & 2000
Used output format : Internal WAV RoutinesSample format : 44.100 Hz; 16 Bit; Stereo
TOC of the extracted CD
Track | Start | Length | Start sector | End sector --------------------------------------------------------- 1 | 0:00.00 | 0:36.60 | 0 | 2759 2 | 0:36.60 | 27:48.22 | 2760 | 127881 3 | 28:25.07 | 17:55.15 | 127882 | 208521 4 | 46:20.22 | 14:11.65 | 208522 | 272411
Range status and errors
Selected range
Filename D:\EAC\Otto Klemperer - VPO (CD5) - Mahler - Symphony No. 9 [Mov. I-III].wav
Peak level 96.1 % Range quality 100.0 % Copy CRC 4A141A99 Copy OK
No errors occurred
AccurateRip summary
Track 1 accurately ripped (confidence 3) [70F1A319]Track 2 accurately ripped (confidence 4) [E1CCF438]Track 3 accurately ripped (confidence 4) [0F10C4BD]Track 4 accurately ripped (confidence 4) [21D86255]
All tracks accurately ripped
End of status report

CD6

Exact Audio Copy V0.99 prebeta 4 from 23. January 2008
EAC extraction logfile from 11. May 2010, 17:39
Klemperer (CD6) / Mahler, Symph 9, Bach, Brandenburg Concerto No. 1
Used drive : ASUS DRW-1814BLT Adapter: 2 ID: 2
Read mode : SecureUtilize accurate stream : YesDefeat audio cache : YesMake use of C2 pointers : No
Read offset correction : 6Overread into Lead-In and Lead-Out : NoFill up missing offset samples with silence : YesDelete leading and trailing silent blocks : NoNull samples used in CRC calculations : YesUsed interface : Native Win32 interface for Win NT & 2000
Used output format : Internal WAV RoutinesSample format : 44.100 Hz; 16 Bit; Stereo
TOC of the extracted CD
Track | Start | Length | Start sector | End sector --------------------------------------------------------- 1 | 0:00.00 | 24:54.07 | 0 | 112056 2 | 24:54.07 | 0:21.35 | 112057 | 113666 3 | 25:15.42 | 4:48.10 | 113667 | 135276 4 | 30:03.52 | 5:04.58 | 135277 | 158134 5 | 35:08.35 | 5:15.57 | 158135 | 181816 6 | 40:24.17 | 10:36.58 | 181817 | 229574
Range status and errors
Selected range
Filename D:\EAC\Klemperer (CD6) - Mahler, Symph 9, Bach, Brandenburg Concerto No. 1.wav
Peak level 94.9 % Range quality 99.9 % Copy CRC 13801959 Copy OK
No errors occurred
AccurateRip summary
Track 1 accurately ripped (confidence 4) [B653E03A]Track 2 accurately ripped (confidence 3) [B3C27175]Track 3 accurately ripped (confidence 4) [3DD0DAF1]Track 4 accurately ripped (confidence 4) [74FF31F6]Track 5 accurately ripped (confidence 4) [5465E00A]Track 6 accurately ripped (confidence 4) [4EB04C85]
All tracks accurately ripped
End of status report

CD7

Exact Audio Copy V0.99 prebeta 4 from 23. January 2008
EAC extraction logfile from 11. May 2010, 19:33
Klemperer (CD 7) / Strauss Don Juan; Wagner Excerpts
Used drive : ASUS DRW-1814BLT Adapter: 2 ID: 2
Read mode : SecureUtilize accurate stream : YesDefeat audio cache : YesMake use of C2 pointers : No
Read offset correction : 6Overread into Lead-In and Lead-Out : NoFill up missing offset samples with silence : YesDelete leading and trailing silent blocks : NoNull samples used in CRC calculations : YesUsed interface : Native Win32 interface for Win NT & 2000
Used output format : Internal WAV RoutinesSample format : 44.100 Hz; 16 Bit; Stereo
TOC of the extracted CD
Track | Start | Length | Start sector | End sector --------------------------------------------------------- 1 | 0:00.00 | 18:15.45 | 0 | 82169 2 | 18:15.45 | 19:15.72 | 82170 | 168866 3 | 37:31.42 | 0:47.50 | 168867 | 172441 4 | 38:19.17 | 12:10.10 | 172442 | 227201 5 | 50:29.27 | 0:17.23 | 227202 | 228499 6 | 50:46.50 | 11:30.02 | 228500 | 280251
Range status and errors
Selected range
Filename D:\EAC\Klemperer (CD 7) - Strauss Don Juan; Wagner Excerpts.wav
Peak level 95.5 % Range quality 100.0 % Copy CRC 6B593E4F Copy OK
No errors occurred
AccurateRip summary
Track 1 accurately ripped (confidence 4) [96E40F00]Track 2 accurately ripped (confidence 4) [3C2F018F]Track 3 accurately ripped (confidence 4) [9BFB8A9A]Track 4 accurately ripped (confidence 4) [E814FAC3]Track 5 accurately ripped (confidence 4) [C3CB5463]Track 6 accurately ripped (confidence 2) [313B68C3]
All tracks accurately ripped
End of status report

CD8

Exact Audio Copy V0.99 prebeta 4 from 23. January 2008
EAC extraction logfile from 11. May 2010, 19:48
Johannes Brahms / Ein Deutsches Requiem
Used drive : ASUS DRW-1814BLT Adapter: 2 ID: 2
Read mode : SecureUtilize accurate stream : YesDefeat audio cache : YesMake use of C2 pointers : No
Read offset correction : 6Overread into Lead-In and Lead-Out : NoFill up missing offset samples with silence : YesDelete leading and trailing silent blocks : NoNull samples used in CRC calculations : YesUsed interface : Native Win32 interface for Win NT & 2000
Used output format : Internal WAV RoutinesSample format : 44.100 Hz; 16 Bit; Stereo
TOC of the extracted CD
Track | Start | Length | Start sector | End sector --------------------------------------------------------- 1 | 0:00.00 | 0:49.30 | 0 | 3704 2 | 0:49.30 | 9:34.60 | 3705 | 46814 3 | 10:24.15 | 13:33.27 | 46815 | 107816 4 | 23:57.42 | 8:59.55 | 107817 | 148296 5 | 32:57.22 | 5:43.08 | 148297 | 174029 6 | 38:40.30 | 6:31.15 | 174030 | 203369 7 | 45:11.45 | 10:30.37 | 203370 | 250656 8 | 55:42.07 | 10:42.23 | 250657 | 298829
Range status and errors
Selected range
Filename D:\EAC\Johannes Brahms - Ein Deutsches Requiem.wav
Peak level 91.3 % Range quality 100.0 % Copy CRC A2B00AAF Copy OK
No errors occurred
AccurateRip summary
Track 1 accurately ripped (confidence 3) [DD21CAAD]Track 2 accurately ripped (confidence 4) [EB639E35]Track 3 accurately ripped (confidence 4) [0BDAD7FC]Track 4 accurately ripped (confidence 4) [070FF1B4]Track 5 accurately ripped (confidence 4) [7C0EAFDD]Track 6 accurately ripped (confidence 4) [5CDACF07]Track 7 accurately ripped (confidence 4) [E044B3B8]Track 8 accurately ripped (confidence 3) [71479D95]
All tracks accurately ripped
End of status report
[teatrix.ru].t9767.torrent 
Торрент: Зарегистрирован [ 2015-10-23 17:26 ] · 66DAB681B02DE3230143BD88CD5D2508E37E3250

Скачать .torrent

Скачать

17 KB

Статус: проверено
Скачан: 0 раз
Размер: 2.37 GB
terms.php



Быстрый ответ

Имя:

      
Для отправки сообщений необходимо включить JavaScript
Показать сообщения:    

Текущее время: 04-Дек 23:23

Часовой пояс: UTC + 3


Вы можете начинать темы
Вы можете отвечать на сообщения
Вы не можете редактировать свои сообщения
Вы не можете удалять свои сообщения
Вы не можете голосовать в опросах
Вы не можете прикреплять файлы к сообщениям
Вы можете скачивать файлы