(Classical, piano) Andras Schiff - Solo Piano Music (Haydn, Schumann, Handel, Brahms, Reger, Smetana) 6CD - 2007, APE (image+.cue), lossless


Статистика раздачи [Обновить пиров]
Размер:  1.31 GB   |    Зарегистрирован:  1 год 1 месяц   |    Скачан:  1 раз

Полного источника не было: 2 месяца 24 дня

Личеров:  1  [  0 KB/s  ]   Подробная статистика пиров
 
   
 
 
 

[Цитировать]

Andras Schiff - Solo Piano Music (Haydn, Schumann, Handel, Brahms, Reger, Smetana) 6CD
Жанр: Classical, piano
Год выпуска диска: 2007
Производитель диска: Warner Classics, EU
Аудио кодек: APE
Тип рипа: image+.cue
Битрейт аудио: lossless
Продолжительность: 7h01'56''
Трэклист:
CD1
Haydn
1-2 Keyboard Sonata in G minor, H. 16/44 13:36
3-4 Keyboard Sonata in G major, H. 16/40 10:05
5-7 Keyboard Sonata in E minor, H. 16/34 14:43
8-9 Keyboard Sonata in C major, H. 16/48 12:00
10-12 Keyboard Sonata in C minor, H. 16/20 23:22
CD2
Haydn
1. Fantasia (Capriccio) in C major, H. 17/4 6:30
2-4 Keyboard Sonata in E flat major, H. 16/49 20:11
5-7 Keyboard Sonata in C major, H. 16/50 20:13
8-9 Keyboard Sonata in D major, H. 16/51 5:47
10-12 Keyboard Sonata in E flat major, H. 16/52 20:52
CD3
Handel
Suite No.1 in B flat major, HWV 434
1. I. Prelude 1:51
2. II. Sonata 1:31
3. III. Aria con variazioni 3:34
4. IV. Menuet 2:49
Brahms
5. Variations (25) and Fugue on a Theme of Handel in B flat major, Op. 24 26:50
Reger
6. Variations and Fugue on a Theme of J.S. Bach, Op. 81 34:35
CD4
Schumann
1. Arabeske for piano in C major, Op. 18 5:53
2-19 Davidsbundlertanze (18), Op. 6 27:40
20. Blumenstuck for piano in D flat major, Op. 19 6:05
21-33 Symphonic Etudes (2 versions 1852/1837), Op. 13 25:01
34-38 Symphonic Etudes in Variation Form (1-5)(version 1834) 10:48
CD5
Schumann
1-5 Gesange der Fruhe (5), Op. 133 13:11
6-9 Nachtstucke (Night Pieces), Op. 23 16:52
10-17 Kreisleriana, 8 fantasies, Op. 16 29:49
18-23 Variations on an original theme, for piano in E flat major ("Geister-Variationen"), WoO 24 10:45
CD6
Smetana
1-3 Salon Polkas (3) for piano, Op. 7 11:59
4-6 Poetic Polkas (3) for piano, Op. 8 10:20
7. Polka for piano in F minor 2:40
8. Polka for piano in A major 5:20
9-10 Souvenir de Boheme en forme de polkas (Memories of Bohemia), Op. 12 9:34
11. Polka for piano in E major 2:58
12. Polka for piano in G minor 5:35
13-14 Souvenir de Boheme en forme de polkas (Memories of Bohemia), Op. 13 7:59
Andras Schiff, piano
Recording locations: Het Concertgebouw, Amsterdam, December 1994 (CD 3); Kultur- und Veranstaltungszentrum Schlofi Mondsee, January 1995 (CD 4); Teldec Studio, Berlin, January 1997 (CDs 1, 2 & 5), January 1998 (CD 6)
Доп. информация:

отчет EAC CD1

Exact Audio Copy V0.99 prebeta 5 from 4. May 2009
Отчёт EAC об извлечении, выполненном 12. мая 2010, 5:08
Andras Schiff / Joseph Haydn - Piano Sonatas (Disc One)
Дисковод: Optiarc DVD RW AD-7203S Adapter: 2 ID: 1
Режим чтения : Достоверность
Использование точного потока : Да
Отключение кэша аудио : Да
Использование указателей C2 : Нет
Коррекция смещения при чтении : 48
Способность читать области Lead-in и Lead-out : Нет
Заполнение пропущенных сэмплов тишиной : Да
Удаление блоков с тишиной в начале и конце : Нет
При вычислениях CRC использовались нулевые сэмплы : Да
Интерфейс : Встроенный Win32-интерфейс для Win NT/2000
Выходной формат : Внутренние WAV-операции
Формат сэмплов : 44.100 Гц; 16 бит; стерео
TOC извлечённого CD
Трек | Старт | Длительность | Начальный сектор | Конечный сектор
---------------------------------------------------------------------
1 | 0:00.00 | 9:37.57 | 0 | 43331
2 | 9:37.57 | 3:59.13 | 43332 | 61269
3 | 13:36.70 | 7:02.35 | 61270 | 92954
4 | 20:39.30 | 3:03.10 | 92955 | 106689
5 | 23:42.40 | 5:40.70 | 106690 | 132259
6 | 29:23.35 | 5:31.22 | 132260 | 157106
7 | 34:54.57 | 3:32.45 | 157107 | 173051
8 | 38:27.27 | 7:39.28 | 173052 | 207504
9 | 46:06.55 | 4:21.00 | 207505 | 227079
10 | 50:27.55 | 9:53.72 | 227080 | 271626
11 | 60:21.52 | 7:00.60 | 271627 | 303186
12 | 67:22.37 | 6:29.20 | 303187 | 332381
Характеристики диапазона извлечения и сообщения об ошибках
Выбранный диапазон
Имя файла C:\Documents and Settings\Admin\Мои документы\Моя музыка\Andras Schiff - Joseph Haydn - Piano Sonatas (Disc One).wav
Пиковый уровень 77.2 %
Качество диапазона 100.0 %
CRC копии DD78001B
Копирование... OK
Ошибок не произошло
Конец отчёта

отчет EAC CD2

Exact Audio Copy V0.99 prebeta 5 from 4. May 2009
Отчёт EAC об извлечении, выполненном 12. мая 2010, 5:51
Andrбs Schiff / Joseph Haydn - Piano Sonatas (Disc Two)
Дисковод: Optiarc DVD RW AD-7203S Adapter: 2 ID: 1
Режим чтения : Достоверность
Использование точного потока : Да
Отключение кэша аудио : Да
Использование указателей C2 : Нет
Коррекция смещения при чтении : 48
Способность читать области Lead-in и Lead-out : Нет
Заполнение пропущенных сэмплов тишиной : Да
Удаление блоков с тишиной в начале и конце : Нет
При вычислениях CRC использовались нулевые сэмплы : Да
Интерфейс : Встроенный Win32-интерфейс для Win NT/2000
Выходной формат : Внутренние WAV-операции
Формат сэмплов : 44.100 Гц; 16 бит; стерео
TOC извлечённого CD
Трек | Старт | Длительность | Начальный сектор | Конечный сектор
---------------------------------------------------------------------
1 | 0:00.00 | 6:30.12 | 0 | 29261
2 | 6:30.12 | 7:19.15 | 29262 | 62201
3 | 13:49.27 | 8:08.43 | 62202 | 98844
4 | 21:57.70 | 4:44.17 | 98845 | 120161
5 | 26:42.12 | 11:38.50 | 120162 | 172561
6 | 38:20.62 | 6:06.08 | 172562 | 200019
7 | 44:26.70 | 2:29.22 | 200020 | 211216
8 | 46:56.17 | 3:43.33 | 211217 | 227974
9 | 50:39.50 | 2:04.67 | 227975 | 237341
10 | 52:44.42 | 8:43.63 | 237342 | 276629
11 | 61:28.30 | 6:34.55 | 276630 | 306234
12 | 68:03.10 | 5:35.15 | 306235 | 331374
Характеристики диапазона извлечения и сообщения об ошибках
Выбранный диапазон
Имя файла C:\Documents and Settings\Admin\Мои документы\Моя музыка\Andrбs Schiff - Joseph Haydn - Piano Sonatas (Disc Two).wav
Пиковый уровень 98.8 %
Качество диапазона 100.0 %
CRC копии 42AEA22A
Копирование... OK
Ошибок не произошло
Конец отчёта

отчет EAC CD3

Exact Audio Copy V0.99 prebeta 5 from 4. May 2009
Отчёт EAC об извлечении, выполненном 12. мая 2010, 6:10
Andras Schiff / Handel - Brahms - Reger (CD3)
Дисковод: Optiarc DVD RW AD-7203S Adapter: 2 ID: 1
Режим чтения : Достоверность
Использование точного потока : Да
Отключение кэша аудио : Да
Использование указателей C2 : Нет
Коррекция смещения при чтении : 48
Способность читать области Lead-in и Lead-out : Нет
Заполнение пропущенных сэмплов тишиной : Да
Удаление блоков с тишиной в начале и конце : Нет
При вычислениях CRC использовались нулевые сэмплы : Да
Интерфейс : Встроенный Win32-интерфейс для Win NT/2000
Выходной формат : Внутренние WAV-операции
Формат сэмплов : 44.100 Гц; 16 бит; стерео
TOC извлечённого CD
Трек | Старт | Длительность | Начальный сектор | Конечный сектор
---------------------------------------------------------------------
1 | 0:00.00 | 1:51.52 | 0 | 8376
2 | 1:51.52 | 1:31.03 | 8377 | 15204
3 | 3:22.55 | 3:34.15 | 15205 | 31269
4 | 6:56.70 | 2:49.05 | 31270 | 43949
5 | 9:46.00 | 26:59.00 | 43950 | 165374
6 | 36:45.00 | 34:35.45 | 165375 | 321044
Характеристики диапазона извлечения и сообщения об ошибках
Выбранный диапазон
Имя файла C:\Documents and Settings\Admin\Мои документы\Моя музыка\Andras Schiff - Handel - Brahms - Reger (CD3).wav
Пиковый уровень 97.7 %
Качество диапазона 100.0 %
CRC копии 7D789F67
Копирование... OK
Ошибок не произошло
Конец отчёта

отчет EAC CD4

Exact Audio Copy V0.99 prebeta 5 from 4. May 2009
Отчёт EAC об извлечении, выполненном 12. мая 2010, 6:33
Andras Schiff / Schumann (CD4)
Дисковод: Optiarc DVD RW AD-7203S Adapter: 2 ID: 1
Режим чтения : Достоверность
Использование точного потока : Да
Отключение кэша аудио : Да
Использование указателей C2 : Нет
Коррекция смещения при чтении : 48
Способность читать области Lead-in и Lead-out : Нет
Заполнение пропущенных сэмплов тишиной : Да
Удаление блоков с тишиной в начале и конце : Нет
При вычислениях CRC использовались нулевые сэмплы : Да
Интерфейс : Встроенный Win32-интерфейс для Win NT/2000
Выходной формат : Внутренние WAV-операции
Формат сэмплов : 44.100 Гц; 16 бит; стерео
TOC извлечённого CD
Трек | Старт | Длительность | Начальный сектор | Конечный сектор
---------------------------------------------------------------------
1 | 0:00.00 | 5:53.25 | 0 | 26499
2 | 5:53.25 | 1:21.70 | 26500 | 32644
3 | 7:15.20 | 1:22.40 | 32645 | 38834
4 | 8:37.60 | 1:21.07 | 38835 | 44916
5 | 9:58.67 | 1:15.38 | 44917 | 50579
6 | 11:14.30 | 1:36.62 | 50580 | 57841
7 | 12:51.17 | 1:52.23 | 57842 | 66264
8 | 14:43.40 | 2:32.00 | 66265 | 77664
9 | 17:15.40 | 0:37.25 | 77665 | 80464
10 | 17:52.65 | 0:56.47 | 80465 | 84711
11 | 18:49.37 | 1:18.50 | 84712 | 90611
12 | 20:08.12 | 1:04.13 | 90612 | 95424
13 | 21:12.25 | 0:41.07 | 95425 | 98506
14 | 21:53.32 | 2:52.73 | 98507 | 111479
15 | 24:46.30 | 1:21.52 | 111480 | 117606
16 | 26:08.07 | 1:03.18 | 117607 | 122349
17 | 27:11.25 | 1:07.72 | 122350 | 127446
18 | 28:19.22 | 3:50.20 | 127447 | 144716
19 | 32:09.42 | 1:32.65 | 144717 | 151681
20 | 33:42.32 | 6:05.30 | 151682 | 179086
21 | 39:47.62 | 1:45.05 | 179087 | 186966
22 | 41:32.67 | 1:20.53 | 186967 | 193019
23 | 42:53.45 | 3:04.17 | 193020 | 206836
24 | 45:57.62 | 1:20.48 | 206837 | 212884
25 | 47:18.35 | 0:53.35 | 212885 | 216894
26 | 48:11.70 | 1:16.25 | 216895 | 222619
27 | 49:28.20 | 0:52.25 | 222620 | 226544
28 | 50:20.45 | 1:16.15 | 226545 | 232259
29 | 51:36.60 | 2:16.67 | 232260 | 242526
30 | 53:53.52 | 0:42.15 | 242527 | 245691
31 | 54:35.67 | 1:19.13 | 245692 | 251629
32 | 55:55.05 | 2:51.67 | 251630 | 264521
33 | 58:46.72 | 6:07.08 | 264522 | 292054
34 | 64:54.05 | 1:46.10 | 292055 | 300014
35 | 66:40.15 | 2:08.62 | 300015 | 309676
36 | 68:49.02 | 1:18.53 | 309677 | 315579
37 | 70:07.55 | 2:38.70 | 315580 | 327499
38 | 72:46.50 | 2:58.70 | 327500 | 340919
Характеристики диапазона извлечения и сообщения об ошибках
Выбранный диапазон
Имя файла C:\Documents and Settings\Admin\Мои документы\Моя музыка\Andras Schiff - Schumann (CD4).wav
Пиковый уровень 98.8 %
Качество диапазона 100.0 %
CRC копии 76D09E22
Копирование... OK
Ошибок не произошло
Конец отчёта

отчет EAC CD5

Exact Audio Copy V0.99 prebeta 5 from 4. May 2009
Отчёт EAC об извлечении, выполненном 12. мая 2010, 6:58
Andras Schiff / Schumann (CD5)
Дисковод: Optiarc DVD RW AD-7203S Adapter: 2 ID: 1
Режим чтения : Достоверность
Использование точного потока : Да
Отключение кэша аудио : Да
Использование указателей C2 : Нет
Коррекция смещения при чтении : 48
Способность читать области Lead-in и Lead-out : Нет
Заполнение пропущенных сэмплов тишиной : Да
Удаление блоков с тишиной в начале и конце : Нет
При вычислениях CRC использовались нулевые сэмплы : Да
Интерфейс : Встроенный Win32-интерфейс для Win NT/2000
Выходной формат : Внутренние WAV-операции
Формат сэмплов : 44.100 Гц; 16 бит; стерео
TOC извлечённого CD
Трек | Старт | Длительность | Начальный сектор | Конечный сектор
---------------------------------------------------------------------
1 | 0:00.00 | 2:41.50 | 0 | 12124
2 | 2:41.50 | 2:15.60 | 12125 | 22309
3 | 4:57.35 | 2:44.42 | 22310 | 34651
4 | 7:42.02 | 2:24.48 | 34652 | 45499
5 | 10:06.50 | 3:07.62 | 45500 | 59586
6 | 13:14.37 | 4:43.73 | 59587 | 80884
7 | 17:58.35 | 4:27.70 | 80885 | 100979
8 | 22:26.30 | 4:00.12 | 100980 | 118991
9 | 26:26.42 | 3:42.45 | 118992 | 135686
10 | 30:09.12 | 2:47.05 | 135687 | 148216
11 | 32:56.17 | 7:15.63 | 148217 | 180904
12 | 40:12.05 | 4:19.12 | 180905 | 200341
13 | 44:31.17 | 3:15.45 | 200342 | 215011
14 | 47:46.62 | 2:55.18 | 215012 | 228154
15 | 50:42.05 | 3:33.25 | 228155 | 244154
16 | 54:15.30 | 2:14.20 | 244155 | 254224
17 | 56:29.50 | 3:31.52 | 254225 | 270101
18 | 60:01.27 | 1:51.08 | 270102 | 278434
19 | 61:52.35 | 1:32.70 | 278435 | 285404
20 | 63:25.30 | 1:35.20 | 285405 | 292549
21 | 65:00.50 | 1:41.65 | 292550 | 300189
22 | 66:42.40 | 1:37.00 | 300190 | 307464
23 | 68:19.40 | 2:29.27 | 307465 | 318666
Характеристики диапазона извлечения и сообщения об ошибках
Выбранный диапазон
Имя файла C:\Documents and Settings\Admin\Мои документы\Моя музыка\Andras Schiff - Schumann (CD5).wav
Пиковый уровень 91.1 %
Качество диапазона 100.0 %
CRC копии 26C0438B
Копирование... OK
Ошибок не произошло
Конец отчёта

отчет EAC CD6

Exact Audio Copy V0.99 prebeta 5 from 4. May 2009
Отчёт EAC об извлечении, выполненном 12. мая 2010, 7:19
Andras Schiff / Smetana: Polkas (CD6)
Дисковод: Optiarc DVD RW AD-7203S Adapter: 2 ID: 1
Режим чтения : Достоверность
Использование точного потока : Да
Отключение кэша аудио : Да
Использование указателей C2 : Нет
Коррекция смещения при чтении : 48
Способность читать области Lead-in и Lead-out : Нет
Заполнение пропущенных сэмплов тишиной : Да
Удаление блоков с тишиной в начале и конце : Нет
При вычислениях CRC использовались нулевые сэмплы : Да
Интерфейс : Встроенный Win32-интерфейс для Win NT/2000
Выходной формат : Внутренние WAV-операции
Формат сэмплов : 44.100 Гц; 16 бит; стерео
TOC извлечённого CD
Трек | Старт | Длительность | Начальный сектор | Конечный сектор
---------------------------------------------------------------------
1 | 0:00.00 | 5:43.62 | 0 | 25786
2 | 5:43.62 | 4:27.38 | 25787 | 45849
3 | 10:11.25 | 1:49.22 | 45850 | 54046
4 | 12:00.47 | 2:57.65 | 54047 | 67386
5 | 14:58.37 | 4:18.50 | 67387 | 86786
6 | 19:17.12 | 3:05.13 | 86787 | 100674
7 | 22:22.25 | 2:40.62 | 100675 | 112736
8 | 25:03.12 | 5:20.25 | 112737 | 136761
9 | 30:23.37 | 3:06.33 | 136762 | 150744
10 | 33:29.70 | 6:28.67 | 150745 | 179911
11 | 39:58.62 | 2:58.63 | 179912 | 193324
12 | 42:57.50 | 5:35.32 | 193325 | 218481
13 | 48:33.07 | 2:28.55 | 218482 | 229636
14 | 51:01.62 | 5:31.18 | 229637 | 254479
Характеристики диапазона извлечения и сообщения об ошибках
Выбранный диапазон
Имя файла C:\Documents and Settings\Admin\Мои документы\Моя музыка\Andras Schiff - Smetana Polkas (CD6).wav
Пиковый уровень 96.1 %
Качество диапазона 100.0 %
CRC копии A5C872B6
Копирование... OK
Ошибок не произошло
Конец отчёта
[teatrix.ru].t9768.torrent 
Торрент: Зарегистрирован [ 2015-10-23 17:26 ] · 7AC547B354A2D066F682F6598A8981E2CD7AC8CB

Скачать .torrent

Скачать

31 KB

Статус: проверено
Скачан: 1 раз
Размер: 1.31 GB
terms.php



Быстрый ответ

Имя:

      
Для отправки сообщений необходимо включить JavaScript
Показать сообщения:    

Текущее время: 10-Дек 17:46

Часовой пояс: UTC + 3


Вы можете начинать темы
Вы можете отвечать на сообщения
Вы не можете редактировать свои сообщения
Вы не можете удалять свои сообщения
Вы не можете голосовать в опросах
Вы не можете прикреплять файлы к сообщениям
Вы можете скачивать файлы