(classic) Antonin Dvorak - The Concertos, Serenades, Slavonic Dances and Requiem Mass - 2004, FLAC (tracks+.cue), lossless


Статистика раздачи [Обновить пиров]
Размер:  1.52 GB   |    Зарегистрирован:  1 год 1 месяц   |    Скачан:  0 раз

Полного источника не было: Никогда

Личеров:  1  [  0 KB/s  ]   Подробная статистика пиров
 
   
 
 
 

[Цитировать]

Antonin Dvorak - The Concertos, Serenades, Slavonic Dances and Requiem Mass (6cd)
Жанр: classic
Год выпуска диска: 2004
Производитель диска: warner classics
Аудио кодек: FLAC
Тип рипа: tracks+.cue
Битрейт аудио: lossless
Продолжительность: 6 cd
Трэклист:

ТрэклистCD1

Cello Concerto in B minor, op.104 B191 (1896) [38:52]
Mstislav Rostropovich (cello), Boston Symphony Orchestra/Seiji Ozawa
Violin Concerto in B minor, op.53, B.108 (1883) [33:16]
Maxim Vengerov (violin), New York Philharmonic Orchestra/Kurt Masur

CD2

Piano Concerto in G minor op.33 B63 (1878) [39:24]
Pierre-Laurent Aimard (piano), Royal Concertgebouw orchestra/Nicholas Harnoncourt
Romance in F minor for violin and orchestra, op.11 B39 (1879) [11:35]
Thomas Zehetmair (violin), Philharmonia Orchestra/Eliahu Inbal
Silent Woods for cello and orchestra, op.68 no.5 B182 [6:03]
Arto Noras (cello), Kuopio Symphony Orchestra/Markus Lehtinen
Slavonic Rhapsody in D, op.45 no.1 B86 (1878) [12:57]
Czech Philharmonic Orchestra/Vaclav Neumann

CD3

Serenade for Strings in E, op.22 B52 (1875) [29:27]
Serenade in D minor for 2 oboes, 2 clarinets, 2 bassoons, double bassoon, 3 horns, cello and double bass op.44 B77 (1878) [25:00]
The Saint Paul Chamber Orchestra/Hugh Wolff
Arias from ‘Rusalka’, op.114, B203 (1901): Měsнĉku na nebi hlubokém (Act 1) – Song to the Moon [6:20]; Necitelná vodni moci (Act 3 Scene 1) [6:32]
Eva Urbanová (soprano), Prague Symphony Orchestra/Ondrej Lenárd

CD4

Slavonic Dances, op.46 B83 (1878) [36:59]
Slavonic Dances, op.72 B147 (1886) [36:15]
Chamber Orchestra of Europe/Nikolaus Harnoncourt

CD5

Requiem Mass, op.89 B165 (1891) Part 1 [52:57]

CD6

Requiem Mass Part 2 [46:14]
Teresa Zylis-Gara (soprano), Stefania Toczyska (mezzo-soprano), Peter Dvorský (tenor), Leonard Mróz (bass), Chњur de Radio France, Nouvel Orchestre Philharmonique de Radio France/Armin Jordan

ЛогCD1

Exact Audio Copy V0.99 prebeta 4 from 23. January 2008
EAC extraction logfile from 14. August 2008, 17:23
1. / Dvorak - Concertos, Serenades, Slavonic Dances & Requiem Mass - Rostropovich et al
Used drive : HL-DT-STDVDRAM GSA-T20N Adapter: 1 ID: 0
Read mode : Secure
Utilize accurate stream : Yes
Defeat audio cache : No
Make use of C2 pointers : No
Read offset correction : 667
Overread into Lead-In and Lead-Out : No
Fill up missing offset samples with silence : Yes
Delete leading and trailing silent blocks : No
Null samples used in CRC calculations : No
Used interface : Native Win32 interface for Win NT & 2000
Gap handling : Not detected, thus appended to previous track
Used output format : Internal WAV Routines
Sample format : 44.100 Hz; 16 Bit; Stereo
TOC of the extracted CD
Track | Start | Length | Start sector | End sector
---------------------------------------------------------
1 | 0:00.00 | 14:47.24 | 0 | 66548
2 | 14:47.24 | 11:49.61 | 66549 | 119784
3 | 26:37.10 | 12:24.23 | 119785 | 175607
4 | 39:01.33 | 11:26.29 | 175608 | 227086
5 | 50:27.62 | 11:18.43 | 227087 | 277979
6 | 61:46.30 | 10:45.45 | 277980 | 326399
Track 1
Filename F:\=\Dvorak - Concertos, Serenades, Slavonic Dances & Requiem Mass - Rostropovich et al\CD1\1.01 Cello Concerto in b, op104 [Rostropovich, Ozawa, Boston SO] (1) Allegro.wav
Peak level 100.0 %
Track quality 100.0 %
Test CRC A0599209
Copy CRC A0599209
Track not present in AccurateRip database
Copy OK
Track 2
Filename F:\=\Dvorak - Concertos, Serenades, Slavonic Dances & Requiem Mass - Rostropovich et al\CD1\1.02 (2) Adagio ma non troppo.wav
Peak level 86.1 %
Track quality 100.0 %
Test CRC 61EA59DD
Copy CRC 61EA59DD
Track not present in AccurateRip database
Copy OK
Track 3
Filename F:\=\Dvorak - Concertos, Serenades, Slavonic Dances & Requiem Mass - Rostropovich et al\CD1\1.03 (3) Finale- Allegro moderato.wav
Peak level 100.0 %
Track quality 100.0 %
Test CRC 4818C09A
Copy CRC 4818C09A
Track not present in AccurateRip database
Copy OK
Track 4
Filename F:\=\Dvorak - Concertos, Serenades, Slavonic Dances & Requiem Mass - Rostropovich et al\CD1\1.04 Violin Concerto in a, op53 [Vengerov, Masur, NWPO] (1) Allegro ma non troppo.wav
Peak level 98.0 %
Track quality 99.9 %
Test CRC 967C2E88
Copy CRC 967C2E88
Track not present in AccurateRip database
Copy OK
Track 5
Filename F:\=\Dvorak - Concertos, Serenades, Slavonic Dances & Requiem Mass - Rostropovich et al\CD1\1.05 (2) Adagio ma non troppo.wav
Peak level 78.2 %
Track quality 100.0 %
Test CRC 85960957
Copy CRC 85960957
Track not present in AccurateRip database
Copy OK
Track 6
Filename F:\=\Dvorak - Concertos, Serenades, Slavonic Dances & Requiem Mass - Rostropovich et al\CD1\1.06 (3) Finale- Allegro giocoso.wav
Peak level 98.0 %
Track quality 100.0 %
Test CRC 3063E136
Copy CRC 3063E136
Track not present in AccurateRip database
Copy OK
None of the tracks are present in the AccurateRip database
No errors occurred
End of status report

CD2

Exact Audio Copy V0.99 prebeta 4 from 23. January 2008
EAC extraction logfile from 14. August 2008, 17:51
2. / Dvorak - Concertos, Serenades, Slavonic Dances & Requiem Mass - Rostropovich et al
Used drive : HL-DT-STDVDRAM GSA-T20N Adapter: 1 ID: 0
Read mode : Secure
Utilize accurate stream : Yes
Defeat audio cache : No
Make use of C2 pointers : No
Read offset correction : 667
Overread into Lead-In and Lead-Out : No
Fill up missing offset samples with silence : Yes
Delete leading and trailing silent blocks : No
Null samples used in CRC calculations : No
Used interface : Native Win32 interface for Win NT & 2000
Gap handling : Not detected, thus appended to previous track
Used output format : Internal WAV Routines
Sample format : 44.100 Hz; 16 Bit; Stereo
TOC of the extracted CD
Track | Start | Length | Start sector | End sector
---------------------------------------------------------
1 | 0:00.00 | 18:24.43 | 0 | 82842
2 | 18:24.43 | 9:34.38 | 82843 | 125930
3 | 27:59.06 | 11:26.22 | 125931 | 177402
4 | 39:25.28 | 11:41.41 | 177403 | 230018
5 | 51:06.69 | 6:08.02 | 230019 | 257620
6 | 57:14.71 | 12:57.04 | 257621 | 315899
Track 1
Filename F:\=\Dvorak - Concertos, Serenades, Slavonic Dances & Requiem Mass - Rostropovich et al\CD2\2.01 Piano Concerto in g, op33 [Aimard PL, Harnoncourt, RCO] (1) Allegro agitato.wav
Peak level 94.8 %
Track quality 100.0 %
Test CRC 3527A68B
Copy CRC 3527A68B
Track not present in AccurateRip database
Copy OK
Track 2
Filename F:\=\Dvorak - Concertos, Serenades, Slavonic Dances & Requiem Mass - Rostropovich et al\CD2\2.02 (2) Andante sostenuto.wav
Peak level 48.6 %
Track quality 100.0 %
Test CRC C5EAD40B
Copy CRC C5EAD40B
Track not present in AccurateRip database
Copy OK
Track 3
Filename F:\=\Dvorak - Concertos, Serenades, Slavonic Dances & Requiem Mass - Rostropovich et al\CD2\2.03 (3) Allegro con fuoco.wav
Peak level 80.6 %
Track quality 100.0 %
Test CRC B91465FE
Copy CRC B91465FE
Track not present in AccurateRip database
Copy OK
Track 4
Filename F:\=\Dvorak - Concertos, Serenades, Slavonic Dances & Requiem Mass - Rostropovich et al\CD2\2.04 Romance in f, op11 [Zehetmair-vl, Inbal, PO].wav
Peak level 73.9 %
Track quality 100.0 %
Test CRC ABCB0DBB
Copy CRC ABCB0DBB
Track not present in AccurateRip database
Copy OK
Track 5
Filename F:\=\Dvorak - Concertos, Serenades, Slavonic Dances & Requiem Mass - Rostropovich et al\CD2\2.05 Silent Woods, op68 [Noras-vc, Lehtinen, Kuopio SO].wav
Peak level 50.4 %
Track quality 100.0 %
Test CRC A6AC61F5
Copy CRC A6AC61F5
Track not present in AccurateRip database
Copy OK
Track 6
Filename F:\=\Dvorak - Concertos, Serenades, Slavonic Dances & Requiem Mass - Rostropovich et al\CD2\2.06 Slavonic Rhapsody in D, op45_1 [Neumann, Czech PO].wav
Peak level 91.3 %
Track quality 99.9 %
Test CRC 39446887
Copy CRC 39446887
Track not present in AccurateRip database
Copy OK
None of the tracks are present in the AccurateRip database
No errors occurred
End of status report

CD3

Exact Audio Copy V0.99 prebeta 4 from 23. January 2008
EAC extraction logfile from 14. August 2008, 18:38
3. / Dvorak - Concertos, Serenades, Slavonic Dances & Requiem Mass - Rostropovich et al
Used drive : HL-DT-STDVDRAM GSA-T20N Adapter: 1 ID: 0
Read mode : Secure
Utilize accurate stream : Yes
Defeat audio cache : No
Make use of C2 pointers : No
Read offset correction : 667
Overread into Lead-In and Lead-Out : No
Fill up missing offset samples with silence : Yes
Delete leading and trailing silent blocks : No
Null samples used in CRC calculations : No
Used interface : Native Win32 interface for Win NT & 2000
Gap handling : Not detected, thus appended to previous track
Used output format : Internal WAV Routines
Sample format : 44.100 Hz; 16 Bit; Stereo
TOC of the extracted CD
Track | Start | Length | Start sector | End sector
---------------------------------------------------------
1 | 0:00.32 | 4:54.63 | 32 | 22144
2 | 4:55.20 | 6:48.37 | 22145 | 52781
3 | 11:43.57 | 5:32.13 | 52782 | 77694
4 | 17:15.70 | 6:10.62 | 77695 | 105506
5 | 23:26.57 | 6:38.43 | 105507 | 135399
6 | 30:05.25 | 4:11.07 | 135400 | 154231
7 | 34:16.32 | 6:04.63 | 154232 | 181594
8 | 40:21.20 | 8:36.25 | 181595 | 220319
9 | 48:57.45 | 6:22.14 | 220320 | 248983
10 | 55:19.59 | 6:20.05 | 248984 | 277488
11 | 61:39.64 | 6:32.11 | 277489 | 306899
Track 1
Filename F:\=\Dvorak - Concertos, Serenades, Slavonic Dances & Requiem Mass - Rostropovich et al\CD3\3.01 Serenade for Strings in E, op22 [Wolff, Saint Paul CO] (1) Moderato.wav
Peak level 52.1 %
Track quality 99.9 %
Test CRC D3E5EDD5
Copy CRC D3E5EDD5
Track not present in AccurateRip database
Copy OK
Track 2
Filename F:\=\Dvorak - Concertos, Serenades, Slavonic Dances & Requiem Mass - Rostropovich et al\CD3\3.02 (2) Tempo di valse.wav
Peak level 77.2 %
Track quality 100.0 %
Test CRC 3F830C13
Copy CRC 3F830C13
Track not present in AccurateRip database
Copy OK
Track 3
Filename F:\=\Dvorak - Concertos, Serenades, Slavonic Dances & Requiem Mass - Rostropovich et al\CD3\3.03 (3) Scherzo- Vivace.wav
Peak level 70.9 %
Track quality 100.0 %
Test CRC C0A66955
Copy CRC C0A66955
Track not present in AccurateRip database
Copy OK
Track 4
Filename F:\=\Dvorak - Concertos, Serenades, Slavonic Dances & Requiem Mass - Rostropovich et al\CD3\3.04 (5) Finale- Allegro vivace.wav
Peak level 64.4 %
Track quality 100.0 %
Test CRC 7A5B6401
Copy CRC 7A5B6401
Track not present in AccurateRip database
Copy OK
Track 5
Filename F:\=\Dvorak - Concertos, Serenades, Slavonic Dances & Requiem Mass - Rostropovich et al\CD3\3.05 Serenade for Strings in d, op44 [Wolff, Saint Paul CO] (1) Moderato, quasi marcia.wav
Peak level 86.2 %
Track quality 100.0 %
Test CRC FDC1F399
Copy CRC FDC1F399
Track not present in AccurateRip database
Copy OK
Track 6
Filename F:\=\Dvorak - Concertos, Serenades, Slavonic Dances & Requiem Mass - Rostropovich et al\CD3\3.06 (2) Tempo di minuetto.wav
Peak level 79.0 %
Track quality 100.0 %
Test CRC 0A79C66A
Copy CRC 0A79C66A
Track not present in AccurateRip database
Copy OK
Track 7
Filename F:\=\Dvorak - Concertos, Serenades, Slavonic Dances & Requiem Mass - Rostropovich et al\CD3\3.07 (3) Andante con moto.wav
Peak level 89.0 %
Track quality 100.0 %
Test CRC 79036036
Copy CRC 79036036
Track not present in AccurateRip database
Copy OK
Track 8
Filename F:\=\Dvorak - Concertos, Serenades, Slavonic Dances & Requiem Mass - Rostropovich et al\CD3\3.08 (4) Finale- Allegro molto.wav
Peak level 96.8 %
Track quality 100.0 %
Test CRC 9776C5E2
Copy CRC 9776C5E2
Track not present in AccurateRip database
Copy OK
Track 9
Filename F:\=\Dvorak - Concertos, Serenades, Slavonic Dances & Requiem Mass - Rostropovich et al\CD3\3.09 (4) Larghetto.wav
Peak level 97.3 %
Track quality 99.9 %
Test CRC 82FAE319
Copy CRC 82FAE319
Track not present in AccurateRip database
Copy OK
Track 10
Filename F:\=\Dvorak - Concertos, Serenades, Slavonic Dances & Requiem Mass - Rostropovich et al\CD3\3.10 Arias from Rusalka, op114 [Urbanovб, Lenбrd, Prague SO] (1) Song to the Moon.wav
Peak level 90.9 %
Track quality 100.0 %
Test CRC 9517ED37
Copy CRC 9517ED37
Track not present in AccurateRip database
Copy OK
Track 11
Filename F:\=\Dvorak - Concertos, Serenades, Slavonic Dances & Requiem Mass - Rostropovich et al\CD3\3.11 (2) Necitelnб vodnн moci.wav
Peak level 97.9 %
Track quality 100.0 %
Test CRC AF00A438
Copy CRC AF00A438
Track not present in AccurateRip database
Copy OK
None of the tracks are present in the AccurateRip database
No errors occurred
End of status report

CD4

Exact Audio Copy V0.99 prebeta 4 from 23. January 2008
EAC extraction logfile from 14. August 2008, 19:53
4. / Dvorak - Concertos, Serenades, Slavonic Dances & Requiem Mass - Rostropovich et al
Used drive : HL-DT-STDVDRAM GSA-T20N Adapter: 1 ID: 0
Read mode : Secure
Utilize accurate stream : Yes
Defeat audio cache : No
Make use of C2 pointers : No
Read offset correction : 667
Overread into Lead-In and Lead-Out : No
Fill up missing offset samples with silence : Yes
Delete leading and trailing silent blocks : No
Null samples used in CRC calculations : No
Used interface : Native Win32 interface for Win NT & 2000
Gap handling : Not detected, thus appended to previous track
Used output format : Internal WAV Routines
Sample format : 44.100 Hz; 16 Bit; Stereo
TOC of the extracted CD
Track | Start | Length | Start sector | End sector
---------------------------------------------------------
1 | 0:00.00 | 4:07.47 | 0 | 18571
2 | 4:07.47 | 5:00.08 | 18572 | 41079
3 | 9:07.55 | 5:21.42 | 41080 | 65196
4 | 14:29.22 | 7:14.65 | 65197 | 97811
5 | 21:44.12 | 3:15.23 | 97812 | 112459
6 | 24:59.35 | 4:40.32 | 112460 | 133491
7 | 29:39.67 | 3:22.23 | 133492 | 148664
8 | 33:02.15 | 4:07.05 | 148665 | 167194
9 | 37:09.20 | 4:13.05 | 167195 | 186174
10 | 41:22.25 | 5:53.05 | 186175 | 212654
11 | 47:15.30 | 3:36.00 | 212655 | 228854
12 | 50:51.30 | 5:44.27 | 228855 | 254681
13 | 56:35.57 | 2:39.03 | 254682 | 266609
14 | 59:14.60 | 4:06.65 | 266610 | 285124
15 | 63:21.50 | 3:22.02 | 285125 | 300276
16 | 66:43.52 | 6:40.23 | 300277 | 330299
Track 1
Filename F:\=\Dvorak - Concertos, Serenades, Slavonic Dances & Requiem Mass - Rostropovich et al\CD4\4.01 Slavonic Dances, op46 [Harnoncourt, COE] (1) Furiant- Presto.wav
Peak level 89.7 %
Track quality 100.0 %
Test CRC FB81B514
Copy CRC FB81B514
Track not present in AccurateRip database
Copy OK
Track 2
Filename F:\=\Dvorak - Concertos, Serenades, Slavonic Dances & Requiem Mass - Rostropovich et al\CD4\4.02 (2) Dumka- Allegretto scherzando.wav
Peak level 76.7 %
Track quality 100.0 %
Test CRC 7385826F
Copy CRC 7385826F
Track not present in AccurateRip database
Copy OK
Track 3
Filename F:\=\Dvorak - Concertos, Serenades, Slavonic Dances & Requiem Mass - Rostropovich et al\CD4\4.03 (3) Polka- Poco Allegro.wav
Peak level 90.1 %
Track quality 100.0 %
Test CRC DD861C77
Copy CRC DD861C77
Track not present in AccurateRip database
Copy OK
Track 4
Filename F:\=\Dvorak - Concertos, Serenades, Slavonic Dances & Requiem Mass - Rostropovich et al\CD4\4.04 (4) Sousedskб- Tempo di minuetto.wav
Peak level 92.7 %
Track quality 100.0 %
Test CRC 692B354B
Copy CRC 692B354B
Track not present in AccurateRip database
Copy OK
Track 5
Filename F:\=\Dvorak - Concertos, Serenades, Slavonic Dances & Requiem Mass - Rostropovich et al\CD4\4.05 (5) Skocnб- Allegro vivace.wav
Peak level 83.3 %
Track quality 100.0 %
Test CRC 8D484B21
Copy CRC 8D484B21
Track not present in AccurateRip database
Copy OK
Track 6
Filename F:\=\Dvorak - Concertos, Serenades, Slavonic Dances & Requiem Mass - Rostropovich et al\CD4\4.06 (6) Sousedskб- Allegretto scherzando.wav
Peak level 91.2 %
Track quality 100.0 %
Test CRC 201AC2D7
Copy CRC 201AC2D7
Track not present in AccurateRip database
Copy OK
Track 7
Filename F:\=\Dvorak - Concertos, Serenades, Slavonic Dances & Requiem Mass - Rostropovich et al\CD4\4.07 (7) Skocnб- Allegro assai.wav
Peak level 72.7 %
Track quality 100.0 %
Test CRC 5918C4DD
Copy CRC 5918C4DD
Track not present in AccurateRip database
Copy OK
Track 8
Filename F:\=\Dvorak - Concertos, Serenades, Slavonic Dances & Requiem Mass - Rostropovich et al\CD4\4.08 (8) Furiant- Presto.wav
Peak level 92.2 %
Track quality 99.9 %
Test CRC 8383DA66
Copy CRC 8383DA66
Track not present in AccurateRip database
Copy OK
Track 9
Filename F:\=\Dvorak - Concertos, Serenades, Slavonic Dances & Requiem Mass - Rostropovich et al\CD4\4.09 Slavonic Dances, op72 [Harnoncourt, COE] (1) Odzemek- Molto vivace.wav
Peak level 90.6 %
Track quality 100.0 %
Test CRC F865A20F
Copy CRC F865A20F
Track not present in AccurateRip database
Copy OK
Track 10
Filename F:\=\Dvorak - Concertos, Serenades, Slavonic Dances & Requiem Mass - Rostropovich et al\CD4\4.10 (2) Starodбvnэ- Allegretto grazioso.wav
Peak level 40.9 %
Track quality 100.0 %
Test CRC 00DF7150
Copy CRC 00DF7150
Track not present in AccurateRip database
Copy OK
Track 11
Filename F:\=\Dvorak - Concertos, Serenades, Slavonic Dances & Requiem Mass - Rostropovich et al\CD4\4.11 (3) Skocnб- Allegro.wav
Peak level 77.9 %
Track quality 100.0 %
Test CRC BC0A25C0
Copy CRC BC0A25C0
Track not present in AccurateRip database
Copy OK
Track 12
Filename F:\=\Dvorak - Concertos, Serenades, Slavonic Dances & Requiem Mass - Rostropovich et al\CD4\4.12 (4) Dumka- Allegretto grazioso.wav
Peak level 40.5 %
Track quality 99.9 %
Test CRC 0D48C0AA
Copy CRC 0D48C0AA
Track not present in AccurateRip database
Copy OK
Track 13
Filename F:\=\Dvorak - Concertos, Serenades, Slavonic Dances & Requiem Mass - Rostropovich et al\CD4\4.13 (5) Spacirka- Poco adagio.wav
Peak level 76.0 %
Track quality 99.9 %
Test CRC 85A6ADCD
Copy CRC 85A6ADCD
Track not present in AccurateRip database
Copy OK
Track 14
Filename F:\=\Dvorak - Concertos, Serenades, Slavonic Dances & Requiem Mass - Rostropovich et al\CD4\4.14 (6) Starodбvnэ- Moderato, quasi minuetto.wav
Peak level 67.7 %
Track quality 100.0 %
Test CRC C20D5E65
Copy CRC C20D5E65
Track not present in AccurateRip database
Copy OK
Track 15
Filename F:\=\Dvorak - Concertos, Serenades, Slavonic Dances & Requiem Mass - Rostropovich et al\CD4\4.15 (7) Srbske Kolo- Allegro vivace.wav
Peak level 97.2 %
Track quality 100.0 %
Test CRC 6E8ADFA6
Copy CRC 6E8ADFA6
Track not present in AccurateRip database
Copy OK
Track 16
Filename F:\=\Dvorak - Concertos, Serenades, Slavonic Dances & Requiem Mass - Rostropovich et al\CD4\4.16 (8) Sousedskб- Lento grazioso, quasi tempo di valse.wav
Peak level 64.6 %
Track quality 100.0 %
Test CRC 9E723367
Copy CRC 9E723367
Track not present in AccurateRip database
Copy OK
None of the tracks are present in the AccurateRip database
No errors occurred
End of status report

CD5

Exact Audio Copy V0.99 prebeta 4 from 23. January 2008
EAC extraction logfile from 14. August 2008, 20:33
5. / Dvorak - Concertos, Serenades, Slavonic Dances & Requiem Mass - Rostropovich et al
Used drive : HL-DT-STDVDRAM GSA-T20N Adapter: 1 ID: 0
Read mode : Secure
Utilize accurate stream : Yes
Defeat audio cache : No
Make use of C2 pointers : No
Read offset correction : 667
Overread into Lead-In and Lead-Out : No
Fill up missing offset samples with silence : Yes
Delete leading and trailing silent blocks : No
Null samples used in CRC calculations : No
Used interface : Native Win32 interface for Win NT & 2000
Gap handling : Not detected, thus appended to previous track
Used output format : Internal WAV Routines
Sample format : 44.100 Hz; 16 Bit; Stereo
TOC of the extracted CD
Track | Start | Length | Start sector | End sector
---------------------------------------------------------
1 | 0:00.00 | 10:36.41 | 0 | 47740
2 | 10:36.41 | 5:35.55 | 47741 | 72920
3 | 16:12.21 | 2:22.02 | 72921 | 83572
4 | 18:34.23 | 8:47.67 | 83573 | 123164
5 | 27:22.15 | 6:33.30 | 123165 | 152669
6 | 33:55.45 | 7:42.20 | 152670 | 187339
7 | 41:37.65 | 4:37.42 | 187340 | 208156
8 | 46:15.32 | 6:39.50 | 208157 | 238131
Track 1
Filename F:\=\Dvorak - Concertos, Serenades, Slavonic Dances & Requiem Mass - Rostropovich et al\CD5\5.01 Requiem Mass, op89 [Jordan, Radio France NPO & Choir], Part I (1) Introitus.wav
Peak level 80.1 %
Track quality 99.9 %
Test CRC BF4A8FC6
Copy CRC BF4A8FC6
Track not present in AccurateRip database
Copy OK
Track 2
Filename F:\=\Dvorak - Concertos, Serenades, Slavonic Dances & Requiem Mass - Rostropovich et al\CD5\5.02 (2) Graduale [interpreters ctd- Zylis-Gara, Dvorskэ, Tosczyska, Mrуz].wav
Peak level 65.2 %
Track quality 100.0 %
Test CRC 75FAA4A8
Copy CRC 75FAA4A8
Track not present in AccurateRip database
Copy OK
Track 3
Filename F:\=\Dvorak - Concertos, Serenades, Slavonic Dances & Requiem Mass - Rostropovich et al\CD5\5.03 (3) Dies Irae.wav
Peak level 73.6 %
Track quality 100.0 %
Test CRC 2D26D276
Copy CRC 2D26D276
Track not present in AccurateRip database
Copy OK
Track 4
Filename F:\=\Dvorak - Concertos, Serenades, Slavonic Dances & Requiem Mass - Rostropovich et al\CD5\5.04 (4) Tuba Mirum.wav
Peak level 94.8 %
Track quality 100.0 %
Test CRC C40E379A
Copy CRC C40E379A
Track not present in AccurateRip database
Copy OK
Track 5
Filename F:\=\Dvorak - Concertos, Serenades, Slavonic Dances & Requiem Mass - Rostropovich et al\CD5\5.05 (5) Quid sum miser.wav
Peak level 59.6 %
Track quality 100.0 %
Test CRC 8947F4D1
Copy CRC 8947F4D1
Track not present in AccurateRip database
Copy OK
Track 6
Filename F:\=\Dvorak - Concertos, Serenades, Slavonic Dances & Requiem Mass - Rostropovich et al\CD5\5.06 (6) Recordare.wav
Peak level 68.6 %
Track quality 100.0 %
Test CRC 71955D96
Copy CRC 71955D96
Track not present in AccurateRip database
Copy OK
Track 7
Filename F:\=\Dvorak - Concertos, Serenades, Slavonic Dances & Requiem Mass - Rostropovich et al\CD5\5.07 (7) Confutatis maledictus.wav
Peak level 68.1 %
Track quality 100.0 %
Test CRC 98E3C999
Copy CRC 98E3C999
Track not present in AccurateRip database
Copy OK
Track 8
Filename F:\=\Dvorak - Concertos, Serenades, Slavonic Dances & Requiem Mass - Rostropovich et al\CD5\5.08 (8) Lacrymosa.wav
Peak level 66.1 %
Track quality 100.0 %
Test CRC 6AA04A91
Copy CRC 6AA04A91
Track not present in AccurateRip database
Copy OK
None of the tracks are present in the AccurateRip database
No errors occurred
End of status report

CD6

Exact Audio Copy V0.99 prebeta 4 from 23. January 2008
EAC extraction logfile from 14. August 2008, 21:09
6. / Dvorak - Concertos, Serenades, Slavonic Dances & Requiem Mass - Rostropovich et al
Used drive : HL-DT-STDVDRAM GSA-T20N Adapter: 1 ID: 0
Read mode : Secure
Utilize accurate stream : Yes
Defeat audio cache : No
Make use of C2 pointers : No
Read offset correction : 667
Overread into Lead-In and Lead-Out : No
Fill up missing offset samples with silence : Yes
Delete leading and trailing silent blocks : No
Null samples used in CRC calculations : No
Used interface : Native Win32 interface for Win NT & 2000
Gap handling : Not detected, thus appended to previous track
Used output format : Internal WAV Routines
Sample format : 44.100 Hz; 16 Bit; Stereo
TOC of the extracted CD
Track | Start | Length | Start sector | End sector
---------------------------------------------------------
1 | 0:00.00 | 12:19.05 | 0 | 55429
2 | 12:19.05 | 11:35.54 | 55430 | 107608
3 | 23:54.59 | 5:49.17 | 107609 | 133800
4 | 29:44.01 | 4:58.10 | 133801 | 156160
5 | 34:42.11 | 11:30.61 | 156161 | 207971
Track 1
Filename F:\=\Dvorak - Concertos, Serenades, Slavonic Dances & Requiem Mass - Rostropovich et al\CD6\6.01 Requiem Mass, op89, Part II (1) Offertorium.wav
Peak level 73.4 %
Track quality 100.0 %
Test CRC 41DB3B43
Copy CRC 41DB3B43
Track not present in AccurateRip database
Copy OK
Track 2
Filename F:\=\Dvorak - Concertos, Serenades, Slavonic Dances & Requiem Mass - Rostropovich et al\CD6\6.02 (2) Hostias.wav
Peak level 61.2 %
Track quality 100.0 %
Test CRC 10E4E838
Copy CRC 10E4E838
Track not present in AccurateRip database
Copy OK
Track 3
Filename F:\=\Dvorak - Concertos, Serenades, Slavonic Dances & Requiem Mass - Rostropovich et al\CD6\6.03 (3) Sanctus.wav
Peak level 66.8 %
Track quality 100.0 %
Test CRC B0D730A7
Copy CRC B0D730A7
Track not present in AccurateRip database
Copy OK
Track 4
Filename F:\=\Dvorak - Concertos, Serenades, Slavonic Dances & Requiem Mass - Rostropovich et al\CD6\6.04 (4) Pie Jesu.wav
Peak level 16.8 %
Track quality 100.0 %
Test CRC 780764D2
Copy CRC 780764D2
Track not present in AccurateRip database
Copy OK
Track 5
Filename F:\=\Dvorak - Concertos, Serenades, Slavonic Dances & Requiem Mass - Rostropovich et al\CD6\6.05 (5) Agnus Dei.wav
Peak level 66.4 %
Track quality 100.0 %
Test CRC C7759CBB
Copy CRC C7759CBB
Track not present in AccurateRip database
Copy OK
None of the tracks are present in the AccurateRip database
No errors occurred
End of status report

CueCD1

REM GENRE Classical
REM DISCID 5F110006
REM COMMENT "ExactAudioCopy v0.99pb4"
CATALOG 0825646152827
PERFORMER "1."
TITLE "Dvorak - Concertos, Serenades, Slavonic Dances & Requiem Mass - Rostropovich ..."
FILE "1.01 Cello Concerto in b, op104 [Rostropovich, Ozawa, Boston SO] (1) Allegro.wav" WAVE
TRACK 01 AUDIO
TITLE "Cello Concerto in b, op104 [Rostropovich, Ozawa, Boston SO] (1) Allegro"
PERFORMER "1."
ISRC FRZ208508501
INDEX 01 00:00:00
FILE "1.02 (2) Adagio ma non troppo.wav" WAVE
TRACK 02 AUDIO
TITLE "(2) Adagio ma non troppo"
PERFORMER "1."
ISRC FRZ208508502
INDEX 01 00:00:00
FILE "1.03 (3) Finale- Allegro moderato.wav" WAVE
TRACK 03 AUDIO
TITLE "(3) Finale: Allegro moderato"
PERFORMER "1."
ISRC FRZ208508503
INDEX 01 00:00:00
FILE "1.04 Violin Concerto in a, op53 [Vengerov, Masur, NWPO] (1) Allegro ma non troppo.wav" WAVE
TRACK 04 AUDIO
TITLE "Violin Concerto in a, op53 [Vengerov, Masur, NWPO] (1) Allegro ma non troppo"
PERFORMER "1."
ISRC DEA800016401
INDEX 01 00:00:00
FILE "1.05 (2) Adagio ma non troppo.wav" WAVE
TRACK 05 AUDIO
TITLE "(2) Adagio ma non troppo"
PERFORMER "1."
ISRC DEA800016402
INDEX 01 00:00:00
FILE "1.06 (3) Finale- Allegro giocoso.wav" WAVE
TRACK 06 AUDIO
TITLE "(3) Finale: Allegro giocoso"
PERFORMER "1."
ISRC DEA800016403
INDEX 01 00:00:00

CD2

REM DISCID 4D107406
REM COMMENT "ExactAudioCopy v0.99pb4"
CATALOG 0825646152827
PERFORMER "2."
TITLE "Dvorak - Concertos, Serenades, Slavonic Dances & Requiem Mass - Rostropovich ..."
FILE "2.01 Piano Concerto in g, op33 [Aimard PL, Harnoncourt, RCO] (1) Allegro agitato.wav" WAVE
TRACK 01 AUDIO
TITLE "Piano Concerto in g, op33 [Aimard PL, Harnoncourt, RCO] (1) Allegro agitato"
PERFORMER "2."
ISRC DEA800300319
INDEX 01 00:00:00
FILE "2.02 (2) Andante sostenuto.wav" WAVE
TRACK 02 AUDIO
TITLE "(2) Andante sostenuto"
PERFORMER "2."
ISRC DEA800300320
INDEX 01 00:00:00
FILE "2.03 (3) Allegro con fuoco.wav" WAVE
TRACK 03 AUDIO
TITLE "(3) Allegro con fuoco"
PERFORMER "2."
ISRC DEA800300321
INDEX 01 00:00:00
FILE "2.04 Romance in f, op11 [Zehetmair-vl, Inbal, PO].wav" WAVE
TRACK 04 AUDIO
TITLE "Romance in f, op11 [Zehetmair-vl, Inbal, PO]"
PERFORMER "2."
ISRC DEA809017000
INDEX 01 00:00:00
FILE "2.05 Silent Woods, op68 [Noras-vc, Lehtinen, Kuopio SO].wav" WAVE
TRACK 05 AUDIO
TITLE "Silent Woods, op68 [Noras-vc, Lehtinen, Kuopio SO]"
PERFORMER "2."
ISRC FIFIN0400047
INDEX 01 00:00:00
FILE "2.06 Slavonic Rhapsody in D, op45_1 [Neumann, Czech PO].wav" WAVE
TRACK 06 AUDIO
TITLE "Slavonic Rhapsody in D, op45_1 [Neumann, Czech PO]"
PERFORMER "2."
ISRC DEA808205900
INDEX 01 00:00:00

CD3

REM DISCID 8D0FFC0B
REM COMMENT "ExactAudioCopy v0.99pb4"
CATALOG 0825646152827
PERFORMER "3."
TITLE "Dvorak - Concertos, Serenades, Slavonic Dances & Requiem Mass - Rostropovich ..."
FILE "3.01 Serenade for Strings in E, op22 [Wolff, Saint Paul CO] (1) Moderato.wav" WAVE
TRACK 01 AUDIO
TITLE "Serenade for Strings in E, op22 [Wolff, Saint Paul CO] (1) Moderato"
PERFORMER "3."
ISRC DEA809002301
PREGAP 00:00:32
INDEX 01 00:00:00
FILE "3.02 (2) Tempo di valse.wav" WAVE
TRACK 02 AUDIO
TITLE "(2) Tempo di valse"
PERFORMER "3."
ISRC DEA809002302
INDEX 01 00:00:00
FILE "3.03 (3) Scherzo- Vivace.wav" WAVE
TRACK 03 AUDIO
TITLE "(3) Scherzo: Vivace"
PERFORMER "3."
ISRC DEA809002303
INDEX 01 00:00:00
FILE "3.04 (5) Finale- Allegro vivace.wav" WAVE
TRACK 04 AUDIO
TITLE "(5) Finale: Allegro vivace"
PERFORMER "3."
ISRC DEA809002304
INDEX 01 00:00:00
FILE "3.05 Serenade for Strings in d, op44 [Wolff, Saint Paul CO] (1) Moderato, quasi marcia.wav" WAVE
TRACK 05 AUDIO
TITLE "Serenade for Strings in d, op44 [Wolff, Saint Paul CO] (1) Moderato, quasi ma..."
PERFORMER "3."
ISRC DEA809002305
INDEX 01 00:00:00
FILE "3.06 (2) Tempo di minuetto.wav" WAVE
TRACK 06 AUDIO
TITLE "(2) Tempo di minuetto"
PERFORMER "3."
ISRC DEA809002401
INDEX 01 00:00:00
FILE "3.07 (3) Andante con moto.wav" WAVE
TRACK 07 AUDIO
TITLE "(3) Andante con moto"
PERFORMER "3."
ISRC DEA809002402
INDEX 01 00:00:00
FILE "3.08 (4) Finale- Allegro molto.wav" WAVE
TRACK 08 AUDIO
TITLE "(4) Finale: Allegro molto"
PERFORMER "3."
ISRC DEA809002403
INDEX 01 00:00:00
FILE "3.09 (4) Larghetto.wav" WAVE
TRACK 09 AUDIO
TITLE "(4) Larghetto"
PERFORMER "3."
ISRC DEA809002404
INDEX 01 00:00:00
FILE "3.10 Arias from Rusalka, op114 [Urbanovб, Lenбrd, Prague SO] (1) Song to the Moon.wav" WAVE
TRACK 10 AUDIO
TITLE "Arias from Rusalka, op114 [Urbanovб, Lenбrd, Prague SO] (1) Song to the Moon "
PERFORMER "3."
ISRC FRZ209715250
INDEX 01 00:00:00
FILE "3.11 (2) Necitelnб vodnн moci.wav" WAVE
TRACK 11 AUDIO
TITLE "(2) Necitelnб vodnн moci"
PERFORMER "3."
ISRC FRZ209715260
INDEX 01 00:00:00

CD4

REM GENRE Orchestral
REM DATE 2000
REM DISCID E4113410
REM COMMENT "ExactAudioCopy v0.99pb4"
CATALOG 0825646152827
PERFORMER "4."
TITLE "Dvorak - Concertos, Serenades, Slavonic Dances & Requiem Mass - Rostropovich ..."
FILE "4.01 Slavonic Dances, op46 [Harnoncourt, COE] (1) Furiant- Presto.wav" WAVE
TRACK 01 AUDIO
TITLE "Slavonic Dances, op46 [Harnoncourt, COE] (1) Furiant: Presto"
PERFORMER "4."
ISRC DEA800115310
INDEX 01 00:00:00
TRACK 02 AUDIO
TITLE "(2) Dumka: Allegretto scherzando"
PERFORMER "4."
ISRC DEA800115311
INDEX 00 00:03:65
FILE "4.02 (2) Dumka- Allegretto scherzando.wav" WAVE
INDEX 01 00:00:00
FILE "4.03 (3) Polka- Poco Allegro.wav" WAVE
TRACK 03 AUDIO
TITLE "(3) Polka: Poco Allegro"
PERFORMER "4."
ISRC DEA800115312
INDEX 01 00:00:00
FILE "4.04 (4) Sousedskб- Tempo di minuetto.wav" WAVE
TRACK 04 AUDIO
TITLE "(4) Sousedskб: Tempo di minuetto"
PERFORMER "4."
ISRC DEA800115313
INDEX 01 00:00:00
FILE "4.05 (5) Skocnб- Allegro vivace.wav" WAVE
TRACK 05 AUDIO
TITLE "(5) Skocnб: Allegro vivace"
PERFORMER "4."
ISRC DEA800115314
INDEX 01 00:00:00
FILE "4.06 (6) Sousedskб- Allegretto scherzando.wav" WAVE
TRACK 06 AUDIO
TITLE "(6) Sousedskб: Allegretto scherzando"
PERFORMER "4."
ISRC DEA800115315
INDEX 01 00:00:00
FILE "4.07 (7) Skocnб- Allegro assai.wav" WAVE
TRACK 07 AUDIO
TITLE "(7) Skocnб: Allegro assai"
PERFORMER "4."
ISRC DEA800115316
INDEX 01 00:00:00
FILE "4.08 (8) Furiant- Presto.wav" WAVE
TRACK 08 AUDIO
TITLE "(8) Furiant: Presto"
PERFORMER "4."
ISRC DEA800115317
INDEX 01 00:00:00
TRACK 09 AUDIO
TITLE "Slavonic Dances, op72 [Harnoncourt, COE] (1) Odzemek: Molto vivace"
PERFORMER "4."
ISRC DEA800115318
INDEX 00 04:06:71
FILE "4.09 Slavonic Dances, op72 [Harnoncourt, COE] (1) Odzemek- Molto vivace.wav" WAVE
INDEX 01 00:00:00
FILE "4.10 (2) Starodбvnэ- Allegretto grazioso.wav" WAVE
TRACK 10 AUDIO
TITLE "(2) Starodбvnэ: Allegretto grazioso"
PERFORMER "4."
ISRC DEA800115319
INDEX 01 00:00:00
FILE "4.11 (3) Skocnб- Allegro.wav" WAVE
TRACK 11 AUDIO
TITLE "(3) Skocnб: Allegro"
PERFORMER "4."
ISRC DEA800115320
INDEX 01 00:00:00
FILE "4.12 (4) Dumka- Allegretto grazioso.wav" WAVE
TRACK 12 AUDIO
TITLE "(4) Dumka: Allegretto grazioso"
PERFORMER "4."
ISRC DEA800115321
INDEX 01 00:00:00
FILE "4.13 (5) Spacirka- Poco adagio.wav" WAVE
TRACK 13 AUDIO
TITLE "(5) Spacirka: Poco adagio"
PERFORMER "4."
ISRC DEA800115322
INDEX 01 00:00:00
FILE "4.14 (6) Starodбvnэ- Moderato, quasi minuetto.wav" WAVE
TRACK 14 AUDIO
TITLE "(6) Starodбvnэ: Moderato, quasi minuetto"
PERFORMER "4."
ISRC DEA800115323
INDEX 01 00:00:00
FILE "4.15 (7) Srbske Kolo- Allegro vivace.wav" WAVE
TRACK 15 AUDIO
TITLE "(7) Srbske Kolo: Allegro vivace"
PERFORMER "4."
ISRC DEA800115324
INDEX 01 00:00:00
FILE "4.16 (8) Sousedskб- Lento grazioso, quasi tempo di valse.wav" WAVE
TRACK 16 AUDIO
TITLE "(8) Sousedskб: Lento grazioso, quasi tempo di valse"
PERFORMER "4."
ISRC DEA800115325
INDEX 01 00:00:00

CD5

REM GENRE Classical
REM DISCID 7A0C6708
REM COMMENT "ExactAudioCopy v0.99pb4"
CATALOG 0825646152827
PERFORMER "5."
TITLE "Dvorak - Concertos, Serenades, Slavonic Dances & Requiem Mass - Rostropovich ..."
FILE "5.01 Requiem Mass, op89 [Jordan, Radio France NPO & Choir], Part I (1) Introitus.wav" WAVE
TRACK 01 AUDIO
TITLE "Requiem Mass, op89 [Jordan, Radio France NPO & Choir], Part I (1) Introitus"
PERFORMER "5."
ISRC FRZ200300017
INDEX 01 00:00:00
FILE "5.02 (2) Graduale [interpreters ctd- Zylis-Gara, Dvorskэ, Tosczyska, Mrуz].wav" WAVE
TRACK 02 AUDIO
TITLE "(2) Graduale [interpreters ctd: Zylis-Gara, Dvorskэ, Tosczyska, Mrуz]"
PERFORMER "5."
ISRC FRZ200300018
INDEX 01 00:00:00
FILE "5.03 (3) Dies Irae.wav" WAVE
TRACK 03 AUDIO
TITLE "(3) Dies Irae"
PERFORMER "5."
ISRC FRZ200300019
INDEX 01 00:00:00
FILE "5.04 (4) Tuba Mirum.wav" WAVE
TRACK 04 AUDIO
TITLE "(4) Tuba Mirum"
PERFORMER "5."
ISRC FRZ200300020
INDEX 01 00:00:00
FILE "5.05 (5) Quid sum miser.wav" WAVE
TRACK 05 AUDIO
TITLE "(5) Quid sum miser"
PERFORMER "5."
ISRC FRZ200300021
INDEX 01 00:00:00
FILE "5.06 (6) Recordare.wav" WAVE
TRACK 06 AUDIO
TITLE "(6) Recordare"
PERFORMER "5."
ISRC FRZ200300022
INDEX 01 00:00:00
FILE "5.07 (7) Confutatis maledictus.wav" WAVE
TRACK 07 AUDIO
TITLE "(7) Confutatis maledictus"
PERFORMER "5."
ISRC FRZ200300023
INDEX 01 00:00:00
FILE "5.08 (8) Lacrymosa.wav" WAVE
TRACK 08 AUDIO
TITLE "(8) Lacrymosa"
PERFORMER "5."
ISRC FRZ200300024
INDEX 01 00:00:00

CD6

REM GENRE Classical
REM DISCID 400AD405
REM COMMENT "ExactAudioCopy v0.99pb4"
CATALOG 0825646152827
PERFORMER "6."
TITLE "Dvorak - Concertos, Serenades, Slavonic Dances & Requiem Mass - Rostropovich ..."
FILE "6.01 Requiem Mass, op89, Part II (1) Offertorium.wav" WAVE
TRACK 01 AUDIO
TITLE "Requiem Mass, op89, Part II (1) Offertorium"
PERFORMER "6."
ISRC FRZ200300025
INDEX 01 00:00:00
FILE "6.02 (2) Hostias.wav" WAVE
TRACK 02 AUDIO
TITLE "(2) Hostias"
PERFORMER "6."
ISRC FRZ200300026
INDEX 01 00:00:00
FILE "6.03 (3) Sanctus.wav" WAVE
TRACK 03 AUDIO
TITLE "(3) Sanctus"
PERFORMER "6."
ISRC FRZ200300027
INDEX 01 00:00:00
FILE "6.04 (4) Pie Jesu.wav" WAVE
TRACK 04 AUDIO
TITLE "(4) Pie Jesu"
PERFORMER "6."
ISRC FRZ200300028
INDEX 01 00:00:00
FILE "6.05 (5) Agnus Dei.wav" WAVE
TRACK 05 AUDIO
TITLE "(5) Agnus Dei"
PERFORMER "6."
ISRC FRZ200300029
INDEX 01 00:00:00
Доп. информация:
[teatrix.ru].t9769.torrent 
Торрент: Зарегистрирован [ 2015-10-23 17:26 ] · 1C7B672FB0578F3AC5F8390E6F499F90BEAACD59

Скачать .torrent

Скачать

21 KB

Статус: проверено
Скачан: 0 раз
Размер: 1.52 GB
terms.php



Быстрый ответ

Имя:

      
Для отправки сообщений необходимо включить JavaScript
Показать сообщения:    

Текущее время: 04-Дек 17:17

Часовой пояс: UTC + 3


Вы можете начинать темы
Вы можете отвечать на сообщения
Вы не можете редактировать свои сообщения
Вы не можете удалять свои сообщения
Вы не можете голосовать в опросах
Вы не можете прикреплять файлы к сообщениям
Вы можете скачивать файлы