(Classic) Andre Previn - The Great Recordings (EMI)(10CD) - 2009, APE (image+.cue), lossless


Статистика раздачи [Обновить пиров]
Размер:  3.13 GB   |    Зарегистрирован:  1 год 1 месяц   |    Скачан:  0 раз

Полного источника не было: Никогда

Личеров:  1  [  0 KB/s  ]   Подробная статистика пиров
 
   
 
 
 

[Цитировать]

Andre Previn - The Great Recordings (EMI)(10CD)
Жанр: Classic
Год выпуска диска: 2009
Производитель диска: EMI
Аудио кодек: APE
Тип рипа: image+.cue
Битрейт аудио: lossless
Продолжительность: 760 min
Трэклист:

CD1 79:56

Messiaen
1 Turangalila Symphony (1997 Digital Remaster): Introduction 6:51
2 Chant d'amour I 8:37
3 Turangalila I 5:35
4 Chant d'amour II 11:32
5 Joie du sang des etoiles 6:36
6 Jardin du sommiel d'amour 12:29
7 Turangalila II 3:48
8 Developpement de l'amour 11:58
9 Turangalila III 5:18
10 Final 7:10

CD2 74:43

Claude Debussy
1 Prélude à l'après-midi d'un faune 10:30
Images for orchestra
2 Images: I. Gigues 7:17
3 Images, II. Ibéria: 1. Par les rues et par les chemins 7:26
4 Images, II. Ibéria: 2. Les parfums de la nuit - 9:56
5 Images, II. Ibéria: 3. Le matin d'un jour de fête 5:00
6 Images: III. Rondes de printemps 8:90
Trios Nocturnes
7 Nocturnes: I. Nuages 8:30
8 Nocturnes: II. Fêtes 6:42
9 Nocturnes: III. Sirènes (with women's choir) 11:28

CD3 76:41

1 Sergei Rachmaninov - Symphony No. 2 in E minor Op. 27 (1973 Digital Remaster): I. Largo - Allegro moderato 19:10
2 II. Scherzo (Allegro molto) 10:10
3 III. Adagio 15:45
4 IV. Finale (Allegro vivace) 14:70
5 Maurice Ravel - Boléro 17:18

CD4 75:29

1 Shostakovich - Symphony No. 8 in C minor Op. 65 (1995 Digital Remaster): I. Adagio - Allegro non troppo - Adagio 25:80
2 II. Allegretto 5:51
3 III. Allegro non troppo - 5:34
4 IV. Largo - 11:16
5 V. Allegretto 13:24
6 Sergei Prokofiev - Symphony No. 1 in D major Op. 25 (1978 Digital Remaster): I. Allegro 4:70
7 II. Larghetto 4:80
8 III. Gavotte (Non troppo allegro) 1:36
9 IV. Finale (Molto vivace) 4:90

CD5 77:56

1 Sergei Prokofiev - Romeo and Juliet Op. 64, Act I: Introduction 2:50
2 Act I: The street awakens 1:36
3 Act I: Morning Dance 2:70
4 Act I: Juliet as a young girl 3:32
5 Act I: Masks 2:42
6 Act I: Dance of the Knights 5:36
7 Act I: Juliet's Variation 2:35
8 Act I: Balcony scene 3:48
9 Act I: Romeo's Variation 1:28
10 Act I: Love Dance 5:38
11 Act II: Romeo and Mercutio 2:25
12 Act II: Dance with the mandolins 2:40
13 Act II: Romeo with Friar Laurence 3:20
14 Act II: Juliet with Friar Laurence 3:32
15 Act II: The people continue to make merry 3:27
16 Act II: Tybalt and Mercutio fight 1:27
17 Act II: Romeo decides to avenge Mercutio's death 2:90
18 Act II: Finale 1:53
19 Act III: Introduction 1:43
20 Act III: Romeo and Juliet (Juliet's bedroom) 1:27
21 Act III: The last farewell 5:32
22 Act III: Morning Serenade 2:42
23 Act III: Dance of the girls with the lilies 2:40
24 Act III: Juliet's funeral 7:30
25 Act III: Death of Juliet 4:40

CD6 78:07

Pyotr Tchaikovsky
1 Swan Lake - Ballet in four acts Op. 20, Act II: 10. Scène 2:50
2 Act I: 2. Valse 7:20
3 Act II: No.13 Danse des cygnes - IV. Allegro moderato (1988 Digital Remaster) 1:29
4 Act II: No.13 Danse des cygnes - V. Andante non troppo - Allegro (1988 Digital Remaster) 6:00
5 Act III: No.20 Danse hongroise - Danse russe (supplementary number) 2:57
6 Act III: No.21 Danse espagnole 2:32
7 Sleeping Beauty - Ballet Op. 66 (1993 Digital Remaster), ACT I: "The Spell", 8. Pas d'action:: i. Adagio à la rose (Andante - Adagio maestoso) 6:13
8 ACT III: "The Wedding": 24. Pas de caractère (Puss-in-Boots and the White Cat) (Allegro moderato) 1:56
9 ACT II, Scene 1: "The Vision": 17. Panorama (Andantino: The Awakening) 4:20
10 ACT I: "The Spell": 6. Valse (Allegro: Tempo di valse) 5:00
11 ACT III: "The Wedding", 28. Pas de deux (Aurora and Florimund):: vi. Coda (Allegro vivace) 1:21
12 ACT III: "The Wedding": 30. Finale (Allegro brillante: Tempo di mazurka) et Apothéose (Andante molto maestoso) 8:60
13 The Nutcracker - Ballet in two acts Op. 71: Miniature Overture 3:28
14 Act I: March 2:25
15 Act II, Divertissement: Coffee (Arab Dance) 3:13
16 Act II, Divertissement: Tea (Chinese Dance) 1:70
17 Act II, Divertissement: Trepak (Russian Dance) 1:70
18 Act II, Divertissement: Dance of the Reed Flutes 2:18
19 Act II, Pas de deux (The Prince and the Sugar-Plum Fairy): Pas de deux 4:58
20 Act II, Pas de deux (The Prince and the Sugar-Plum Fairy): Variation I (Tarantella) 0:40
21 Act II, Pas de deux (The Prince and the Sugar-Plum Fairy): Variation II (Dance of the Sugar-Plum Fairy) - Coda 3:28
22 Act II: Final Waltz and Apotheosis 4:57

CD7 73:40

1 Walton - Belshazzar's Feast (1986 Digital Remaster): Thus spake Isaiah 6:90
2 If I forget thee, O Jerusalem 2:48
3 By the waters of Babylon 3:42
4 Babylon was a great city 4:25
5 Praise ye the God of Gold 5:18
6 Thus in Babylon the mighty city 3:24
7 And in that same hour, as they feasted 2:18
8 Then sing aloud to God our strength 4:14
9 The trumpeters and pipers are silent 1:28
10 Then sing aloud to God our strength 3:48
11 Edward Elgar - Variations on an Original Theme 'Enigma' Op. 36 (2007 Digital Remaster): Theme (Andante) 1:17
12 I. C.A.E. (the composer's wife) (L'istesso tempo) 1:54
13 II. H.D.S.-P. ( Hew David Steuart-Powell) (Allegro) 0:46
14 III. R.B.T. (Richard Baxter Townshend) (Allegretto) 1:22
15 IV. W.M.B. (William Meath Baker) (Allegro di molto) 0:30
16 V. R.P.A. (Richard Penrose Arnold) (Presto) 2:00
17 VI. Ysobel (Isabel Fitton) (Andantino) 1:23
18 VII. Troyte (Troyte Griffith) (Presto) 0:59
19 VIII. W.N. (Winifred Norbury) (Allegretto) 1:58
20 IX. Nimrod (A. J. Jaeger) (Moderato) 4:35
21 X. Intermezzo: Dorabella (Dora Penny) (Allegretto) 2:42
22 XI. G.R.S. (George Robertson Sinclair) (Allegro di molto) 0:58
23 XII. B.G.N. (Basil G. Nevinson) (Andante) 2:50
24 XIII. Romanza: * * * [Lady Mary Lygon] (Moderato) 2:46
25 XIV. Finale: E.D.U. (the composer) (Allegro) 5:60
26 Williams - Fantasia on 'Greensleeves' (2007 Digital Remaster) 4:38

CD8 74:58

1 Holts - The Planets - Suite H125 (Op. 32) Mars, the Bringer of War 7:00
2 Venus, the Bringer of Peace 8:39
3 Mercury, the Winged Messenger 3:47
4 Jupiter, the Bringer of Jollity 7:41
5 Saturn, the Bringer of Old Age 9:50
6 Uranus, the Magician 5:59
7 Neptune, the Mystic 7:31
8 Benjamin Britten - Four Sea Interludes Op. 33a (from Peter Grimes): I. Dawn (Lento e tranquillo) 3:45
9 II. Sunday Morning (Allegro spiritoso) 3:48
10 III. Moonlight (Andante comodo e rubato) 4:23
11 IV. Storm (Presto con fuoco) 4:28
12 Benjamin Britten - Passacaglia Op. 33b (from Peter Grimes) 7:28

CD9 72:27

1 Carl Orff - Carmina Burana - Cantiones profanae (1997 Digital Remaster), Fortuna Imperatrix Mundi: No. 1 - O Fortuna 2:48
2 Fortuna Imperatrix Mundi: No. 2 - Fortune plango vulnera 2:49
3 I - Primo vere: No. 3 - Veris Ieta facies 4:17
4 I - Primo vere: No. 4 - Omnia Sol temperat 2:70
5 I - Primo vere: No. 5 - Ecce gratum 2:49
6 Uf dem Anger: No. 6 - Tanz 1:40
7 Uf dem Anger: No. 7 - Floret silva 3:26
8 Uf dem Anger: No. 8 - Chramer, gip die varwe mir 3:18
9 Uf dem Anger: No. 9 - Reie - Swaz hie gat umbe - Chume, chum, geselle min - Swaz hie gat umbe 4:44
10 Uf dem Anger: No. 10 - Were diu werlt alle min 0:59
11 II - In taberna: No. 11 - Estuans interius 2:25
12 II - In taberna: No. 12 - Olim lacus colueram 3:46
13 II - In taberna: No. 13 - Ego sum abbas 1:22
14 II - In taberna: No. 14 - In taberna quando sumus 3:24
15 III - Cours d'amour: No.15 - Amor volat undique 3:28
16 III - Cours d'amour: No. 16 - Dies, nox et omnia 2:17
17 III - Cours d'amour: No. 17 - Stetit puella 2:14
18 III - Cours d'amour: No. 18 - Circa mea pectora 2:12
19 III - Cours d'amour: No. 19 - Si puer cum puellula 1:50
20 III - Cours d'amour: No. 20 - Veni, veni, venias 1:30
21 III - Cours d'amour: No. 21 - In trutina 2:31
22 III - Cours d'amour: No. 22 - Tempus est iocundum 2:23
23 III - Cours d'amour: No. 23 - Dulcissime 0:41
24 Blanziflor et Helena: No. 24 - Ave formosissima 1:59
25 Fortuna Imperatrix Mundi: No. 25 - O Fortuna 2:48
26 Samuel Barber - Adagio for Strings Op. 11 (1988 Digital Remaster) 9:34

CD10 76:01

George Gershwin
1 Rhapsody in Blue (orch by Ferde Greofé) (1998 Digital Remaster) 14:52
2 An American in Paris (1998 Digital Remaster) 18:80
3 Concerto in F (1998 Digital Remaster): First movement: Allegro 12:53
4 Second movement: Adagio - Andante con moto 12:25
5 Allegro agitato 6:38
6 Cuban Overture 10:41
Доп. информация:
London Symphony Orchestra
CD1
Michel Beroff - piano
Jeanne Lorlod - ondes martenot
CD2
Prélude à l'après-midi d'un faune - Peter Lloyd - flute
Ambrosian Singers chorus master John McCarthy
CD6
Swan Lake - Ballet in four acts Op. 20 - Ida Haendel - violin
CD7
Walton - Belshazzar's Feast John Shirley-Quirk - baritone
London Symphony Chorus chorus master Arthur Oldman
CD9
Sheila Armstrong - soprano
Geraid English - tenor
Thomas Allen - baritone
St Clement Danes Grammas School Boys Choir chorus master Audrey Clifford
London Symphony Orchestra Chorus chorus master Arthur Oldman
CD10
Andre Previn - piano

Отчёт EAC - CD1

Exact Audio Copy V0.99 prebeta 4 from 23. January 2008
Отчёт EAC об извлечении, выполненном 1. сентября 2009, 12:42
MESSIAEN Olivier / Turnagalila symphonie
Дисковод: HL-DT-STDVDRAM GSA-H62N Adapter: 2 ID: 0
Режим чтения : Достоверность
Использование точного потока : Да
Отключение кэша аудио : Да
Использование указателей C2 : Нет
Коррекция смещения при чтении : 667
Способность читать области Lead-in и Lead-out : Нет
Заполнение пропущенных сэмплов тишиной : Да
Удаление блоков с тишиной в начале и конце : Нет
При вычислениях CRC использовались нулевые сэмплы : Да
Интерфейс : Установленный внешний ASPI-интерфейс
Выходной формат : Внутренние WAV-операции
Формат сэмплов : 44.100 Гц; 16 бит; стерео
TOC извлечённого CD
Трек | Старт | Длительность | Начальный сектор | Конечный сектор
---------------------------------------------------------------------
1 | 0:00.00 | 6:50.63 | 0 | 30812
2 | 6:50.63 | 8:37.35 | 30813 | 69622
3 | 15:28.23 | 5:34.64 | 69623 | 94736
4 | 21:03.12 | 11:32.54 | 94737 | 146690
5 | 32:35.66 | 6:35.61 | 146691 | 176376
6 | 39:11.52 | 12:29.10 | 176377 | 232561
7 | 51:40.62 | 3:48.48 | 232562 | 249709
8 | 55:29.35 | 11:57.60 | 249710 | 303544
9 | 67:27.20 | 5:18.30 | 303545 | 327424
10 | 72:45.50 | 7:10.55 | 327425 | 359729
Характеристики диапазона извлечения и сообщения об ошибках
Выбранный диапазон
Имя файла D:\временная\MESSIAEN Olivier - Turnagalila symphonie.wav
Пиковый уровень 99.5 %
Качество диапазона 100.0 %
CRC копии 8D10801D
Копирование... OK
Ошибок не произошло
AccurateRip: сводка
Трек 1 точное извлечение (доверие 1) [C238319C]
Трек 2 точное извлечение (доверие 1) [38842CAA]
Трек 3 точное извлечение (доверие 1) [342A858B]
Трек 4 точное извлечение (доверие 1) [D0057DB3]
Трек 5 точное извлечение (доверие 1) [759617F4]
Трек 6 точное извлечение (доверие 1) [406E737C]
Трек 7 точное извлечение (доверие 1) [70FC54A1]
Трек 8 точное извлечение (доверие 1) [73C19DAD]
Трек 9 точное извлечение (доверие 1) [AF9A8D2E]
Трек 10 точное извлечение (доверие 1) [03D75AB6]
Все треки извлечены точно
Конец отчёта

Отчёт EAC - CD2

Exact Audio Copy V0.99 prebeta 4 from 23. January 2008
Отчёт EAC об извлечении, выполненном 1. сентября 2009, 13:11
Previn / Debussy Orch Wks Previn LSO
Дисковод: HL-DT-STDVDRAM GSA-H62N Adapter: 2 ID: 0
Режим чтения : Достоверность
Использование точного потока : Да
Отключение кэша аудио : Да
Использование указателей C2 : Нет
Коррекция смещения при чтении : 667
Способность читать области Lead-in и Lead-out : Нет
Заполнение пропущенных сэмплов тишиной : Да
Удаление блоков с тишиной в начале и конце : Нет
При вычислениях CRC использовались нулевые сэмплы : Да
Интерфейс : Установленный внешний ASPI-интерфейс
Выходной формат : Внутренние WAV-операции
Формат сэмплов : 44.100 Гц; 16 бит; стерео
TOC извлечённого CD
Трек | Старт | Длительность | Начальный сектор | Конечный сектор
---------------------------------------------------------------------
1 | 0:00.00 | 10:32.24 | 0 | 47423
2 | 10:32.24 | 7:17.49 | 47424 | 80247
3 | 17:49.73 | 7:26.23 | 80248 | 113720
4 | 25:16.21 | 9:56.56 | 113721 | 158476
5 | 35:13.02 | 5:00.27 | 158477 | 181003
6 | 40:13.29 | 8:16.22 | 181004 | 218225
7 | 48:29.51 | 8:03.28 | 218226 | 254478
8 | 56:33.04 | 6:42.69 | 254479 | 284697
9 | 63:15.73 | 11:27.58 | 284698 | 336280
Характеристики диапазона извлечения и сообщения об ошибках
Выбранный диапазон
Имя файла D:\временная\Previn - Debussy Orch Wks Previn LSO.wav
Пиковый уровень 99.9 %
Качество диапазона 100.0 %
CRC копии 337C4003
Копирование... OK
Ошибок не произошло
AccurateRip: сводка
Трек 1 точное извлечение (доверие 1) [D769BD51]
Трек 2 точное извлечение (доверие 1) [C3847702]
Трек 3 точное извлечение (доверие 1) [5A0F88C7]
Трек 4 точное извлечение (доверие 1) [196D81B9]
Трек 5 точное извлечение (доверие 1) [CCA6E25E]
Трек 6 точное извлечение (доверие 1) [3C40AAA7]
Трек 7 точное извлечение (доверие 1) [A4F452D8]
Трек 8 точное извлечение (доверие 1) [882EB946]
Трек 9 точное извлечение (доверие 1) [33C7D3CF]
Все треки извлечены точно
Конец отчёта

Отчёт EAC - CD3

Exact Audio Copy V0.99 prebeta 4 from 23. January 2008
Отчёт EAC об извлечении, выполненном 1. сентября 2009, 13:43
LSO Years - CD3 / Andrй Previn
Дисковод: HL-DT-STDVDRAM GSA-H62N Adapter: 2 ID: 0
Режим чтения : Достоверность
Использование точного потока : Да
Отключение кэша аудио : Да
Использование указателей C2 : Нет
Коррекция смещения при чтении : 667
Способность читать области Lead-in и Lead-out : Нет
Заполнение пропущенных сэмплов тишиной : Да
Удаление блоков с тишиной в начале и конце : Нет
При вычислениях CRC использовались нулевые сэмплы : Да
Интерфейс : Установленный внешний ASPI-интерфейс
Выходной формат : Внутренние WAV-операции
Формат сэмплов : 44.100 Гц; 16 бит; стерео
TOC извлечённого CD
Трек | Старт | Длительность | Начальный сектор | Конечный сектор
---------------------------------------------------------------------
1 | 0:00.00 | 19:10.35 | 0 | 86284
2 | 19:10.35 | 10:10.00 | 86285 | 132034
3 | 29:20.35 | 15:45.30 | 132035 | 202939
4 | 45:05.65 | 14:17.34 | 202940 | 267248
5 | 59:23.24 | 17:17.66 | 267249 | 345089
Характеристики диапазона извлечения и сообщения об ошибках
Выбранный диапазон
Имя файла D:\временная\LSO Years - CD3 - Andrй Previn.wav
Пиковый уровень 99.8 %
Качество диапазона 100.0 %
CRC копии 6209FFE5
Копирование... OK
Ошибок не произошло
AccurateRip: сводка
Трек 1 точное извлечение (доверие 1) [03054786]
Трек 2 точное извлечение (доверие 1) [052CB9DD]
Трек 3 точное извлечение (доверие 1) [C9E7BC5D]
Трек 4 точное извлечение (доверие 1) [D014946A]
Трек 5 точное извлечение (доверие 1) [B8EBAA16]
Все треки извлечены точно
Конец отчёта

Отчёт EAC - CD4

Exact Audio Copy V0.99 prebeta 4 from 23. January 2008
Отчёт EAC об извлечении, выполненном 1. сентября 2009, 14:17
LSO Years - CD4 / Andrй Previn
Дисковод: HL-DT-STDVDRAM GSA-H62N Adapter: 2 ID: 0
Режим чтения : Достоверность
Использование точного потока : Да
Отключение кэша аудио : Да
Использование указателей C2 : Нет
Коррекция смещения при чтении : 667
Способность читать области Lead-in и Lead-out : Нет
Заполнение пропущенных сэмплов тишиной : Да
Удаление блоков с тишиной в начале и конце : Нет
При вычислениях CRC использовались нулевые сэмплы : Да
Интерфейс : Установленный внешний ASPI-интерфейс
Выходной формат : Внутренние WAV-операции
Формат сэмплов : 44.100 Гц; 16 бит; стерео
TOC извлечённого CD
Трек | Старт | Длительность | Начальный сектор | Конечный сектор
---------------------------------------------------------------------
1 | 0:00.32 | 25:08.38 | 32 | 113169
2 | 25:08.70 | 5:51.20 | 113170 | 139514
3 | 31:00.15 | 5:34.00 | 139515 | 164564
4 | 36:34.15 | 11:16.35 | 164565 | 215299
5 | 47:50.50 | 13:32.09 | 215300 | 276208
6 | 61:22.59 | 4:09.39 | 276209 | 294922
7 | 65:32.23 | 4:09.72 | 294923 | 313669
8 | 69:42.20 | 1:37.44 | 313670 | 320988
9 | 71:19.64 | 4:09.51 | 320989 | 339714
Характеристики диапазона извлечения и сообщения об ошибках
Выбранный диапазон
Имя файла D:\временная\LSO Years - CD4 - Andrй Previn.wav
Пиковый уровень 99.6 %
Качество диапазона 100.0 %
CRC копии 2CDA103D
Копирование... OK
Ошибок не произошло
AccurateRip: сводка
Трек 1 точное извлечение (доверие 1) [16AC9C1C]
Трек 2 точное извлечение (доверие 1) [E4C47FA2]
Трек 3 точное извлечение (доверие 1) [460F8555]
Трек 4 точное извлечение (доверие 1) [F5DBEED2]
Трек 5 точное извлечение (доверие 1) [0DA47CD9]
Трек 6 точное извлечение (доверие 1) [11004D5C]
Трек 7 точное извлечение (доверие 1) [B55E97D2]
Трек 8 точное извлечение (доверие 1) [E798B472]
Трек 9 точное извлечение (доверие 1) [C8175433]
Все треки извлечены точно
Конец отчёта

Отчёт EAC - CD5

Exact Audio Copy V0.99 prebeta 4 from 23. January 2008
Отчёт EAC об извлечении, выполненном 1. сентября 2009, 14:47
LSO Years - CD5 / Andrй Previn
Дисковод: HL-DT-STDVDRAM GSA-H62N Adapter: 2 ID: 0
Режим чтения : Достоверность
Использование точного потока : Да
Отключение кэша аудио : Да
Использование указателей C2 : Нет
Коррекция смещения при чтении : 667
Способность читать области Lead-in и Lead-out : Нет
Заполнение пропущенных сэмплов тишиной : Да
Удаление блоков с тишиной в начале и конце : Нет
При вычислениях CRC использовались нулевые сэмплы : Да
Интерфейс : Установленный внешний ASPI-интерфейс
Выходной формат : Внутренние WAV-операции
Формат сэмплов : 44.100 Гц; 16 бит; стерео
TOC извлечённого CD
Трек | Старт | Длительность | Начальный сектор | Конечный сектор
---------------------------------------------------------------------
1 | 0:00.00 | 2:51.48 | 0 | 12872
2 | 2:51.48 | 1:36.50 | 12873 | 20122
3 | 4:28.23 | 2:08.52 | 20123 | 29774
4 | 6:37.00 | 3:34.12 | 29775 | 45836
5 | 10:11.12 | 2:42.03 | 45837 | 57989
6 | 12:53.15 | 5:36.41 | 57990 | 83230
7 | 18:29.56 | 2:36.46 | 83231 | 94976
8 | 21:06.27 | 3:47.67 | 94977 | 112068
9 | 24:54.19 | 1:27.62 | 112069 | 118655
10 | 26:22.06 | 5:41.59 | 118656 | 144289
11 | 32:03.65 | 2:27.74 | 144290 | 155388
12 | 34:31.64 | 2:06.49 | 155389 | 164887
13 | 36:38.38 | 3:20.40 | 164888 | 179927
14 | 39:59.03 | 3:32.50 | 179928 | 195877
15 | 43:31.53 | 3:29.18 | 195878 | 211570
16 | 47:00.71 | 1:29.32 | 211571 | 218277
17 | 48:30.28 | 2:09.43 | 218278 | 227995
18 | 50:39.71 | 1:57.64 | 227996 | 236834
19 | 52:37.60 | 1:43.32 | 236835 | 244591
20 | 54:21.17 | 1:26.62 | 244592 | 251103
21 | 55:48.04 | 5:33.03 | 251104 | 276081
22 | 61:21.07 | 2:42.25 | 276082 | 288256
23 | 64:03.32 | 2:45.03 | 288257 | 300634
24 | 66:48.35 | 7:03.42 | 300635 | 332401
25 | 73:52.02 | 4:03.70 | 332402 | 350696
Характеристики диапазона извлечения и сообщения об ошибках
Выбранный диапазон
Имя файла D:\временная\LSO Years - CD5 - Andrй Previn.wav
Пиковый уровень 97.7 %
Качество диапазона 100.0 %
CRC копии 4A3616F9
Копирование... OK
Ошибок не произошло
AccurateRip: сводка
Трек 1 точное извлечение (доверие 1) [3C305819]
Трек 2 точное извлечение (доверие 1) [1989C6E1]
Трек 3 точное извлечение (доверие 1) [03AEB68C]
Трек 4 точное извлечение (доверие 1) [574DDFE8]
Трек 5 точное извлечение (доверие 1) [A5BDB4C7]
Трек 6 точное извлечение (доверие 1) [DF1DF4DC]
Трек 7 точное извлечение (доверие 1) [9A17A8E5]
Трек 8 точное извлечение (доверие 1) [28B48DE8]
Трек 9 точное извлечение (доверие 1) [EA0D2A8C]
Трек 10 точное извлечение (доверие 1) [2DEF7F1F]
Трек 11 точное извлечение (доверие 1) [D82CBC0F]
Трек 12 точное извлечение (доверие 1) [C8DB5EB4]
Трек 13 точное извлечение (доверие 1) [5871F746]
Трек 14 точное извлечение (доверие 1) [41D5ACEF]
Трек 15 точное извлечение (доверие 1) [EFA46CBC]
Трек 16 точное извлечение (доверие 1) [3FCBA33D]
Трек 17 точное извлечение (доверие 1) [723A67F0]
Трек 18 точное извлечение (доверие 1) [20227D45]
Трек 19 точное извлечение (доверие 1) [161FAC98]
Трек 20 точное извлечение (доверие 1) [B0C22ADE]
Трек 21 точное извлечение (доверие 1) [34383CEA]
Трек 22 точное извлечение (доверие 1) [5AEB5360]
Трек 23 точное извлечение (доверие 1) [1BD10C84]
Трек 24 точное извлечение (доверие 1) [8C37B830]
Трек 25 точное извлечение (доверие 1) [A10F1F29]
Все треки извлечены точно
Конец отчёта

Отчёт EAC - CD6

Exact Audio Copy V0.99 prebeta 4 from 23. January 2008
Отчёт EAC об извлечении, выполненном 1. сентября 2009, 15:35
LSO Years - CD6 / Andrй Previn
Дисковод: HL-DT-STDVDRAM GSA-H62N Adapter: 2 ID: 0
Режим чтения : Достоверность
Использование точного потока : Да
Отключение кэша аудио : Да
Использование указателей C2 : Нет
Коррекция смещения при чтении : 667
Способность читать области Lead-in и Lead-out : Нет
Заполнение пропущенных сэмплов тишиной : Да
Удаление блоков с тишиной в начале и конце : Нет
При вычислениях CRC использовались нулевые сэмплы : Да
Интерфейс : Установленный внешний ASPI-интерфейс
Выходной формат : Внутренние WAV-операции
Формат сэмплов : 44.100 Гц; 16 бит; стерео
TOC извлечённого CD
Трек | Старт | Длительность | Начальный сектор | Конечный сектор
---------------------------------------------------------------------
1 | 0:00.00 | 2:50.48 | 0 | 12797
2 | 2:50.48 | 7:22.09 | 12798 | 45956
3 | 10:12.57 | 1:31.56 | 45957 | 52837
4 | 11:44.38 | 6:03.26 | 52838 | 80088
5 | 17:47.64 | 3:00.29 | 80089 | 93617
6 | 20:48.18 | 2:34.20 | 93618 | 105187
7 | 23:22.38 | 6:14.55 | 105188 | 133292
8 | 29:37.18 | 2:01.09 | 133293 | 142376
9 | 31:38.27 | 4:04.73 | 142377 | 160749
10 | 35:43.25 | 5:02.67 | 160750 | 183466
11 | 40:46.17 | 1:21.05 | 183467 | 189546
12 | 42:07.22 | 8:09.20 | 189547 | 226241
13 | 50:16.42 | 3:28.68 | 226242 | 241909
14 | 53:45.35 | 2:28.50 | 241910 | 253059
15 | 56:14.10 | 3:13.11 | 253060 | 267545
16 | 59:27.21 | 1:07.08 | 267546 | 272578
17 | 60:34.29 | 1:06.74 | 272579 | 277602
18 | 61:41.28 | 2:20.33 | 277603 | 288135
19 | 64:01.61 | 4:58.41 | 288136 | 310526
20 | 69:00.27 | 0:40.32 | 310527 | 313558
21 | 69:40.59 | 3:28.55 | 313559 | 329213
22 | 73:09.39 | 4:57.57 | 329214 | 351545
Характеристики диапазона извлечения и сообщения об ошибках
Выбранный диапазон
Имя файла D:\временная\LSO Years - CD6 - Andrй Previn.wav
Пиковый уровень 98.1 %
Качество диапазона 100.0 %
CRC копии D732F71B
Копирование... OK
Ошибок не произошло
AccurateRip: сводка
Трек 1 точное извлечение (доверие 1) [C136536F]
Трек 2 точное извлечение (доверие 1) [B519BBCC]
Трек 3 точное извлечение (доверие 1) [4377CA14]
Трек 4 точное извлечение (доверие 1) [1B562D3D]
Трек 5 точное извлечение (доверие 1) [C66860D1]
Трек 6 точное извлечение (доверие 1) [31CFF151]
Трек 7 точное извлечение (доверие 1) [679618BC]
Трек 8 точное извлечение (доверие 1) [9D73CA60]
Трек 9 точное извлечение (доверие 1) [76818EC3]
Трек 10 точное извлечение (доверие 1) [AA0AB5C3]
Трек 11 точное извлечение (доверие 1) [73F4C928]
Трек 12 точное извлечение (доверие 1) [3DBDF166]
Трек 13 точное извлечение (доверие 1) [AC595FF5]
Трек 14 точное извлечение (доверие 1) [5243493E]
Трек 15 точное извлечение (доверие 1) [6849334C]
Трек 16 точное извлечение (доверие 1) [58BB9FB2]
Трек 17 точное извлечение (доверие 1) [7AFC982B]
Трек 18 точное извлечение (доверие 1) [29DA972D]
Трек 19 точное извлечение (доверие 1) [F72374AD]
Трек 20 точное извлечение (доверие 1) [8140190E]
Трек 21 точное извлечение (доверие 1) [AC5AD61F]
Трек 22 точное извлечение (доверие 1) [FA48F629]
Все треки извлечены точно
Конец отчёта

Отчёт EAC - CD7

Exact Audio Copy V0.99 prebeta 4 from 23. January 2008
Отчёт EAC об извлечении, выполненном 1. сентября 2009, 16:06
LSO Years - CD7 / Andrй Previn
Дисковод: HL-DT-STDVDRAM GSA-H62N Adapter: 2 ID: 0
Режим чтения : Достоверность
Использование точного потока : Да
Отключение кэша аудио : Да
Использование указателей C2 : Нет
Коррекция смещения при чтении : 667
Способность читать области Lead-in и Lead-out : Нет
Заполнение пропущенных сэмплов тишиной : Да
Удаление блоков с тишиной в начале и конце : Нет
При вычислениях CRC использовались нулевые сэмплы : Да
Интерфейс : Установленный внешний ASPI-интерфейс
Выходной формат : Внутренние WAV-операции
Формат сэмплов : 44.100 Гц; 16 бит; стерео
TOC извлечённого CD
Трек | Старт | Длительность | Начальный сектор | Конечный сектор
---------------------------------------------------------------------
1 | 0:00.00 | 6:09.25 | 0 | 27699
2 | 6:09.25 | 2:48.00 | 27700 | 40299
3 | 8:57.25 | 3:42.33 | 40300 | 56982
4 | 12:39.58 | 4:25.17 | 56983 | 76874
5 | 17:05.00 | 5:18.08 | 76875 | 100732
6 | 22:23.08 | 3:24.10 | 100733 | 116042
7 | 25:47.18 | 2:18.07 | 116043 | 126399
8 | 28:05.25 | 4:14.06 | 126400 | 145455
9 | 32:19.31 | 1:28.67 | 145456 | 152122
10 | 33:48.23 | 3:54.04 | 152123 | 169676
11 | 37:42.27 | 1:17.22 | 169677 | 175473
12 | 38:59.49 | 1:54.67 | 175474 | 184090
13 | 40:54.41 | 0:46.58 | 184091 | 187598
14 | 41:41.24 | 1:22.41 | 187599 | 193789
15 | 43:03.65 | 0:30.46 | 193790 | 196085
16 | 43:34.36 | 2:00.44 | 196086 | 205129
17 | 45:35.05 | 1:23.41 | 205130 | 211395
18 | 46:58.46 | 0:59.00 | 211396 | 215820
19 | 47:57.46 | 1:58.45 | 215821 | 224715
20 | 49:56.16 | 4:35.27 | 224716 | 245367
21 | 54:31.43 | 2:42.14 | 245368 | 257531
22 | 57:13.57 | 0:58.17 | 257532 | 261898
23 | 58:11.74 | 2:50.09 | 261899 | 274657
24 | 61:02.08 | 2:46.29 | 274658 | 287136
25 | 63:48.37 | 5:13.11 | 287137 | 310622
26 | 69:01.48 | 4:38.43 | 310623 | 331515
Характеристики диапазона извлечения и сообщения об ошибках
Выбранный диапазон
Имя файла D:\временная\LSO Years - CD7 - Andrй Previn.wav
Пиковый уровень 99.9 %
Качество диапазона 100.0 %
CRC копии 0903619C
Копирование... OK
Ошибок не произошло
AccurateRip: сводка
Трек 1 точное извлечение (доверие 1) [64F884D2]
Трек 2 точное извлечение (доверие 1) [4654A48F]
Трек 3 точное извлечение (доверие 1) [742DC7CC]
Трек 4 точное извлечение (доверие 1) [3E818C26]
Трек 5 точное извлечение (доверие 1) [F3E06D1D]
Трек 6 точное извлечение (доверие 1) [A8CE5FCC]
Трек 7 точное извлечение (доверие 1) [0663EF51]
Трек 8 точное извлечение (доверие 1) [BD52DA24]
Трек 9 точное извлечение (доверие 1) [40A98C9A]
Трек 10 точное извлечение (доверие 1) [3F984A60]
Трек 11 точное извлечение (доверие 1) [F74C8A70]
Трек 12 точное извлечение (доверие 1) [86A84E6E]
Трек 13 точное извлечение (доверие 1) [D1AF1B4E]
Трек 14 точное извлечение (доверие 1) [9018873B]
Трек 15 точное извлечение (доверие 1) [0BEB1B8F]
Трек 16 точное извлечение (доверие 1) [2F07EBC0]
Трек 17 точное извлечение (доверие 1) [52B3555E]
Трек 18 точное извлечение (доверие 1) [03517769]
Трек 19 точное извлечение (доверие 1) [670858EE]
Трек 20 точное извлечение (доверие 1) [624CD2BA]
Трек 21 точное извлечение (доверие 1) [B06237C7]
Трек 22 точное извлечение (доверие 1) [CF6AE87F]
Трек 23 точное извлечение (доверие 1) [7D2D2326]
Трек 24 точное извлечение (доверие 1) [E4901887]
Трек 25 точное извлечение (доверие 1) [45DA5BF7]
Трек 26 точное извлечение (доверие 1) [73E784AE]
Все треки извлечены точно
Конец отчёта

Отчёт EAC - CD8

Exact Audio Copy V0.99 prebeta 4 from 23. January 2008
Отчёт EAC об извлечении, выполненном 1. сентября 2009, 16:39
LSO Years - CD8 / Andrй Previn
Дисковод: HL-DT-STDVDRAM GSA-H62N Adapter: 2 ID: 0
Режим чтения : Достоверность
Использование точного потока : Да
Отключение кэша аудио : Да
Использование указателей C2 : Нет
Коррекция смещения при чтении : 667
Способность читать области Lead-in и Lead-out : Нет
Заполнение пропущенных сэмплов тишиной : Да
Удаление блоков с тишиной в начале и конце : Нет
При вычислениях CRC использовались нулевые сэмплы : Да
Интерфейс : Установленный внешний ASPI-интерфейс
Выходной формат : Внутренние WAV-операции
Формат сэмплов : 44.100 Гц; 16 бит; стерео
TOC извлечённого CD
Трек | Старт | Длительность | Начальный сектор | Конечный сектор
---------------------------------------------------------------------
1 | 0:00.00 | 7:06.63 | 0 | 32012
2 | 7:06.63 | 8:44.58 | 32013 | 71370
3 | 15:51.46 | 3:50.66 | 71371 | 88686
4 | 19:42.37 | 7:44.59 | 88687 | 123545
5 | 27:27.21 | 9:53.34 | 123546 | 168054
6 | 37:20.55 | 6:03.48 | 168055 | 195327
7 | 43:24.28 | 7:33.65 | 195328 | 229367
8 | 50:58.18 | 3:44.52 | 229368 | 246219
9 | 54:42.70 | 3:47.49 | 246220 | 263293
10 | 58:30.44 | 4:23.58 | 263294 | 283076
11 | 62:54.27 | 4:35.29 | 283077 | 303730
12 | 67:29.56 | 7:28.31 | 303731 | 337361
Характеристики диапазона извлечения и сообщения об ошибках
Выбранный диапазон
Имя файла D:\временная\LSO Years - CD8 - Andrй Previn.wav
Пиковый уровень 97.7 %
Качество диапазона 99.9 %
CRC копии 7E1A5C79
Копирование... OK
Ошибок не произошло
AccurateRip: сводка
Трек 1 точное извлечение (доверие 1) [E08FAA84]
Трек 2 точное извлечение (доверие 1) [753F7236]
Трек 3 точное извлечение (доверие 1) [9CC0CC17]
Трек 4 точное извлечение (доверие 1) [BB179F0D]
Трек 5 точное извлечение (доверие 1) [B839CDEE]
Трек 6 точное извлечение (доверие 1) [3419D6F6]
Трек 7 точное извлечение (доверие 1) [A9A4F45B]
Трек 8 точное извлечение (доверие 1) [F4EB3327]
Трек 9 точное извлечение (доверие 1) [E9732D9E]
Трек 10 точное извлечение (доверие 1) [3F82610C]
Трек 11 точное извлечение (доверие 1) [653BDBCD]
Трек 12 точное извлечение (доверие 1) [C6696273]
Все треки извлечены точно
Конец отчёта

Отчёт EAC - CD9

Exact Audio Copy V0.99 prebeta 4 from 23. January 2008
Отчёт EAC об извлечении, выполненном 1. сентября 2009, 17:58
LSO Years - CD9 / Andrй Previn
Дисковод: HL-DT-STDVDRAM GSA-H62N Adapter: 2 ID: 0
Режим чтения : Достоверность
Использование точного потока : Да
Отключение кэша аудио : Да
Использование указателей C2 : Нет
Коррекция смещения при чтении : 667
Способность читать области Lead-in и Lead-out : Нет
Заполнение пропущенных сэмплов тишиной : Да
Удаление блоков с тишиной в начале и конце : Нет
При вычислениях CRC использовались нулевые сэмплы : Да
Интерфейс : Установленный внешний ASPI-интерфейс
Выходной формат : Внутренние WAV-операции
Формат сэмплов : 44.100 Гц; 16 бит; стерео
TOC извлечённого CD
Трек | Старт | Длительность | Начальный сектор | Конечный сектор
---------------------------------------------------------------------
1 | 0:00.32 | 2:48.15 | 32 | 12646
2 | 2:48.47 | 2:49.48 | 12647 | 25369
3 | 5:38.20 | 4:17.37 | 25370 | 44681
4 | 9:55.57 | 2:07.20 | 44682 | 54226
5 | 12:03.02 | 2:49.33 | 54227 | 66934
6 | 14:52.35 | 1:40.22 | 66935 | 74456
7 | 16:32.57 | 3:26.30 | 74457 | 89936
8 | 19:59.12 | 3:18.08 | 89937 | 104794
9 | 23:17.20 | 4:44.47 | 104795 | 126141
10 | 28:01.67 | 0:59.45 | 126142 | 130611
11 | 29:01.37 | 2:25.14 | 130612 | 141500
12 | 31:26.51 | 3:46.54 | 141501 | 158504
13 | 35:13.30 | 1:22.02 | 158505 | 164656
14 | 36:35.32 | 3:24.50 | 164657 | 180006
15 | 40:00.07 | 3:28.03 | 180007 | 195609
16 | 43:28.10 | 2:17.12 | 195610 | 205896
17 | 45:45.22 | 2:14.40 | 205897 | 215986
18 | 47:59.62 | 2:11.68 | 215987 | 225879
19 | 50:11.55 | 1:05.07 | 225880 | 230761
20 | 51:16.62 | 1:03.53 | 230762 | 235539
21 | 52:20.40 | 2:30.70 | 235540 | 246859
22 | 54:51.35 | 2:22.65 | 246860 | 257574
23 | 57:14.25 | 0:41.22 | 257575 | 260671
24 | 57:55.47 | 1:59.48 | 260672 | 269644
25 | 59:55.20 | 2:58.27 | 269645 | 283021
26 | 62:53.47 | 9:33.71 | 283022 | 326067
Характеристики диапазона извлечения и сообщения об ошибках
Выбранный диапазон
Имя файла D:\временная\LSO Years - CD9 - Andrй Previn.wav
Пиковый уровень 99.7 %
Качество диапазона 100.0 %
CRC копии 7E979ABE
Копирование... OK
Ошибок не произошло
AccurateRip: сводка
Трек 1 точное извлечение (доверие 1) [8C7D92A4]
Трек 2 точное извлечение (доверие 1) [9A1A187B]
Трек 3 точное извлечение (доверие 1) [98984A29]
Трек 4 точное извлечение (доверие 1) [516184BF]
Трек 5 точное извлечение (доверие 1) [2232F78E]
Трек 6 точное извлечение (доверие 1) [E3A86063]
Трек 7 точное извлечение (доверие 1) [E8707C7D]
Трек 8 точное извлечение (доверие 1) [757982F3]
Трек 9 точное извлечение (доверие 1) [169C5D79]
Трек 10 точное извлечение (доверие 1) [362FFF3D]
Трек 11 точное извлечение (доверие 1) [0A5D34B0]
Трек 12 точное извлечение (доверие 1) [E0812D15]
Трек 13 точное извлечение (доверие 1) [B2CA002E]
Трек 14 точное извлечение (доверие 1) [E1290B18]
Трек 15 точное извлечение (доверие 1) [A526C7C8]
Трек 16 точное извлечение (доверие 1) [8FACCB12]
Трек 17 точное извлечение (доверие 1) [5CE3B802]
Трек 18 точное извлечение (доверие 1) [A2F37D08]
Трек 19 точное извлечение (доверие 1) [B9501666]
Трек 20 точное извлечение (доверие 1) [F1E235E2]
Трек 21 точное извлечение (доверие 1) [25BFDCA0]
Трек 22 точное извлечение (доверие 1) [2CA792E0]
Трек 23 точное извлечение (доверие 1) [6458769A]
Трек 24 точное извлечение (доверие 1) [77896C71]
Трек 25 точное извлечение (доверие 1) [8B85961C]
Трек 26 точное извлечение (доверие 1) [B5F1B684]
Все треки извлечены точно
Конец отчёта

Отчёт EAC - CD10

Exact Audio Copy V0.99 prebeta 4 from 23. January 2008
Отчёт EAC об извлечении, выполненном 1. сентября 2009, 18:25
LSO Years - CD10 / Andrй Previn
Дисковод: HL-DT-STDVDRAM GSA-H62N Adapter: 2 ID: 0
Режим чтения : Достоверность
Использование точного потока : Да
Отключение кэша аудио : Да
Использование указателей C2 : Нет
Коррекция смещения при чтении : 667
Способность читать области Lead-in и Lead-out : Нет
Заполнение пропущенных сэмплов тишиной : Да
Удаление блоков с тишиной в начале и конце : Нет
При вычислениях CRC использовались нулевые сэмплы : Да
Интерфейс : Установленный внешний ASPI-интерфейс
Выходной формат : Внутренние WAV-операции
Формат сэмплов : 44.100 Гц; 16 бит; стерео
TOC извлечённого CD
Трек | Старт | Длительность | Начальный сектор | Конечный сектор
---------------------------------------------------------------------
1 | 0:00.00 | 14:59.40 | 0 | 67464
2 | 14:59.40 | 18:17.02 | 67465 | 149741
3 | 33:16.42 | 12:52.63 | 149742 | 207704
4 | 46:09.30 | 12:25.57 | 207705 | 263636
5 | 58:35.12 | 6:45.05 | 263637 | 294016
6 | 65:20.17 | 10:41.15 | 294017 | 342106
Характеристики диапазона извлечения и сообщения об ошибках
Выбранный диапазон
Имя файла D:\временная\LSO Years - CD10 - Andrй Previn.wav
Пиковый уровень 95.0 %
Качество диапазона 100.0 %
CRC копии 60D6E2EA
Копирование... OK
Ошибок не произошло
AccurateRip: сводка
Трек 1 точное извлечение (доверие 1) [DD39E268]
Трек 2 точное извлечение (доверие 1) [5BFD6F16]
Трек 3 точное извлечение (доверие 1) [1715EEA3]
Трек 4 точное извлечение (доверие 1) [BA3BE645]
Трек 5 точное извлечение (доверие 1) [6162A5DE]
Трек 6 точное извлечение (доверие 1) [CAB4B34F]
Все треки извлечены точно
Конец отчёта
[teatrix.ru].t9770.torrent 
Торрент: Зарегистрирован [ 2015-10-23 17:26 ] · 4C66E21F04A5E7B57E997455852544651C8D6808

Скачать .torrent

Скачать

19 KB

Статус: проверено
Скачан: 0 раз
Размер: 3.13 GB
terms.php



Быстрый ответ

Имя:

      
Для отправки сообщений необходимо включить JavaScript
Показать сообщения:    

Текущее время: 04-Дек 15:18

Часовой пояс: UTC + 3


Вы можете начинать темы
Вы можете отвечать на сообщения
Вы не можете редактировать свои сообщения
Вы не можете удалять свои сообщения
Вы не можете голосовать в опросах
Вы не можете прикреплять файлы к сообщениям
Вы можете скачивать файлы