(Classic) Beethoven - Symphonies No. 7,9; Brahms - Symphony No.3; Dvorak - Symphony No.8; Schubert - Symphony No.9; Bedrich Smetana, Leos Janacek, Carl Maria von Weber - Klaus Tennstedt (4CD) - 2007, APE (image+.cue), lossless


Статистика раздачи [Обновить пиров]
Размер:  1.38 GB   |    Зарегистрирован:  1 год 1 месяц   |    Скачан:  0 раз

Полного источника не было: Никогда

Личеров:  1  [  0 KB/s  ]   Подробная статистика пиров
 
   
 
 
 

[Цитировать]

Klaus Tennstedt - Portrait of a Legend (4CD)
Жанр: Classic
Год выпуска диска: 2007
Производитель диска: BBC
Аудио кодек: APE
Тип рипа: image+.cue
Битрейт аудио: lossless
Продолжительность: CD1 68:24,CD2 72:23,CD3 73:20,CD4 73:57
Трэклист:
CD1
Ludwig van Beethoven - Symphony No. 9 in D minor, 'Choral' Op. 125
1 I. Allegro ma non troppo, un poco maestoso
2 II. Molto vivace - Presto - Molto vivace - Presto
3 III. Adagio molto e cantabile - Andante moderato
4 IV. Presto - Allegro ma non troppo - Allegro assai - Allegro assai vivace - Alla marcia - Andante maestoso - Allegro energico, sempre ben marcato - Allegro ma non tanto - Poco adagio - Prestissimo
CD2
Bedrich Smetana The Bartered Bride: Overture
Antonin Dvorak Symphony No.8 in G major, Op.88 - I. Allegro con brio
II. Adagio
III. Allegretto grazioso - Molto vivace
IV. Allegro ma non troppo
Leos Janacek Sinfonietta - I. Allegretto - Allegro - Maestoso
II. Andante - Allegretto - Maestoso - Tempo I
III. Moderato - Con moto - Piu mosso - Prestissimo...
IV. Allegretto
V. Andante con moto - Maestoso - Tempo I - Allegre...
CD3
Ludwig van Beethoven Symphony No.7 in A major, Op.92 - I. Poco sostenuto - Vivace
II. Allegretto
III. Presto
IV. Allegro con brio
Johann Brahms Symphony No.3 in F major, Op.90 - I. Allegro con brio
II. Andante
III. Poco allegretto
IV. Allegro
CD4
Carl Maria von Weber: Oberon Overture
Schubert Symphony No.9 in C major, D944 'The Great' - I. Andante - Allegro ma non troppo
II. Andante con moto
III. Scherzo. Allegro vivace - Trio
IV. Finale. Allegro vivace
Johannes Brahms: Tragic Overture, Op.81
Доп. информация:
Klaus Tennstedt
London Philharmonic Orchestra
London Philharmonic Chorus
CD1
Symphony No.9 in D minor Op.125
Mari Anne Haggander, soprano
Alfreda Hodgson, contralto
Robert Tear, tenor
Gwynne Howell, bass

Отчёт EAC CD1

Exact Audio Copy V0.99 prebeta 4 from 23. January 2008
Отчёт EAC об извлечении, выполненном 1. сентября 2009, 20:07
London Philharmonic Choir and Orchestra & Klaus Tennstedt / TennstedtЎEPortrait of a Legend (Disc 1)
Дисковод: HL-DT-STDVDRAM GSA-H62N Adapter: 2 ID: 0
Режим чтения : Достоверность
Использование точного потока : Да
Отключение кэша аудио : Да
Использование указателей C2 : Нет
Коррекция смещения при чтении : 667
Способность читать области Lead-in и Lead-out : Нет
Заполнение пропущенных сэмплов тишиной : Да
Удаление блоков с тишиной в начале и конце : Нет
При вычислениях CRC использовались нулевые сэмплы : Да
Интерфейс : Установленный внешний ASPI-интерфейс
Выходной формат : Внутренние WAV-операции
Формат сэмплов : 44.100 Гц; 16 бит; стерео
TOC извлечённого CD
Трек | Старт | Длительность | Начальный сектор | Конечный сектор
---------------------------------------------------------------------
1 | 0:00.00 | 16:20.67 | 0 | 73566
2 | 16:20.67 | 11:15.23 | 73567 | 124214
3 | 27:36.15 | 16:51.50 | 124215 | 200089
4 | 44:27.65 | 6:12.20 | 200090 | 228009
5 | 50:40.10 | 17:42.57 | 228010 | 307716
Характеристики диапазона извлечения и сообщения об ошибках
Выбранный диапазон
Имя файла D:\временная\London Philharmonic Choir and Orchestra & Klaus Tennstedt - TennstedtЎEPortrait of a Legend (Disc 1).wav
Пиковый уровень 97.0 %
Качество диапазона 100.0 %
CRC копии 67C19BF4
Копирование... OK
Ошибок не произошло
AccurateRip: сводка
Трек 1 точность не определена (достоверность 3) [0F1672E4], AccurateRip вернул [50E10369]
Трек 2 точность не определена (достоверность 3) [446B0418], AccurateRip вернул [130A430F]
Трек 3 точность не определена (достоверность 2) [E5B7982E], AccurateRip вернул [3C12DD37]
Трек 4 точность не определена (достоверность 3) [54C14D72], AccurateRip вернул [616D4C56]
Трек 5 точность не определена (достоверность 2) [6957AC9C], AccurateRip вернул [89C0204F]
Ни один трек не прошёл проверки на точность
В вашей базе может быть иной вариант штамповки диска
Конец отчёта

Отчёт EAC CD2

Exact Audio Copy V0.99 prebeta 4 from 23. January 2008
Отчёт EAC об извлечении, выполненном 1. сентября 2009, 20:38
London Philharmonic Orchestra & Klaus Tennstedt / TennstedtЎEPortrait of a Legend (Disc 2)
Дисковод: HL-DT-STDVDRAM GSA-H62N Adapter: 2 ID: 0
Режим чтения : Достоверность
Использование точного потока : Да
Отключение кэша аудио : Да
Использование указателей C2 : Нет
Коррекция смещения при чтении : 667
Способность читать области Lead-in и Lead-out : Нет
Заполнение пропущенных сэмплов тишиной : Да
Удаление блоков с тишиной в начале и конце : Нет
При вычислениях CRC использовались нулевые сэмплы : Да
Интерфейс : Установленный внешний ASPI-интерфейс
Выходной формат : Внутренние WAV-операции
Формат сэмплов : 44.100 Гц; 16 бит; стерео
TOC извлечённого CD
Трек | Старт | Длительность | Начальный сектор | Конечный сектор
---------------------------------------------------------------------
1 | 0:00.00 | 7:26.00 | 0 | 33449
2 | 7:26.00 | 11:15.42 | 33450 | 84116
3 | 18:41.42 | 11:37.13 | 84117 | 136404
4 | 30:18.55 | 6:27.35 | 136405 | 165464
5 | 36:46.15 | 10:38.00 | 165465 | 213314
6 | 47:24.15 | 2:19.52 | 213315 | 223791
7 | 49:43.67 | 6:26.08 | 223792 | 252749
8 | 56:10.00 | 5:42.25 | 252750 | 278424
9 | 61:52.25 | 2:48.35 | 278425 | 291059
10 | 64:40.60 | 7:40.22 | 291060 | 325581
Характеристики диапазона извлечения и сообщения об ошибках
Выбранный диапазон
Имя файла D:\временная\London Philharmonic Orchestra & Klaus Tennstedt - TennstedtЎEPortrait of a Legend (Disc 2).wav
Пиковый уровень 99.9 %
Качество диапазона 99.9 %
CRC копии 7CF04CC1
Копирование... OK
Ошибок не произошло
AccurateRip: сводка
Трек 1 точное извлечение (доверие 3) [319F6AE3]
Трек 2 точное извлечение (доверие 3) [C476245C]
Трек 3 точное извлечение (доверие 3) [E9907350]
Трек 4 точное извлечение (доверие 3) [A0942094]
Трек 5 точное извлечение (доверие 3) [BE1C95D9]
Трек 6 точное извлечение (доверие 3) [26CF8945]
Трек 7 точное извлечение (доверие 3) [E7BDF004]
Трек 8 точное извлечение (доверие 3) [268B6584]
Трек 9 точное извлечение (доверие 3) [04E7BD9C]
Трек 10 точное извлечение (доверие 3) [3BBF6ADA]
Все треки извлечены точно
Конец отчёта

Отчёт EAC CD3

Exact Audio Copy V0.99 prebeta 4 from 23. January 2008
Отчёт EAC об извлечении, выполненном 1. сентября 2009, 21:20
London Philharmonic Orchestra & Klaus Tennstedt / TennstedtЎEPortrait of a Legend (Disc 3)
Дисковод: HL-DT-STDVDRAM GSA-H62N Adapter: 2 ID: 0
Режим чтения : Достоверность
Использование точного потока : Да
Отключение кэша аудио : Да
Использование указателей C2 : Нет
Коррекция смещения при чтении : 667
Способность читать области Lead-in и Lead-out : Нет
Заполнение пропущенных сэмплов тишиной : Да
Удаление блоков с тишиной в начале и конце : Нет
При вычислениях CRC использовались нулевые сэмплы : Да
Интерфейс : Установленный внешний ASPI-интерфейс
Выходной формат : Внутренние WAV-операции
Формат сэмплов : 44.100 Гц; 16 бит; стерео
TOC извлечённого CD
Трек | Старт | Длительность | Начальный сектор | Конечный сектор
---------------------------------------------------------------------
1 | 0:00.00 | 12:34.02 | 0 | 56551
2 | 12:34.02 | 8:40.05 | 56552 | 95556
3 | 21:14.07 | 8:19.48 | 95557 | 133029
4 | 29:33.55 | 7:10.10 | 133030 | 165289
5 | 36:43.65 | 10:29.25 | 165290 | 212489
6 | 47:13.15 | 9:39.35 | 212490 | 255949
7 | 56:52.50 | 6:54.35 | 255950 | 287034
8 | 63:47.10 | 9:31.40 | 287035 | 329899
Характеристики диапазона извлечения и сообщения об ошибках
Выбранный диапазон
Имя файла D:\временная\London Philharmonic Orchestra & Klaus Tennstedt - TennstedtЎEPortrait of a Legend (Disc 3).wav
Пиковый уровень 97.6 %
Качество диапазона 100.0 %
CRC копии F2F066E3
Копирование... OK
Ошибок не произошло
AccurateRip: сводка
Трек 1 точное извлечение (доверие 1) [055DAC2E]
Трек 2 точное извлечение (доверие 1) [1D94643A]
Трек 3 точное извлечение (доверие 1) [90A8CE32]
Трек 4 точное извлечение (доверие 1) [7FD8087D]
Трек 5 точное извлечение (доверие 1) [A2C9CE1D]
Трек 6 точное извлечение (доверие 1) [0010755C]
Трек 7 точное извлечение (доверие 1) [D07173A4]
Трек 8 точное извлечение (доверие 1) [D82CF206]
Все треки извлечены точно
Конец отчёта

Отчёт EAC CD4

Exact Audio Copy V0.99 prebeta 4 from 23. January 2008
Отчёт EAC об извлечении, выполненном 1. сентября 2009, 21:51
London Philharmonic Orchestra & Klaus Tennstedt / TennstedtЎEPortrait of a Legend (Disc 4)
Дисковод: HL-DT-STDVDRAM GSA-H62N Adapter: 2 ID: 0
Режим чтения : Достоверность
Использование точного потока : Да
Отключение кэша аудио : Да
Использование указателей C2 : Нет
Коррекция смещения при чтении : 667
Способность читать области Lead-in и Lead-out : Нет
Заполнение пропущенных сэмплов тишиной : Да
Удаление блоков с тишиной в начале и конце : Нет
При вычислениях CRC использовались нулевые сэмплы : Да
Интерфейс : Установленный внешний ASPI-интерфейс
Выходной формат : Внутренние WAV-операции
Формат сэмплов : 44.100 Гц; 16 бит; стерео
TOC извлечённого CD
Трек | Старт | Длительность | Начальный сектор | Конечный сектор
---------------------------------------------------------------------
1 | 0:00.00 | 9:31.46 | 0 | 42870
2 | 9:31.46 | 13:23.35 | 42871 | 103130
3 | 22:55.06 | 13:48.27 | 103131 | 165257
4 | 36:43.33 | 10:53.07 | 165258 | 214239
5 | 47:36.40 | 12:13.69 | 214240 | 269283
6 | 59:50.34 | 14:05.38 | 269284 | 332696
Характеристики диапазона извлечения и сообщения об ошибках
Выбранный диапазон
Имя файла D:\временная\London Philharmonic Orchestra & Klaus Tennstedt - TennstedtЎEPortrait of a Legend (Disc 4).wav
Пиковый уровень 83.7 %
Качество диапазона 100.0 %
CRC копии FD1D5545
Копирование... OK
Ошибок не произошло
AccurateRip: сводка
Трек 1 нет в базе данных
Трек 2 нет в базе данных
Трек 3 нет в базе данных
Трек 4 нет в базе данных
Трек 5 нет в базе данных
Трек 6 нет в базе данных
Ни одного трека нет в базе AccurateRip
Конец отчёта
[teatrix.ru].t9771.torrent 
Торрент: Зарегистрирован [ 2015-10-23 17:26 ] · 2FB0237D5B5DA037982100A86B6AE8D9657FB809

Скачать .torrent

Скачать

17 KB

Статус: проверено
Скачан: 0 раз
Размер: 1.38 GB
terms.php



Быстрый ответ

Имя:

      
Для отправки сообщений необходимо включить JavaScript
Показать сообщения:    

Текущее время: 03-Дек 09:50

Часовой пояс: UTC + 3


Вы можете начинать темы
Вы можете отвечать на сообщения
Вы не можете редактировать свои сообщения
Вы не можете удалять свои сообщения
Вы не можете голосовать в опросах
Вы не можете прикреплять файлы к сообщениям
Вы можете скачивать файлы