(Classic) Mendelssohn - The Complete Masterpieces (30CD) - 2009, APE (image+.cue), lossless


Статистика раздачи [Обновить пиров]
Размер:  7.61 GB   |    Зарегистрирован:  1 год 1 месяц   |    Скачан:  1 раз
Сидов:  1  [  0 KB/s  ]   Личеров:  1  [  0 KB/s  ]   Подробная статистика пиров
 
   
 
 
 

[Цитировать]

Felix Mendelssohn - The Complete Masterpieces (30CD)
Жанр: Classic
Год выпуска диска: 2009
Производитель диска: Sony
Аудио кодек: APE
Тип рипа: image+.cue
Битрейт аудио: lossless
Продолжительность: 32h:12m
Трэклист:

Полный трэклист с исполнителями и датами исполненияString Symphonies No.1-13 - CD1-3CD 1: String Symphonies No. 1-6 & 10

Symphony No. 1 In С
01. Allegro
02. Andante
03. Allegro
Symphony No. 2 In D
04. Allegro
05. Andante
06. Allegro Vivace
Symphony No. 3 In E Minor
07. Allegro Di Molto
08. Andante
09. Allegro
Symphony No. 4 In С Minor
10. Grave - Allegro
11. Andante
12. Allegro Vivace
Symphony No. 5 In B-Flat
13. Allegro Vivace
14. Andante
15. Presto
Symphony No. 6 In E-Flat
16. Allegro Vivace
17. Andante
18. Presto
Symphony No. 10 In В Minor
19. Adagio - Allegro

CD 2: String Symphonies No. 7, 8 & 12

Symphony No. 7 In D Minor
01. Allegro
02. Andante
03. Menuetto
04. Allegro Molto
Symphony No. 8 In D (Version With Winds)
05. Adagio - Allegro
06. Adagio
07. Menuetto
08. Allegro Molto
Symphony No. 12 In G Minor
09. Fuga: Grave - Allegro
10. Andante
11. Allegro Molto

CD 3: String Symphonies No. 9, 11 & 13

Symphony No. 9 In C
01. Grave-Allegro
02. Andante
03. Scherzo
04. Allegro Vivace
Symphony No. 11 In F
05. Adagio - Allegro Molto
06. Scherzo: Commodo Schweizerlied
07. Adagio
08. Menuetto: Allegro Moderate
09. Allegro Molto
Symphony No. 13 In С Minor ("Sinfoniesatz")
10. Grave-Allegro Molto
The Hanover Band (performed on original instruments)
Roy Goodman, Conductor
Recorded November 18-20,1992 and March 1-3,1993, Rosslyn Hill Chapel, London

Symphonies No.1-5 - CD4-6CD 4: Symphonies No.1 & 3

Symphony No. 1 In С Minor Op. 11 ("1824")
01. Allegro Di Molto
02. Andante
03. Menuetto: Allegro Molto
04. Allegro Con Fuoco
Symphony No. 3 In A Minor Op. 56 "Scottish"
05. Andante Con Moto - Allegro Un Poco Agitato - Assai Animato – Andante Come Prima
06. Vivace Non Troppo
07. Adagio
08. Allegro Vivacissimo - Allegro Maestoso Assai
Gewandhausorchester Leipzig
Kurt Masur, Conductor
Recorded 1972 (Tracks 1-4);
January 8-9, 1972, Versohnungskirche, Leipzig. Germany (Tracks 5-8)

CD 5: Symphony No. 2 in B-Flat Op. 52 "Song Of Praise"

01. Sinfonia
Maestoso Con Moto - Allegro - Allegro Un Poco Agitato - Adagio Religioso
02. Choir: Allegro Moderato Maestoso - Animato "Alles, Was Odem Hat, Lobe Den Herrn!" -Allegro Di Molto "Lobet Den Herrn Mit Saitenspiel" - Soprano I Solo, Women's Chorus:
Molto Piu Moderato Ma Con Fuoco "Lobe Den Herrn, Meine Seele"
03. Recitative (Tenor Solo): "Saget Es, Die Ihr Erloest Seid Durch Den Herrn"
Aria: Allegro Moderato “Er Zaehlet Uns’re Traenen In Der Zeit Der Not"
04. Choir: A Tempo Moderato “Saget Es, Die Ihr Erloesed Seid”
05. Duet (Sopranos I & II) Choir: Andante “Ich Harrete Des Herrn”
06. Aria (Tenor Solo): Allegro Un Росo Agitato “Stricke Des Todes Hatten Uns Umfangen”-
Recitative: Allegro Assai Agitato "Wir Riefen In Der Finsternis" - Recitative (Soprano Solo): "Die Nacht Ist Vergangen"
07. Choir: Allegro Maestoso E Molto Vivace "Die Nacht Ist Vergangen"
08. Chorale: Andante Con Moto "Nun Danket Alle Gott" - Choir: Un Poco Piu Animato "Lob, Ehr' Und Preis Sei Cott"
09. Duet (Soprano I, Tenor): Andante Sostenuto Assai "Drum Sing' Ich Mit Meinem Liede"
10. Choir: Allegro Non Troppo "Ihr Voelker, Bringet Her Dem Herrn" - Piu Vivace "Alles Danke Dem Herrn!" - Maestoso Come I "Alles, Was Odem Hat, Lobe Den Herrn"
Celestina Casapietra, Adele Stolte - Sopranos I & 2
Peter Schreier - Tenor
Rundfunkchor Leipzig
Gewandhausorchester Leipzig
Kurt Masur, Conductor
Recorded 1972

CD 6: Symphonies Nos. 4 & 5

Symphony No. 4 In A Major Op. 90 "Italian"
01. Allegro Vivace
02. Andante Con Moto
03. Con Moto Moderato
04. Saltarello: Presto
Symphony No. 5 In D Minor Op. 107 "Reformation"
05. Andante - Allegro Con Fuoco
06. Allegro Vivace
07. Andante (Attacca)
08. Andante Con Moto – Allegro Vivace - Allegro Maestoso - Piu Animato Poco A Poco
(Chorale: “Ein’ Feste Burg Ist Unser Gott”)
Gewandhausorchester Leipzig
Kurt Masur, Conductor
Recorded December 29-30, 1971 (Tracks 1-4); January 6-8, 1972 (Tracks 5-8),
Versoehnungs-kirche, Leipzig

CD 7: Overtures

01. The Marriage Of Camacho Op. 10. Overture
02. A Midsummer Night's Dream Op. 21. Overture
03. Calm Sea And Prosperous Voyage Op. 27. Concert Overture
04. Ruy Blas Op. 95. Concert Overture
Athalia Op. 74
05. Overture
06. War March Of The Priests *
07. The Hebrides (Fingal's Cave) Op. 26. Concert Overture
08. Trumpet Overture Op. 101
Bamberger Symphoniker
Claus Peter Flor, Conductor
Recorded June 7-10, 1988, July 8, 1987 (op. 21)
and December 22, 1988 (op. 101),
Dominikanerbau, Bamberg
* New York Philharmonic
Leonard Bernstein, Conductor
Recorded October 26, 1967, Philharmonic Hall,
now Avery Fisher Hall, Lincoln Center, New York City

CD 8: Violin Concertos

Concerto For Violin And Orchestra In E Minor Op. 64
01. Allegro Molto Appassionato 12:31
02. Andante 9:16
03. Allegretto Non Troppo - Allegro Molto Vivace 5:36
Isaac Stern, Violin
Philadelphia Orchestra
Eugene Ormandy, Conductor
Recorded March 24, 1958, Philadelphia, PA
Concerto For Violin And Orchestra In D Minor
04. Allegro
05. Andante
06. Allegro
Kyoko Takezawa, Violin
Bamberger Symphoniker
Claus Peter Flor, Conductor
Recorded January 7-9, 1994,
Sinfonie an der Regnitz, Bamberg

CD 9: Concertos For Two Pianos

Concerto For Two Pianos And Orchestra In E
01. Allegro Vivace
02. Adagio Troppo
03. Allegro
Concerto For Two Pianos And Orchestra In A-Flat
04. Allegro Vivace
05. Andante
06. Allegro Vivace
Gold & Fizdale, Piano
Philadelphia Orchestra
Eugene Ormandy, Conductor
Recorded January 13, 1967 Severance Hall, Cleveland, Ohio, USA

CD 10: Concertos For Piano And Orchestra No. 1 & 2

Concerto For Piano And Orchestra No. 1 In G Minor Op. 25
01. Molto Allegro Con Fuoco
02. Andante
03. Presto - Molto Allegro E Vivace
Concerto For Piano And Orchestra No. 2 In D Minor Op. 40
04. Allegro Appassionato
05. Adagio
06. Finale: Presto Scherzando
Murray Perahia, Piano
Academy Of St. Martin In The Fields
Neville Marriner, Conductor
07. Capriccio Brfflant In B Op.22
08. Rondo Brillant In E-Flat Op.29
Andrei Pisarev, Piano
Russian Philharmonic Orchestra
Samuel Friedmann, Conductor
Recorded 1974 at CBS Studios, London (Tracks 1-6), October 1996, Russian Broadcast
and Recording Department, Studio 5, Moscow (Tracks 7 & 8)

CD 11: A Midsummer Night's Dream

The Theatre Music To "A Midsummer Night's Dream" Op. 21/61
01. Overture
02. Titania: "If You Will Patiently Dance... "
03. Scherzo
04. Fairy: "Over Hill, Over Dale..."
05. March Of The Fairies
06. Fairy: "I Must Go Seek Some Dewdrops..."
07. Titania: "Come, Now A Roundel..."
08. Song With Chorus: "You Spotted Snakes..."
09. Puck: "Up And Down, Up And Down..."
10. Intermezzo
11. Puck: "What Hempen Homespuns..."
12. Puck: "On The Ground Sleep Sound..."
13. Nocturne
14. Theseus: "Go, Bid The Huntsmen Wake Them..."
15. Theseus: "Come Now, What Masques..."
16. Dance Of The Clowns
17. Theseus: "Here Come The Lovers..."
18. Wedding March
19. Puck: "Now The Hungry Lion Roars..."
20. Oberon: "Through The House Give Glimmering Light..."
21. Titania: "First Rehearse Your Song..."
22. Song: "Through This House Give Glimmering Light"
23. Oberon: "Now, Until The Break Of Day...
24. Chorus: "Trip Away: Make No Stay"
25. Puck: "If We Shadows Have Offended..."
Arlene Saunders, Soprano
Helen Vanni, Mezzo-Soprano
Inga Swenson, Narrator
Boston Symphony Orchestra and Chorus
Erich Leinsdorf, Conductor
Recorded 1962-1963

CD 12-13: “Paulus” Op. 36CD 12: “Paulus” Op. 36, First Part

01. Overture On The Chorale "Wachet Auf, Ruft Uns Die Stimme"
02. Choir "Herr, Der Du Bist Der Gott"
03. Chorale "Allein Gott In Der Hoeh' Sei Ehr"
04. Recitative (Soprano) And Duet (Two Basses) "Die Menge Der Glaeubigen"
05. Choir "Dieser Mensch Hoert Nicht Auf Zu Reden Laesterworte"
06. Recitative And Choir (Soprano, Tenor) "Und Sie Sahen Auf Ihn Alle"
07. Aria (Soprano) "Jerusalem! Die Du Toetest Die Propheten"
08. Recitative (Tenor) And Choir "Sie Aber Stuermten Auf Ihn Ein"
09. Recitative (Tenor) And Choir "Und Sie Steinigten Ihn"
10. Recitative (Soprano) "Und Die Zeugen Legten Ab Ihre Kleider"
11. Choir "Siehe, Wir Preisen Selig, Die Erduldet Haben"
12. Recitative (Tenor) And Aria (Bass) "Saulus Aber Zerstoerte Die Gemeinde"
13. Recitative (Tenor) And Arioso (Alto) "Und Zog Mit Einer Schar"
14. Recitative (Tenor, Bass) And Choir "Und Als Er Auf Dem Wege War"
15. Choir "Mache Dich Auf! Werde Licht!"
16. Chorale "Wachet Auf! Ruft Uns Die Stimme"
17. Recitative (Tenor) "Die Maenner Aber, Die Seine Gefaehrten Waren"
18. Aria (Bass) "Gott, Sei Mir Gnaedig Nach Deiner Guete"
19. Recitative (Tenor, Soprano) "Es War Aber Ein Juenger Zu Damaskus"
20. Aria (Bass) And Chorus "Ich Danke Dir, Herr, Mein Gott"
21. Recitative (Soprano, Tenor) And Choir "Und Ananias Ging Bin"
22. Choir "O, Welch Eine Tiefe Des Reichtums Der Weisheit"

CD 13: “Paulus” Op. 36, Second Part

01. Choir "Der Erdkreis Ist Nun Des Herrn"
02. Recitative (Soprano) "Und Paulus Kam Zu Der Gemeinde"
03. Duet (Tenor, Bass) "So Sind Wir Nun Botschafter An Christi Statt"
04. Choir "Wie Lieblich Sind Die Boten"
05. Recitative And Arioso (Soprano) "Und Wie Sie Ausgesandt"
06. Recitative (Tenor) And Choir "Da Aber Die Juden Das Volk Sahen"
07. Choir "Ist Das Nicht,..." And Chorale "O Jesu Christe, Wahres Licht"
08. Recitative (Tenor, Bass) "Paulus Aber Und Barnabas Sprachen"
09. Duet (Tenor, Bass) "Denn Also Hat Uns Der Herr Geboten"
10. Recitative (Soprano) "Und Es War Ein Mann Zu Lystra"
11. Choir "Die Goetter Sind Den Menschen Gleich Geworden"
12. Recitative (Tenor, Bass), Aria (Bass) And Choir "Da Das Die Apostel Hoerten"
13. Recitative (Soprano) "Da Ward Das Volk Erregt Wider Sie"
14. Choir "Hier Ist Des Herren Tempel!"
15. Recitative (Soprano) "Und Sie Alle Verfolgten Paulus"
16. Cavatina (Tenor) "Sei Getreu Bis In Den Tod"
17. Recitative (Soprano, Bass) "Paulus Sandte Hin Und Liess Fordern Die Aeltesten"
18. Choir (With Soloists) "Schone Doch Deiner Selbst" And Recitative (Bass) "Was Machet Ihr"
19. Choir "Sehet, Welch Eine Liebe Hat Uns Der Yater Erzeiget"
20. Recitative (Soprano) "Und Wenn Er Gleich Geopfert Wird"
21. Final Choir "Nicht Aber Ihm Allein, Sondern Allen"
Hellen Kwon, Soprano
Elzbieta Ardam, Alto
Hans Peter Blochwitz, Tenor
Peter Lika, Bass
Bach Ensemble of the EuropaChorAkademie
SWR Symphony Orchestra, Joshard Daus, Conductor
Recorded February 16, 1997, Munich Philharmony (Live Recording)

CD 14-15: “Elijah” Op. 70CD 14: “Elijah” Op. 70, First Part

01. Introduction - Recitative: "So Wahr Der Herr, Der Gott Israels, Lebet" (Elijah)
02. Overture
03. No. 1 Chorus: "Hilf, Herr!" (The People)
04. No. 2 Duet With Chorus: "Herr, Hoere Unser Gebet!" (The People, Soprano I & II)
05. No. 3 Recitative: "Zerreisset Eure Herzen" (Obadiah)
06. No. 4 Aria: "So Ihr Mich Von Ganzem Herzen Suchet" (Obadiah)
07. No. 5 Chorus: "Aber Der Herr Sieht Es Nicht" (The People)
08. No. 6 Recitative: "Elias, Gehe Weg Von Hinnen" (An Angel)
09. No. 7 Double Quartet: "Denn Er Hat Seinen Engeln Befohlen" (Angels)
10. No. 8 Recitative, Aria And Duet: "Was Hast Du An Mir Getan" (The Widow, Elijah)
11. No. 9 Chorus: "Wohl Dem, Der Den Herrn Fuerchtet" (Chorus)
12. No. 10 Recitative With Chorus: "So Wahr Der Herr Zebaoth Lebet" (Elijah, Ahab, The People)
13. No. 11 Chorus: "Baal, Erhoere Uns!" (Priests Of Baal)
14. No. 12 Recitative And Chorus: "Rufet Lauter! Denn Er Ist Ja Gott" (Elijah, Priests Of Baal)
15. No. 13 Recitative And Chorus: "Rufet Lauter! Er Hoert Euch Nicht!" (Elijah, Priests Of Baal)
16. No. 14 Aria: "Herr Gott Abrahams, Isaaks Und Israels" (Elijah)
17. No. 15 Quartet: "Wirf Dein Anliegen Auf Den Herrn" (Soprano, Alto, Tenor, Bass)
18. No. 16 Recitative And Chorus: "Der Du Deine Diener Machst Zu Geistern" (Elijah, The People)
19. No. 17 Aria: "Ist Nicht Des Herrn Wort Wie Ein Feuer" (Elijah)
20. No. 18 Arioso: "Weh Ihnen, Dass Sie Von Mir Weichen!" (Alto)
21. No. 19 Recitative And Chorus: "Hilf Deinem Volk, Du Mann Gottes!" (Obadiah, Elijah, The Boy, The People)
22. No. 20 Chorus: "Dank Sei Dir, Gott, Du Traenkest Das Durst'ge Land!" (The People)

CD 15: “Elijah” Op. 70, Second Part

01. No. 21 Aria: "Ноerе, Israel, Hoere Des Herrn Stimme!" (Soprano)
02. No. 22 Chorus: "Fuerchte Dich Nicht, Spricht Unser Grott" (Chorus)
03. No. 23 Recitative With Chorus: "Der Herr Hat Dieh Erhoben" (Elijah, The Queen, The People)
04. No. 24 Chorus: "Wehe Ihm, Er Muss Sterben!" (The People)
05. No. 25 Recitative: "Du Mann Gottes, Lass Meine Rede" (Obadiah)
06. No. 26 Aria: "Es Ist Genug! So Nimm Nun, Herr, Meine Seele!" (Elijah)
07. No. 27 Recitative: "Siehe Er Schlaeft Unter Dem Wacholder" (Tenor)
08. No. 28 Terzett: "Hebe Deine Augen Auf Zu Den Bergen" (Three Angels)
09. No. 29 Chorus: "Siehe, Der Hueter Israels" (Chorus)
10. No. 30 Recitative: "Stehe Auf, Elias" (The Angel, Elijah)
11. No. 31 Aria: "Set Stille Dem Herrn" (An Angel)
12. No. 32 Chorus: "Wer Bis An Das Ende Beharrt" (Chorus)
13. No. 33 Recitative: "Herr, Es Wird Nacht Um Mich" (Elijah, An Angel)
14. No. 34 Chorus: "Der Herr Ging Vorueber" (Chorus)
15. No. 35 Recitative, Quartet And Chorus: "Seraphim Standen Ueber Ihm" (Alto) - "Heilig Ist Gott Der Herr" (Soprano, Alto, Tenor, Bass, Chorus)
16. No. 36 Chorus And Recitative: "Gehe Wiederum Hinab!" (Chorus, Elijah)
17. No. 37 Arioso: "Ja, Es Sollen Wohl Berge Weichen" (Elijah)
18. No. 38 Chorus: "Und Der Prophet Elias Brach Hervor" (Chorus)
19. No. 39 Aria: "Dann Werden Die Gerechten Leuchteu" (Tenor)
20. No. 40 Recitative: "Darum Ward Gesendet Der Prophet Elias" (Soprano)
21. No. 41 Chorus: "Aber Einer Erwacht Von Mitternacht" (Chorus)
22. No. 41a Quartet: "Wohlan, Alle, Die Ihr Durstig Seid" (Soprano, Alto, Tenor, Bass)
23. No. 42 Chorus: "Alsdann Wird Euer Licht Hervorbrechen"(Chorus)
Elijah - Christian Gerhaher, Baritone
The widow - An Angel Sibylla Rubens, Soprano
The Angel - Queen Jezebel Nathalie Stutzmann, Contralto
Ahab - Obadjah James Taylor, Tenor
Soloists:
Henrike Meyer, Soprano I / Vilma Pigagaite, SopranoII /
Lone Gronnum, Alto I / Cornelia Rosenthal, Alto II /
Rudiger Ballhorn, Tenor I / Raimund Mlnarschik, Tenor II /
Delf Lammers, Bass I / Klaus Schredl, Bass II /
Maximilian Klas, Treble / Michael Sehonheit, Organ
Gewandhauskammerchor - Gewandhauschor
Chorus Master: Morten Schuldt-Jensen
Gewandhausorchester Leipzig - Herbert Blomstedt, Conductor
Recorded LIVE at the Mendelssohn-Festtage 2003, October 31 & November 1, 2003, Gewandhaus zu Leipzig (Germany)

CD 16: Die Erste Walpurgisnacht (The First Walpurgis Night) Op. 60

Based On A Poem By Johann Wolfgang Von Goethe Overture
01. L.Allegro Con Fuoco
Das Schlechte Wetter - Bad Weather
02. 2. Allegro Vivace Non Troppo - Quasi L’istesso Tempo
Der Uebergang Zum Fruehling - The Transition To Spring
03. No. 1 "Es Lacht Der Mai" - "Now May Again"
Allegro Vivace Non Troppo
A Druid (Tenor) And Chorus Of Druids And Of The People
04. No. 2 "Koennt Ihr So Verwegen Handeln?" - "Know Ye Not A Deed So Daring?"
Allegretto Non Troppo
05. No. 3 "Wer Opfer Heut' Zu Bringen Scheut" - "The Man Who Flies Our Sacrifice"
Andante Maestoso
06. No. 4 "Yerteilt Euch, Wackre Maenner, Hier" - "Disperse, Disperse, Ye Gallant Men"
Allegro Leggiero
07. No.5 Recitative: "Diese Dumpfen Pfaffenchristen" - "Should Our Christian Foes Assail Us"
08. "Kommt Mit Zacken Und Mit Gabeln" - "Come! With Flappers, Fire, And Clappers" –
Allegro Moderato
09. No. 6 "Kommt Mit Zacken Und Mit Gabeln" - "Come! With Flappers, Fire, And Clappers" - Allegro Molto
10. No. 7 "So Weit Gebracht, Dass Wir Bei Nacht Allvater Heimlich Singen!" –
"Restrain’d By Might" - Andante Maestoso
11. No. 8 "Hilf, Ach Hilf Mir, Kriegsgeselle!" - "Help, My Comrades, See A Legion" –
Allegro Non Troppo
12. No. 9 "Die Flamme Reinigt Sich Vom Rauch" - "Unclouded Now, The Flаmе Is Bright" - Andante Maestoso
Jadwiga Rappe, Alto / Deon van der Walt, Tenor / Anton Scharilger, Baritone /
Matthias Holle, Bass
Choir of the Bamberg Symphony Orchestra
Rolf Beck, Chorus Master
Bamberg Symphony Orchestra - Claus Peter Flor, Conductor
"Leise Zieht Durch Mein Gemueth" - "Quietly Doth Traverse My Spirit"
12 Songs Of Felix Mendelssohn Bartholdy For Soprano Voice And Orchestra
Arranged By Siegfried Matthus

13. "Auf Fluegeln Des Gesanges"
Op. 34 No. 2, Words: Heinrich Heine
14. Neue Liebe "In Dem Mondenschein Im Walde"
Op 19a No. 4, Words: Heinrich Heine
15. Song Without Words Op. 62 No. 6 "Fruehlingshed" (30)
Allegretto Grazioso
16. Gruss "Leise Zieht Durch Mein Gemueth"
Op. 19a No. 5, Words: Heinrich Heine
17. Reiselied "Der Herbstwind Ruettelt Die Baeume"
Op. 34 No. 6, Words: Heinrich Heine
18. Song Without Words Op. 30 No. 2 (8) Allegro Di Molto
19. Pagenlied (Without Op.) "Wenn Die Sonne Lieblich Schiene"
Words: Joseph Vou Eichendorff
20. Song Without Words Op. 53 No. 4 (22) Adagio
21. Schilflied "Auf Dem Teich, Dem Regungslosen"
Op. 71 No. 4. Words: Nikolaus Lenau
22. Der Mond "Mein Herz Ist Wie Die Dunkle Nacht"
Op. 86 No. 5. Words: Emanuel Geibel
23. Song Without Words Op. 19 No. 1 (1) Andante Con Moto
24. And'res Maienlied (Hexenlied) "Die Schwalbe Fliegt, Der Fruehling Siegt"
Op. 8 No. 8. Words: Ludwig Christoph Heinrich Holty
Deon van der Walt, Tenor
Bamberger Symphoniker
Claus Peter Flor, Conductor
Recorded January 11-14, 1995, Philharmonie an der Regnitz

CD 17: Choral Music

Psalm No. 42 Op. 42 "Wie Der Hirsch Schreit"
01. No. 1 Choir "Wie Der Hirsch Schreit Nach Frischem Wasser"
02. No. 2 Aria Soprano "Meine Seele Duerstet Nach Gott"
03. No. 3 Recitativo Soprano And Female Choir "Meine Traenen Sind Meine Speise"
04. No. 4 Choir "Was Betruebst Du Dich, Meine Seele"
05. No. 5 Recitativo Soprano "Mein Gott"
06. No. 6 Quintet Male Choir And Soprano Solo "Der Herr"
07. No. 7 Final Chorus "Was Betruebst Du Dich"
Marina Ulewicz and Eva-Maria Kuhrau, Soprano
Fred Silla, Tenor
Catharina Seidel, Organ
Munich Oratorio Choir (former LGV)
Radio Symphony Orchestra Pilsen
Andreas Hantke, Conductor
Live Recording March 10, 1996, Herkulessaal der Residenz, Munchen
Lieder Op.59 (1844)
08. Im Gruenen
"Im Gruenen Erwacht Der Frische Muth" (Words: Helmine Von Chezy)
09. Fruehzeitiger Fruehling
"Tage Der Wonne, Kommt Ihr So Bald?" (Words: Johann Wolfgang Von Goethe)
10. Abschied Vom Walde
"O Taeler Weit, О Hoehen" (Words: Joseph Von Eichendorff)
11. Die Nachtigall
"Die Nachtigall, Sie War Entfernt" (Words: Johann Wolfgang Von Goethe)
12. Ruhetal
"Wenn Im Letzten Abendstrahl" (Words: Ludwiguhland)
13. Jagdlied
"Durch Schwankende Wipfel" (Words: Joseph Von Eichendorff)
Harvestehuder Kammerchor - Claus Banter, Conductor
Recorded Spring and Autumn 1996, St. Johannis Church, Hamburg-Harvestehude
14. Hear My Prayer
("O For The Wings Of A Dove"; Words: William Bartholomew)
The choir of Trinity College Cambridge
Richard Marlow, conductor
Recorded March 15-17, 1993, Chapel of Trinity College, Cambridge

CD 18: Chamber Music

Octet For Strings In E-Flat Op. 20
01. Allegro Moderato Ma Con Fuoco
02. Andante
03. Scherzo: Allegro Leggierissimo
04. Presto
London Festival Orchestra Ensemble
Ross Pople, Conductor
Recorded September 18-19, 1995, The Warehouse, London
Sonata For Clarinet And Pianoforte In E-Flat
05. Adagio - Allegro Moderato
06. Andante
07. Allegro Moderato
Charles Neidich, Clarinet (Clarinet by Rudolf Tutz, Innsbruck 1990, after Carl Augustin Grenser, Son, c. 1810 Dresden)
Robert Levin, Pianoforte (Pianoforte by Johann Fritz, Wien 1825, restored 1992 by
Edwin Beuck and Johan Wennink)
Recorded March 21-22, 1993, Lutherse Kerk, Haarlem, Holland
08. "Auf Fluegeln Des Gesanges"Op.34, No.2
(Arr.: Joseph Achron; Edited Jascha Heifetz)
Jascha Heifetz, Violin
Emanuel Bay, Piano
Recorded April 22, 1949, RCA Studio 2, New York City
09. Lied Ohne Worte Op. 19, No. 6 ("Venetian Boat Song")
10. Canzonetta (From String Quartet Op. 12)
Julian Bream, Guitar
Recorded October 1959, RCA Studio B, New York City

CD 19: String Quintets

Quintet For Strings No. 1 In A Op. 18
01. Allegro Con Moto
02. Intermezzo: Andante Sostenuto
03. Scherzo: Allegro Di Molto
04. Allegro Vivace
Quintet For Strings No. 2 In B-Flat Op. 87
05. Allegro Vivace
06. Andante Scherzando
07. Adagio E Lento
08. Allegro Molto Vivace
L'Archibudelli
Vera Beths, Violin (A. Stradivarius, Cremona, 1727)
Lucy van Dael, Violin (Willem Bouman, Den Haag, 1997)
Jurgen Kussmaul, Viola (Willem Bouman, Den Haag, 1997)
Guus Jeukendrup, Viola (Max Moller, Amsterdam, 1947)
Anner Bylsma, Violoncello (J. B. Pressenda, Torino, 1835)
Recorded February 25-27, 1999, Lutherse Kerk, Haarlem, Netherlands

CD 20-22: String QuartetsCD 20: String Quartets. Vol. I

String Quartet In E-Flat Op. 12 (1829)
01. Adagio Non Troppo -Allegro Non Tardente
02. Canzonetta: Allegretto
03. Andante Espressivo
04. Molto Allegro E Vivace
String Quartet In F Minor Op. Posth. 80 (1847)
05. Allegro Vivace Assai
06. Allegro Assai
07. Adagio
08. Finale: Allegro Molto
String Quartet In E-Flat (1823)
09. Allegro Moderato
10. Adagio Non Troppo
11. Minuetto
12. Fuga
Henschel Quartet
Recorded December 10-12, 2001 (Tracks 1-8), December 18-19, 2004 (Tracks 9-12)
Studio 2, Bayerischer Rundfunk, Munich

CD 21: String Quartets. Vol. II

String Quartet In A Minor Op. 13 (1827)
01. Adagio - Allegro Vivace
02. Adagio Non Lento
03. Intermezzo: Allegretto Con Moto -Allegro Di Molto
04. Presto - Adagio Non Lento
String Quartet In E-Flat Op. 44 No. 3 (1838)
05. Allegro Vivace
06. Scherzo: Assai Leggiero Vivace
07. Adagio Non Troppo
08. Molto Allegro Con Fuoco
Henschel Quartet
Recorded November 13-15, 2003, Bavaria-Studio, Munich

CD 22: String Quartets. Vol. III

String Quartet In D Op. 44 No. 1 (1838)
01. Molto Allegro Vivace
02. Menuetto: Un Poco Allegretto
03. Andante Espressivo Con Moto
04. Presto Con Brio
String Quartet In E Minor Op. 44 No. 2 (1837)
05. Allegro Assai Appassionato
06. Scherzo: Allegro Di Molto
07. Andante
08. Presto Agitato
Four Movements For String Quartet Op. 81
Andante (Tema Con Variazioni) In E (1847)
09. Andante Sostenuto - Un Poco Piu Animato - Presto -Andante Come Prima
Scherzo In A Minor (1847)
10. Allegro Leggiero
Fuga In E-Flat (1827)
11. A Tempo Ordinario
Capriccio In E Minor (1843)
12. Andante Con Moto - Allegro Fugato, Assai Vivace
Henschel Quartet
Recorded March 11-14, 2004, Studio 1, Bayerischer Rundfunk, Munich

CD 23: Piano Trios

Trio For Piano, Violin And Violoncello No. 1 In D Minor Op. 49
01. Molto Allegro Ed Agitato
02. Andante Con Moto Tranquillo
03. Scherzo: Leggiero E Vivace
04. Finale: Allegro Assai Appassionato
Trio For Piano, Violin And Violoncello No. 2 In С Minor Op. 66
05. Allegro Energico E Con Fuoco
06. Andante Espressivo
07. Scherzo: Molto Allegro - Quasi Presto
08. Finale: Allegro Appassionato
Isaac Stern, Violin
Leonard Rose, Violoncello
Eugene Istomin, Piano
Recorded November 2-3, 1966 and July 19-20, 1979 at CBS 30th Street Studio, New York City

CD 24: Works For Violoncello And Piano

Variations Concertantes Op. 17
01. Theme (Andante Con Moto)
02. Variation I
03. Variation II
04. Variation III (Piu Vivace)
05. Variation IV (Allegro Con Fuoco)
06. Variation V (L'istesso Tempo)
07. Variation VI (L'istesso Tempo)
08. Variation VII (Presto Ed Agitato)
09. Variation VIII (Tempo I) – Coda
Sonata For Violoncello And Piano No. 1 In В-Flat Op. 45
10. Allegro Vivace
11. Andante
12. Allegro Assai
13. Assai Tranquilio
14. Song Without Words Op. 109
Sonata For Violoncello And Piano No. 2 In D Op. 58
15. Allegro Assai Vivace
16. Allegretto Scherzando
17. Adagio
18. Molto Allegro E Vivace
Steven Isserlis, Violoncello
Melvyn Tan, Fortepiano
(Johann Streicher, 1839)
Recorded January 16-18, 1994, in the Great Hall, Blackheath Concert Halls, London

CD 25-26: Piano MusicCD 25: Piano Music. Vol. I

Sonata For Piano Op. 6
01. Allegretto Con Espressione
02. Tempo Di Menuetto - Piu Vivace -L'istesso Tempo I
03. Recitativo - Andante - Allegretto Con Espressione
Molto Allegro E Vivace - Allegretto Con Espressione
04. Prelude And Fugue Op. 35 No. 1
05. Variations Serieuses Op. 54
06. Rondo Capriccioso Op. 14
Murray Perahia, Piano
Sonata For Piano In B-Flat Op. 106
07. Allegro Vivace
08. Scherzo: Allegro Non Troppo
09. Andante Quasi Allegretto - Allegro Molto
10. Allegro Moderato - Allegro Non Troppo
Matthias Kirschnereit, Piano
Recorded April 17-19, 2000, Klaus-von-Bismarck-Saal,
Westdeutscher Rundfunk, Cologne (Tracks 7-10)

CD 26: Piano Music. Vol. II

Fantasia In F-Sharp Minor Op. 28 "Sonate Ecossaise"
01. Con Moto Agitato - Andante
02. Allegro Con Moto
03. Presto
Matthias Kirschnereit, Piano
Songs Without Words
04. Lied Ohne Worte In E Op. 19 No. 1 Andante Con Moto
05. Lied Ohne Worte In A Minor Op. 19 No. 2 Andante Espressivo
06. Lied Ohne Worte In A Minor Op. 85 No. 2 Allegro Agitato
07. Lied Ohne Worte In A Op. 85 No. 5 Allegretto
08. Lied Ohne Worte In E Op. 30 No. 3 Adagio Non Troppo
Glenn Gould, Piano
Songs Without Words
09. Lied Ohne Worte In С Op. 102 No. 3
10. Lied Ohne Worte In A-Flat Op. 38 No. 6 "Duetto"
11. Lied Ohne Worte In С Op. 67 No. 4 "Spinnerlied / Spinning Song"
Alicia de Larrocha, Piano
12. Caprice In A Minor Op. 33 No. 1
Alicia de Larrocha, Piano
13. Mailuefte / May Breezes Op. 61 No. 2
Rudolf Serkin, Piano
Songs Without Words
14. Lied Ohne Worte Op. 85 No. 4 "Elegie"
15. Lied Ohne Worte Op. 62 No. 6 "Fruehlingslied"
16. Lied Ohne Worte Op. 67 No. 5 "Schaefers Klagelied / The Shepherd's Complaint"
Vladimir Horowitz, Piano
17. Andante And Variations In B-Flat Op. 83a
Andante Tranquillo Con Variazioni I-VIII - Allegro Assai Vivace
Yaara Tal & Andreas Groethuysen, Piano
18. Andante And Allegro Brillant In A Op. 92 Andante - Allegro Assai Vivace – Presto
Yaara Tal & Andreas Groethuysen, Piano
Recorded April 17-19, 2000, Klaus-von-Bismarck-Saal,
Westdeutscher Rundfunk, Cologne (Tracks 1-3),
July 23, 1970, CBC radio broadcast, CBC Studios, Toronto, Canada (Tracks 4-8),
December 5 & 6, 1995, American Academy of Arts and Letters, New York City (Tracks 9-12) October 29, 1946 (Tracks 14-16),
July 26-28, 1991, Reitstadel, Neumark / Oberpfalz (Tracks 17, 18)

CD 27-29: Organ WorksCD 27: Organ Works. Vol. I

01. Sonata in F Minor op. 65 No. 1(1845)
Allegro moderato e serioso
Adagio
Andante recitativo
Allegro assai vivace
02. Trio in F (1844)
03. Ostinato in С Minor (1823)
04. Sonata in С Minor op. 65 No. 2 (1845)
Grave-Adagio
Allegro maestoso e vivace
Fuga
05. Prelude in С minor (1841)
06. Sonata in A op. 65 No.3 (1845)
Con moto maestoso
Andante tranquillo
07. Fughetta in D (1843)
08. Postlude in D (1831)
Stefan Johannes Bleicher, Organ
Recorded July 12-14, 1999 and November 8-9, 1999,
Historical Mooser Organ (1814), St. Pierre-aux-Liens, Bulle, Switzerland

CD 28: Organ Works. Vol. II

01. Sonata In B-Flat Op. 65 No. 4 (1845)
Allegro Con Brio
Andante Religioso
Allegretto
Allegro Maestoso E Vivace
02. Theme And Variations In D (1844)
03. Sonata In D Op. 65 No. 5 (1845)
Andante (Chorale)
Andante Con Moto
Allegro Maestoso
04. Chorale With Variations On "Wie Gross Ist Des Allmaecht'gen Guete"
Chorale
Variation I
Variation II
Variation III
05. Allegro, Chorale And Fugue In D Minor (1844)
06. Sonata In D Minor Op. 65 No. 6 (1845)
Chorale And Variations
Fugue
Finale
Stefan Johannes Bleicher, Organ
Recorded July 12-14, 1999 and November 8-9, 1999,
Historical Mooser Organ (1814), St. Pierre-aux-Liens, Bulle, Switzerland

CD 29: Organ Works. Vol. III

01. Allegro In B-Flat (1844)
02. Fugue - Trio In D Minor (1820)
03. Fugue - Trio In G Minor (1820)
04. Fugue – Trio In D Minor (1820)
05. Andante Alla Marcia In B-Flat (1845)
06. Andante Con Moto In G Minor (1833)
07. Prelude In D Minor (1820)
08. Fantasia In G Minor (1823)
09. Fughetta In A (1828)
10. Andante In D (1823)
11. Fugue In E Minor (1839)
12. Fugue In F Minor (1839)
13. Allegro Moderato Maestoso In С
14. Prelude And Fugue In С Minor Op. 37 No. 1 (1839)

Prelude
Fugue
15. Prelude And Fugue In G Op. 37 No. 2 (1839)
Prelude
Fugue
16. Prelude And Fugue In D Minor Op. 37 No. 3 (1839)
Prelude
Fugue
Stefan Johannes Bleicher, Organ
Recorded July 12-14, 1999 and November 8-9, 1999,
Historical Mooser Organ (1814), St. Pierre-aux-Liens, Bulle, Switzerland

CD 30: Lieder (Songs) And Duets

Lieder (Songs) Op. 63 Nos. 1-6
01. Ich Wollt, Meine Lieb Ergoesse Sich (Words: Heinrich Heine)
02. Abschiedslied Der Zugvoegel
"Wie War So Schoen Doch Wald Und Feld!" (Words: Hoffmann Von Fallersleben)
03. Gruss
"Wohin Ich Geh' Und Schaue" (Words: Joseph Von Eichendorff)
04. Herbsftlied
"Ach, Wie So Bald Verhallet Der Reigen" (Words: Karl Klingemann)
05. Volkslied "O Saeh Ich Auf Der Heide Dort"
(Words: Ferdinand Freiligrath After Robert Burns)
06. Maigloeckhen Und Die Bluemelein
"Maigloeckchen Laeutet In Dem Tal" (Words: Hoffmann Von Fallersleben)
Barbara Bonney, Soprano
Angelika Kirchschlager, Mezzo-Soprano
Malcolm Martineau, Piano
07. Sonntagsmorgen Op. 77 No.1
"Das Ist Der Tag Des Herrn!" (Words: Ludwig Uhland)
08. Wasserfahrt
"Ich Stand Gelehnet An Den Mast" (Words: Heinrich Heine)
09. Abendlied
"Wenn Ich Auf Dem Lager Liege" (Words: Heinrich Heine)
10. Lied Aus Ruy Blas Op 77 No.3
Wozu Der Voeglein Choere (Words: Carl Draxler-Manfred After Victor Hugo)
Paul Armin Edelmann, baritone / Peter Edelmann, baritone
Phillip Moll, Piano
11. Die Liebende Schreibt Op. 86 No.3
"Ein Blick Von Deinen Augen In Die Meinen" (Words: Johann Wolfgang Von Goethe)
12. Allnaechtlich Im Traeume Op. 86 No.4
"Allnaechtlich Im Traeume Seh’ Ich Dich" (Words: Heinrich Heine)
13. Fruehlingslied Op. 47 No.3
"Durch Den Wald, Den Dunklen, Geht" (Words: Nikolaus Lenau)
14. Venetianisches Gondellied Op. 57 No. 5
"Wenn Durch Die Piazzetta Die Abendluft Weht" (After Thomas Moore)
15. Der Mond Op. 86 No.5
"Mein Herz Ist Wie Die Dunkle Nacht" (Words: Emanuel Geibel)
16. Suleika Op. 34 No.4
"Ach, Um Deine Feuchten Schwingen" (Words: Johann Wolfgang Von Goethe)
17. Das Erste Veilchen Op. 19a No. 2
"Als Ich Das Erste Veilchen Erblickt" (Words: Egon Ebert)
18. Schilflied, Op. 71 No.4
"Auf Dem Teich, Dem Regungslosen" (Words: Nikolaus Lenau)
19. Neue Liebe Op. 19a No. 4
"In Dem Mondenschein Im Walde" (Words: Heinrich Heine)
20. Bei Der Wiege, Op. 47 No. 6
"Schumm're!" (Words: Karl Klingemann)
Judith Raskin, Soprano / George Schick, Piano
21. Reiselied Op. 34 No. 6
"Der Herbstwind Ruettelt Die Baeume" (Words: Heinrich Heine)
22. Morgengruss Op. 47 No. 2
"Ueber Die Berge Steigt Schon Die Sonne" (Words: Heinrich Heine)
23. Auf Fluegeln Des Gesanges Op. 34 No.2 (Words: Heinrich Heine)
24. Gruss Op. 19a, No.5
"Leise Zieht Durch Mein Gemueth" (Words: Heinrich Heine)
Christoph Pregardien, tenor
Andreas Steier, fortepiano
Recorded December 8-11, 2003, DeutschlandRadio Berlin, Studio 10 (Tracks 1-6),
October 2-5, 2000, Jesus-Christus-Kirche, Berlin-Dahlem (Tracks 7-10),
June 3, 7-9, 1965, Columbia 30th St. Studio, New York City (Tracks 11-20),
November, 29 – December, 2, 1993, Maximiliansaal Hamm (Tracks 21-24)
Доп. информация:

Отчёт EAC CD1

Exact Audio Copy V0.99 prebeta 4 from 23. January 2008
Отчёт EAC об извлечении, выполненном 8. сентября 2009, 11:28
Roy Goodman, Hanover Band / Mendelssohn, String Symphonies CD 1
Дисковод: HL-DT-STDVDRAM GSA-H62N Adapter: 2 ID: 0
Режим чтения : Достоверность
Использование точного потока : Да
Отключение кэша аудио : Да
Использование указателей C2 : Нет
Коррекция смещения при чтении : 667
Способность читать области Lead-in и Lead-out : Нет
Заполнение пропущенных сэмплов тишиной : Да
Удаление блоков с тишиной в начале и конце : Нет
При вычислениях CRC использовались нулевые сэмплы : Да
Интерфейс : Установленный внешний ASPI-интерфейс
Выходной формат : Внутренние WAV-операции
Формат сэмплов : 44.100 Гц; 16 бит; стерео
TOC извлечённого CD
Трек | Старт | Длительность | Начальный сектор | Конечный сектор
---------------------------------------------------------------------
1 | 0:00.00 | 4:45.45 | 0 | 21419
2 | 4:45.45 | 3:32.57 | 21420 | 37376
3 | 8:18.27 | 2:44.38 | 37377 | 49714
4 | 11:02.65 | 4:20.17 | 49715 | 69231
5 | 15:23.07 | 4:29.08 | 69232 | 89414
6 | 19:52.15 | 2:13.05 | 89415 | 99394
7 | 22:05.20 | 3:54.52 | 99395 | 116996
8 | 25:59.72 | 2:57.33 | 116997 | 130304
9 | 28:57.30 | 2:28.45 | 130305 | 141449
10 | 31:26.00 | 3:16.70 | 141450 | 156219
11 | 34:42.70 | 2:35.15 | 156220 | 167859
12 | 37:18.10 | 2:41.62 | 167860 | 179996
13 | 39:59.72 | 4:16.05 | 179997 | 199201
14 | 44:16.02 | 2:45.43 | 199202 | 211619
15 | 47:01.45 | 4:00.50 | 211620 | 229669
16 | 51:02.20 | 3:13.55 | 229670 | 244199
17 | 54:16.00 | 4:34.60 | 244200 | 264809
18 | 58:50.60 | 3:49.00 | 264810 | 281984
19 | 62:39.60 | 10:20.47 | 281985 | 328531
Характеристики диапазона извлечения и сообщения об ошибках
Выбранный диапазон
Имя файла D:\временная\Roy Goodman, Hanover Band - Mendelssohn, String Symphonies CD 1.wav
Пиковый уровень 94.5 %
Качество диапазона 100.0 %
CRC копии 680EA1A3
Копирование... OK
Ошибок не произошло
AccurateRip: сводка
Трек 1 точное извлечение (доверие 2) [F8D8FE86]
Трек 2 точное извлечение (доверие 2) [7968F45E]
Трек 3 точное извлечение (доверие 2) [91A75708]
Трек 4 точное извлечение (доверие 2) [EFF7A9D5]
Трек 5 точное извлечение (доверие 2) [BC0A5851]
Трек 6 точное извлечение (доверие 2) [D635B55F]
Трек 7 точное извлечение (доверие 2) [8C082CD9]
Трек 8 точное извлечение (доверие 2) [7DFE5626]
Трек 9 точное извлечение (доверие 2) [0B8B70A4]
Трек 10 точное извлечение (доверие 2) [D876A478]
Трек 11 точное извлечение (доверие 2) [1412C518]
Трек 12 точное извлечение (доверие 2) [896EF69A]
Трек 13 точное извлечение (доверие 2) [6D17B98D]
Трек 14 точное извлечение (доверие 2) [CB9E5F6D]
Трек 15 точное извлечение (доверие 2) [15229497]
Трек 16 точное извлечение (доверие 2) [30DF0962]
Трек 17 точное извлечение (доверие 2) [6E67EAAA]
Трек 18 точное извлечение (доверие 2) [FFB32BBB]
Трек 19 точное извлечение (доверие 2) [AADEF2FF]
Все треки извлечены точно
Конец отчёта

Отчёт EAC CD2

Exact Audio Copy V0.99 prebeta 4 from 23. January 2008
Отчёт EAC об извлечении, выполненном 8. сентября 2009, 18:46
Roy Goodman, Hanover Band / Mendelssohn, String Symphonies CD2
Дисковод: HL-DT-STDVDRAM GSA-H62N Adapter: 2 ID: 0
Режим чтения : Достоверность
Использование точного потока : Да
Отключение кэша аудио : Да
Использование указателей C2 : Нет
Коррекция смещения при чтении : 667
Способность читать области Lead-in и Lead-out : Нет
Заполнение пропущенных сэмплов тишиной : Да
Удаление блоков с тишиной в начале и конце : Нет
При вычислениях CRC использовались нулевые сэмплы : Да
Интерфейс : Установленный внешний ASPI-интерфейс
Выходной формат : Внутренние WAV-операции
Формат сэмплов : 44.100 Гц; 16 бит; стерео
TOC извлечённого CD
Трек | Старт | Длительность | Начальный сектор | Конечный сектор
---------------------------------------------------------------------
1 | 0:00.00 | 5:37.22 | 0 | 25296
2 | 5:37.22 | 5:17.23 | 25297 | 49094
3 | 10:54.45 | 3:59.30 | 49095 | 67049
4 | 14:54.00 | 6:50.67 | 67050 | 97866
5 | 21:44.67 | 10:34.23 | 97867 | 145439
6 | 32:19.15 | 5:33.07 | 145440 | 170421
7 | 37:52.22 | 6:38.65 | 170422 | 200336
8 | 44:31.12 | 7:24.38 | 200337 | 233674
9 | 51:55.50 | 5:18.27 | 233675 | 257551
10 | 57:14.02 | 7:30.25 | 257552 | 291326
11 | 64:44.27 | 9:36.73 | 291327 | 334599
Характеристики диапазона извлечения и сообщения об ошибках
Выбранный диапазон
Имя файла D:\временная\Roy Goodman, Hanover Band - Mendelssohn, String Symphonies CD2.wav
Пиковый уровень 98.9 %
Качество диапазона 100.0 %
CRC копии 832936EE
Копирование... OK
Ошибок не произошло
AccurateRip: сводка
Трек 1 точное извлечение (доверие 2) [1B7B0896]
Трек 2 точное извлечение (доверие 2) [FAF22FA6]
Трек 3 точное извлечение (доверие 2) [07A86190]
Трек 4 точное извлечение (доверие 2) [9E267965]
Трек 5 точное извлечение (доверие 2) [C211EE31]
Трек 6 точное извлечение (доверие 2) [9D940751]
Трек 7 точное извлечение (доверие 2) [79CEAE6C]
Трек 8 точное извлечение (доверие 2) [92311B5F]
Трек 9 точное извлечение (доверие 2) [F883C09A]
Трек 10 точное извлечение (доверие 2) [B774F1BC]
Трек 11 точное извлечение (доверие 2) [74D867C0]
Все треки извлечены точно
Конец отчёта

Отчёт EAC CD3

Exact Audio Copy V0.99 prebeta 4 from 23. January 2008
Отчёт EAC об извлечении, выполненном 8. сентября 2009, 17:35
Roy Goodman, Hanover Band / Mendelssohn, String Symphies, CD 3
Дисковод: HL-DT-STDVDRAM GSA-H62N Adapter: 2 ID: 0
Режим чтения : Достоверность
Использование точного потока : Да
Отключение кэша аудио : Да
Использование указателей C2 : Нет
Коррекция смещения при чтении : 667
Способность читать области Lead-in и Lead-out : Нет
Заполнение пропущенных сэмплов тишиной : Да
Удаление блоков с тишиной в начале и конце : Нет
При вычислениях CRC использовались нулевые сэмплы : Да
Интерфейс : Установленный внешний ASPI-интерфейс
Выходной формат : Внутренние WAV-операции
Формат сэмплов : 44.100 Гц; 16 бит; стерео
TOC извлечённого CD
Трек | Старт | Длительность | Начальный сектор | Конечный сектор
---------------------------------------------------------------------
1 | 0:00.32 | 11:23.00 | 32 | 51256
2 | 11:23.32 | 6:31.53 | 51257 | 80634
3 | 17:55.10 | 3:36.02 | 80635 | 96836
4 | 21:31.12 | 7:15.28 | 96837 | 129489
5 | 28:46.40 | 12:45.22 | 129490 | 186886
6 | 41:31.62 | 4:18.68 | 186887 | 206304
7 | 45:50.55 | 9:11.52 | 206305 | 247681
8 | 55:02.32 | 4:26.45 | 247682 | 267676
9 | 59:29.02 | 10:00.18 | 267677 | 312694
10 | 69:29.20 | 7:12.22 | 312695 | 345116
Характеристики диапазона извлечения и сообщения об ошибках
Выбранный диапазон
Имя файла D:\временная\Roy Goodman, Hanover Band - Mendelssohn, String Symphies, CD 3.wav
Пиковый уровень 100.0 %
Качество диапазона 100.0 %
CRC копии 1EF638B6
Копирование... OK
Ошибок не произошло
AccurateRip: сводка
Трек 1 нет в базе данных
Трек 2 нет в базе данных
Трек 3 нет в базе данных
Трек 4 нет в базе данных
Трек 5 нет в базе данных
Трек 6 нет в базе данных
Трек 7 нет в базе данных
Трек 8 нет в базе данных
Трек 9 нет в базе данных
Трек 10 точное извлечение (доверие 2) [13143A7D]
1 трек(и) скопированы точно
9 трек(и) не содержатся в базе AccurateRip
Некоторые треки не прошли проверку на точность
Конец отчёта

Отчёт EAC CD4

Exact Audio Copy V0.99 prebeta 4 from 23. January 2008
Отчёт EAC об извлечении, выполненном 8. сентября 2009, 18:01
Felix Mendelsshon-Bartholdy / Le 5 sinfonie - Disk 1/3
Дисковод: HL-DT-STDVDRAM GSA-H62N Adapter: 2 ID: 0
Режим чтения : Достоверность
Использование точного потока : Да
Отключение кэша аудио : Да
Использование указателей C2 : Нет
Коррекция смещения при чтении : 667
Способность читать области Lead-in и Lead-out : Нет
Заполнение пропущенных сэмплов тишиной : Да
Удаление блоков с тишиной в начале и конце : Нет
При вычислениях CRC использовались нулевые сэмплы : Да
Интерфейс : Установленный внешний ASPI-интерфейс
Выходной формат : Внутренние WAV-операции
Формат сэмплов : 44.100 Гц; 16 бит; стерео
TOC извлечённого CD
Трек | Старт | Длительность | Начальный сектор | Конечный сектор
---------------------------------------------------------------------
1 | 0:00.33 | 6:58.52 | 33 | 31434
2 | 6:59.10 | 6:21.00 | 31435 | 60009
3 | 13:20.10 | 6:57.13 | 60010 | 91297
4 | 20:17.23 | 8:22.12 | 91298 | 128959
5 | 28:39.35 | 13:23.35 | 128960 | 189219
6 | 42:02.70 | 4:26.60 | 189220 | 209229
7 | 46:29.55 | 8:08.33 | 209230 | 245862
8 | 54:38.13 | 10:17.67 | 245863 | 292204
Характеристики диапазона извлечения и сообщения об ошибках
Выбранный диапазон
Имя файла D:\временная\Felix Mendelsshon-Bartholdy - Le 5 sinfonie - Disk 1 3.wav
Пиковый уровень 100.0 %
Качество диапазона 100.0 %
CRC копии 3784FAF7
Копирование... OK
Ошибок не произошло
AccurateRip: сводка
Трек 1 точное извлечение (доверие 2) [2D8AA13E]
Трек 2 точное извлечение (доверие 2) [1D225990]
Трек 3 точное извлечение (доверие 2) [779FA51B]
Трек 4 точное извлечение (доверие 2) [0570FCF8]
Трек 5 точное извлечение (доверие 2) [D65EBFBD]
Трек 6 точное извлечение (доверие 2) [1824E052]
Трек 7 точное извлечение (доверие 2) [10E2E7CF]
Трек 8 точное извлечение (доверие 2) [4915C292]
Все треки извлечены точно
Конец отчёта

Отчёт EAC CD5

Exact Audio Copy V0.99 prebeta 4 from 23. January 2008
Отчёт EAC об извлечении, выполненном 8. сентября 2009, 20:09
Felix Mendelsshon-Bartholdy / Le 5 sinfonie - Disk 2/3
Дисковод: HL-DT-STDVDRAM GSA-H62N Adapter: 2 ID: 0
Режим чтения : Достоверность
Использование точного потока : Да
Отключение кэша аудио : Да
Использование указателей C2 : Нет
Коррекция смещения при чтении : 667
Способность читать области Lead-in и Lead-out : Нет
Заполнение пропущенных сэмплов тишиной : Да
Удаление блоков с тишиной в начале и конце : Нет
При вычислениях CRC использовались нулевые сэмплы : Да
Интерфейс : Установленный внешний ASPI-интерфейс
Выходной формат : Внутренние WAV-операции
Формат сэмплов : 44.100 Гц; 16 бит; стерео
TOC извлечённого CD
Трек | Старт | Длительность | Начальный сектор | Конечный сектор
---------------------------------------------------------------------
1 | 0:00.32 | 22:54.50 | 32 | 103131
2 | 22:55.07 | 6:31.20 | 103132 | 132476
3 | 29:26.27 | 2:38.23 | 132477 | 144349
4 | 32:04.50 | 2:04.50 | 144350 | 153699
5 | 34:09.25 | 5:14.00 | 153700 | 177249
6 | 39:23.25 | 4:43.17 | 177250 | 198491
7 | 44:06.42 | 4:08.03 | 198492 | 217094
8 | 48:14.45 | 3:23.70 | 217095 | 232389
9 | 51:38.40 | 4:21.35 | 232390 | 251999
10 | 56:00.00 | 5:21.60 | 252000 | 276134
Характеристики диапазона извлечения и сообщения об ошибках
Выбранный диапазон
Имя файла D:\временная\Felix Mendelsshon-Bartholdy - Le 5 sinfonie - Disk 2 3.wav
Пиковый уровень 98.0 %
Качество диапазона 100.0 %
CRC копии 8BAA9B59
Копирование... OK
Ошибок не произошло
AccurateRip: сводка
Трек 1 точное извлечение (доверие 2) [334424F4]
Трек 2 точное извлечение (доверие 2) [2426D221]
Трек 3 точное извлечение (доверие 2) [EDF72584]
Трек 4 точное извлечение (доверие 2) [71170486]
Трек 5 точное извлечение (доверие 2) [89C6A598]
Трек 6 точное извлечение (доверие 2) [FF4DA668]
Трек 7 точное извлечение (доверие 2) [81A591C0]
Трек 8 точное извлечение (доверие 2) [01CC190F]
Трек 9 точное извлечение (доверие 2) [D89C1FB5]
Трек 10 точное извлечение (доверие 2) [E6B74CAB]
Все треки извлечены точно
Конец отчёта

Отчёт EAC CD6

Exact Audio Copy V0.99 prebeta 4 from 23. January 2008
Отчёт EAC об извлечении, выполненном 8. сентября 2009, 18:21
Mendelssohn / Symphonies Nos 4+5
Дисковод: HL-DT-STDVDRAM GSA-H62N Adapter: 2 ID: 0
Режим чтения : Достоверность
Использование точного потока : Да
Отключение кэша аудио : Да
Использование указателей C2 : Нет
Коррекция смещения при чтении : 667
Способность читать области Lead-in и Lead-out : Нет
Заполнение пропущенных сэмплов тишиной : Да
Удаление блоков с тишиной в начале и конце : Нет
При вычислениях CRC использовались нулевые сэмплы : Да
Интерфейс : Установленный внешний ASPI-интерфейс
Выходной формат : Внутренние WAV-операции
Формат сэмплов : 44.100 Гц; 16 бит; стерео
TOC извлечённого CD
Трек | Старт | Длительность | Начальный сектор | Конечный сектор
---------------------------------------------------------------------
1 | 0:00.33 | 11:18.57 | 33 | 50939
2 | 11:19.15 | 6:45.65 | 50940 | 81379
3 | 18:05.05 | 6:22.00 | 81380 | 110029
4 | 24:27.05 | 6:00.23 | 110030 | 137052
5 | 30:27.28 | 10:29.05 | 137053 | 184232
6 | 40:56.33 | 5:07.50 | 184233 | 207307
7 | 46:04.08 | 2:32.00 | 207308 | 218707
8 | 48:36.08 | 7:35.25 | 218708 | 252857
Характеристики диапазона извлечения и сообщения об ошибках
Выбранный диапазон
Имя файла D:\временная\Mendelssohn - Symphonies Nos 4+5.wav
Пиковый уровень 100.0 %
Качество диапазона 99.9 %
CRC копии A8DFE267
Копирование... OK
Ошибок не произошло
AccurateRip: сводка
Трек 1 точное извлечение (доверие 2) [AE324A9B]
Трек 2 точное извлечение (доверие 2) [DF7A26AD]
Трек 3 точное извлечение (доверие 2) [2A5AEAD5]
Трек 4 точное извлечение (доверие 2) [4DC633E9]
Трек 5 нет в базе данных
Трек 6 нет в базе данных
Трек 7 точное извлечение (доверие 2) [93EC4F6E]
Трек 8 точное извлечение (доверие 2) [2A512F43]
6 трек(и) скопированы точно
2 трек(и) не содержатся в базе AccurateRip
Некоторые треки не прошли проверку на точность
Конец отчёта

Отчёт EAC CD7

Exact Audio Copy V0.99 prebeta 4 from 23. January 2008
Отчёт EAC об извлечении, выполненном 8. сентября 2009, 21:54
Mendelssohn-Bartholdy, Felix / Felix Mendelssohn-Bartholdy - Overtures
Дисковод: HL-DT-STDVDRAM GSA-H62N Adapter: 2 ID: 0
Режим чтения : Достоверность
Использование точного потока : Да
Отключение кэша аудио : Да
Использование указателей C2 : Нет
Коррекция смещения при чтении : 667
Способность читать области Lead-in и Lead-out : Нет
Заполнение пропущенных сэмплов тишиной : Да
Удаление блоков с тишиной в начале и конце : Нет
При вычислениях CRC использовались нулевые сэмплы : Да
Интерфейс : Установленный внешний ASPI-интерфейс
Выходной формат : Внутренние WAV-операции
Формат сэмплов : 44.100 Гц; 16 бит; стерео
TOC извлечённого CD
Трек | Старт | Длительность | Начальный сектор | Конечный сектор
---------------------------------------------------------------------
1 | 0:00.00 | 7:10.42 | 0 | 32291
2 | 7:10.42 | 12:32.66 | 32292 | 88757
3 | 19:43.33 | 12:14.04 | 88758 | 143811
4 | 31:57.37 | 8:02.44 | 143812 | 180005
5 | 40:00.06 | 8:30.37 | 180006 | 218292
6 | 48:30.43 | 4:52.10 | 218293 | 240202
7 | 53:22.53 | 10:13.51 | 240203 | 286228
8 | 63:36.29 | 8:59.62 | 286229 | 326715
Характеристики диапазона извлечения и сообщения об ошибках
Выбранный диапазон
Имя файла D:\временная\Mendelssohn-Bartholdy, Felix - Felix Mendelssohn-Bartholdy - Overtures.wav
Пиковый уровень 98.8 %
Качество диапазона 100.0 %
CRC копии DC8021CB
Копирование... OK
Ошибок не произошло
AccurateRip: сводка
Трек 1 точное извлечение (доверие 2) [A2BC4F22]
Трек 2 точное извлечение (доверие 2) [9C93064C]
Трек 3 точное извлечение (доверие 2) [ABD913A0]
Трек 4 точное извлечение (доверие 2) [E1CFD749]
Трек 5 точное извлечение (доверие 2) [90E7F385]
Трек 6 точное извлечение (доверие 2) [D58A829B]
Трек 7 точное извлечение (доверие 2) [7D7DF34C]
Трек 8 точное извлечение (доверие 2) [EB787A54]
Все треки извлечены точно
Конец отчёта

Отчёт EAC CD8

Exact Audio Copy V0.99 prebeta 4 from 23. January 2008
Отчёт EAC об извлечении, выполненном 9. сентября 2009, 0:04
Mendelssohn-Bartholdy, Felix / Mendelssohn-Bartholdy, Felix - Violin Concertos
Дисковод: HL-DT-STDVDRAM GSA-H62N Adapter: 2 ID: 0
Режим чтения : Достоверность
Использование точного потока : Да
Отключение кэша аудио : Да
Использование указателей C2 : Нет
Коррекция смещения при чтении : 667
Способность читать области Lead-in и Lead-out : Нет
Заполнение пропущенных сэмплов тишиной : Да
Удаление блоков с тишиной в начале и конце : Нет
При вычислениях CRC использовались нулевые сэмплы : Да
Интерфейс : Установленный внешний ASPI-интерфейс
Выходной формат : Внутренние WAV-операции
Формат сэмплов : 44.100 Гц; 16 бит; стерео
TOC извлечённого CD
Трек | Старт | Длительность | Начальный сектор | Конечный сектор
---------------------------------------------------------------------
1 | 0:00.00 | 12:32.39 | 0 | 56438
2 | 12:32.39 | 9:15.22 | 56439 | 98085
3 | 21:47.61 | 5:42.34 | 98086 | 123769
4 | 27:30.20 | 9:05.01 | 123770 | 164645
5 | 36:35.21 | 9:36.24 | 164646 | 207869
6 | 46:11.45 | 4:20.29 | 207870 | 227398
Характеристики диапазона извлечения и сообщения об ошибках
Выбранный диапазон
Имя файла D:\временная\Mendelssohn-Bartholdy, Felix - Mendelssohn-Bartholdy, Felix - Violin Concertos.wav
Пиковый уровень 100.0 %
Качество диапазона 100.0 %
CRC копии DA91F3AA
Копирование... OK
Ошибок не произошло
AccurateRip: сводка
Трек 1 точное извлечение (доверие 2) [5F2BDED0]
Трек 2 точное извлечение (доверие 2) [7638A2B8]
Трек 3 точное извлечение (доверие 2) [CCF812FE]
Трек 4 нет в базе данных
Трек 5 точное извлечение (доверие 2) [92795683]
Трек 6 точное извлечение (доверие 2) [F1A7AA20]
5 трек(и) скопированы точно
1 трек(и) не содержатся в базе AccurateRip
Некоторые треки не прошли проверку на точность
Конец отчёта

Отчёт EAC CD9

Exact Audio Copy V0.99 prebeta 4 from 23. January 2008
Отчёт EAC об извлечении, выполненном 9. сентября 2009, 2:14
Mendelssohn-Bartholdy, Felix / Concertos For Two Pianos
Дисковод: HL-DT-STDVDRAM GSA-H62N Adapter: 2 ID: 0
Режим чтения : Достоверность
Использование точного потока : Да
Отключение кэша аудио : Да
Использование указателей C2 : Нет
Коррекция смещения при чтении : 667
Способность читать области Lead-in и Lead-out : Нет
Заполнение пропущенных сэмплов тишиной : Да
Удаление блоков с тишиной в начале и конце : Нет
При вычислениях CRC использовались нулевые сэмплы : Да
Интерфейс : Установленный внешний ASPI-интерфейс
Выходной формат : Внутренние WAV-операции
Формат сэмплов : 44.100 Гц; 16 бит; стерео
TOC извлечённого CD
Трек | Старт | Длительность | Начальный сектор | Конечный сектор
---------------------------------------------------------------------
1 | 0:00.00 | 11:46.50 | 0 | 52999
2 | 11:46.50 | 9:42.00 | 53000 | 96649
3 | 21:28.50 | 7:19.00 | 96650 | 129574
4 | 28:47.50 | 13:43.00 | 129575 | 191299
5 | 42:30.50 | 7:49.00 | 191300 | 226474
6 | 50:19.50 | 9:23.35 | 226475 | 268734
Характеристики диапазона извлечения и сообщения об ошибках
Выбранный диапазон
Имя файла D:\временная\Mendelssohn-Bartholdy, Felix - Concertos For Two Pianos.wav
Пиковый уровень 96.8 %
Качество диапазона 100.0 %
CRC копии ACF3B9A9
Копирование... OK
Ошибок не произошло
AccurateRip: сводка
Трек 1 точное извлечение (доверие 2) [E1F3F382]
Трек 2 точное извлечение (доверие 2) [45740187]
Трек 3 точное извлечение (доверие 2) [F525D116]
Трек 4 точное извлечение (доверие 2) [9817E710]
Трек 5 точное извлечение (доверие 2) [7E3F933D]
Трек 6 точное извлечение (доверие 2) [4FF59A85]
Все треки извлечены точно
Конец отчёта

Отчёт EAC CD10

Exact Audio Copy V0.99 prebeta 4 from 23. January 2008
Отчёт EAC об извлечении, выполненном 9. сентября 2009, 2:37
Mendelssohn-Bartholdy, Felix / Concertos for Piano an Orchestra Nos. 1 + 2
Дисковод: HL-DT-STDVDRAM GSA-H62N Adapter: 2 ID: 0
Режим чтения : Достоверность
Использование точного потока : Да
Отключение кэша аудио : Да
Использование указателей C2 : Нет
Коррекция смещения при чтении : 667
Способность читать области Lead-in и Lead-out : Нет
Заполнение пропущенных сэмплов тишиной : Да
Удаление блоков с тишиной в начале и конце : Нет
При вычислениях CRC использовались нулевые сэмплы : Да
Интерфейс : Установленный внешний ASPI-интерфейс
Выходной формат : Внутренние WAV-операции
Формат сэмплов : 44.100 Гц; 16 бит; стерео
TOC извлечённого CD
Трек | Старт | Длительность | Начальный сектор | Конечный сектор
---------------------------------------------------------------------
1 | 0:00.00 | 7:06.18 | 0 | 31967
2 | 7:06.18 | 6:28.07 | 31968 | 61074
3 | 13:34.25 | 6:34.62 | 61075 | 90686
4 | 20:09.12 | 9:22.17 | 90687 | 132853
5 | 29:31.29 | 7:24.16 | 132854 | 166169
6 | 36:55.45 | 6:51.25 | 166170 | 197019
7 | 43:46.70 | 10:53.55 | 197020 | 246049
8 | 54:40.50 | 11:22.56 | 246050 | 297255
Характеристики диапазона извлечения и сообщения об ошибках
Выбранный диапазон
Имя файла D:\временная\Mendelssohn-Bartholdy, Felix - Concertos for Piano an Orchestra Nos. 1 + 2.wav
Пиковый уровень 98.8 %
Качество диапазона 100.0 %
CRC копии 983284FA
Копирование... OK
Ошибок не произошло
AccurateRip: сводка
Трек 1 точное извлечение (доверие 2) [A6350FDB]
Трек 2 точное извлечение (доверие 2) [7DE07FD2]
Трек 3 точное извлечение (доверие 2) [4845CDEB]
Трек 4 точное извлечение (доверие 2) [488DBA53]
Трек 5 точное извлечение (доверие 2) [B8F85504]
Трек 6 точное извлечение (доверие 2) [5A5B1402]
Трек 7 точное извлечение (доверие 2) [BBE89627]
Трек 8 точное извлечение (доверие 2) [5FA10891]
Все треки извлечены точно
Конец отчёта

Отчёт EAC CD11

Exact Audio Copy V0.99 prebeta 4 from 23. January 2008
Отчёт EAC об извлечении, выполненном 9. сентября 2009, 12:03
Mendelssohn / A Midsummer Night's Dream
Дисковод: HL-DT-STDVDRAM GSA-H62N Adapter: 2 ID: 0
Режим чтения : Достоверность
Использование точного потока : Да
Отключение кэша аудио : Да
Использование указателей C2 : Нет
Коррекция смещения при чтении : 667
Способность читать области Lead-in и Lead-out : Нет
Заполнение пропущенных сэмплов тишиной : Да
Удаление блоков с тишиной в начале и конце : Нет
При вычислениях CRC использовались нулевые сэмплы : Да
Интерфейс : Установленный внешний ASPI-интерфейс
Выходной формат : Внутренние WAV-операции
Формат сэмплов : 44.100 Гц; 16 бит; стерео
TOC извлечённого CD
Трек | Старт | Длительность | Начальный сектор | Конечный сектор
---------------------------------------------------------------------
1 | 0:00.00 | 12:48.25 | 0 | 57624
2 | 12:48.25 | 0:11.55 | 57625 | 58504
3 | 13:00.05 | 4:43.07 | 58505 | 79736
4 | 17:43.12 | 0:29.68 | 79737 | 81979
5 | 18:13.05 | 1:02.02 | 81980 | 86631
6 | 19:15.07 | 0:37.23 | 86632 | 89429
7 | 19:52.30 | 0:31.70 | 89430 | 91824
8 | 20:24.25 | 3:57.20 | 91825 | 109619
9 | 24:21.45 | 0:13.30 | 109620 | 110624
10 | 24:35.00 | 2:11.62 | 110625 | 120511
11 | 26:46.62 | 1:16.43 | 120512 | 126254
12 | 28:03.30 | 0:31.72 | 126255 | 128651
13 | 28:35.27 | 5:59.23 | 128652 | 155599
14 | 34:34.50 | 0:22.35 | 155600 | 157284
15 | 34:57.10 | 0:18.35 | 157285 | 158669
16 | 35:15.45 | 1:43.50 | 158670 | 166444
17 | 36:59.20 | 0:09.20 | 166445 | 167139
18 | 37:08.40 | 4:57.10 | 167140 | 189424
19 | 42:05.50 | 0:57.70 | 189425 | 193769
20 | 43:03.45 | 0:17.17 | 193770 | 195061
21 | 43:20.62 | 0:11.73 | 195062 | 195959
22 | 43:32.60 | 2:28.05 | 195960 | 207064
23 | 46:00.65 | 1:07.50 | 207065 | 212139
24 | 47:08.40 | 0:13.00 | 212140 | 213114
25 | 47:21.40 | 0:57.35 | 213115 | 217424
Характеристики диапазона извлечения и сообщения об ошибках
Выбранный диапазон
Имя файла D:\временная\Mendelssohn - A Midsummer Night's Dream.wav
Пиковый уровень 93.5 %
Качество диапазона 100.0 %
CRC копии 13091DD3
Копирование... OK
Ошибок не произошло
AccurateRip: сводка
Трек 1 точное извлечение (доверие 2) [437AAF67]
Трек 2 точное извлечение (доверие 2) [07BA82D1]
Трек 3 точное извлечение (доверие 2) [B8EBA8D1]
Трек 4 точное извлечение (доверие 2) [45DA7EDE]
Трек 5 точное извлечение (доверие 2) [4A4BD011]
Трек 6 точное извлечение (доверие 2) [A01C7339]
Трек 7 точное извлечение (доверие 2) [50F1BA4C]
Трек 8 точное извлечение (доверие 2) [02D58DB6]
Трек 9 точное извлечение (доверие 2) [862543F6]
Трек 10 точное извлечение (доверие 2) [E53BEEF3]
Трек 11 точное извлечение (доверие 2) [0A06B73A]
Трек 12 точное извлечение (доверие 2) [6DD19710]
Трек 13 точное извлечение (доверие 2) [EFC2128E]
Трек 14 точное извлечение (доверие 2) [0564DBF8]
Трек 15 точное извлечение (доверие 2) [5F3682E4]
Трек 16 точное извлечение (доверие 2) [943EAD1C]
Трек 17 точное извлечение (доверие 2) [8D14822C]
Трек 18 точное извлечение (доверие 2) [FA859A0C]
Трек 19 точное извлечение (доверие 2) [DF5014BE]
Трек 20 точное извлечение (доверие 2) [EA4B8504]
Трек 21 точное извлечение (доверие 2) [BFEC29CD]
Трек 22 точное извлечение (доверие 2) [C4148206]
Трек 23 точное извлечение (доверие 2) [4857A545]
Трек 24 точное извлечение (доверие 2) [1DBE14C7]
Трек 25 точное извлечение (доверие 2) [B6DCE8BD]
Все треки извлечены точно
Конец отчёта

Отчёт EAC CD12

Exact Audio Copy V0.99 prebeta 4 from 23. January 2008
Отчёт EAC об извлечении, выполненном 9. сентября 2009, 12:29
Bach-Ensemble der EuropaChorAkademie / Felix Mendelssohn-Bartholdy - Paulus
Дисковод: HL-DT-STDVDRAM GSA-H62N Adapter: 2 ID: 0
Режим чтения : Достоверность
Использование точного потока : Да
Отключение кэша аудио : Да
Использование указателей C2 : Нет
Коррекция смещения при чтении : 667
Способность читать области Lead-in и Lead-out : Нет
Заполнение пропущенных сэмплов тишиной : Да
Удаление блоков с тишиной в начале и конце : Нет
При вычислениях CRC использовались нулевые сэмплы : Да
Интерфейс : Установленный внешний ASPI-интерфейс
Выходной формат : Внутренние WAV-операции
Формат сэмплов : 44.100 Гц; 16 бит; стерео
TOC извлечённого CD
Трек | Старт | Длительность | Начальный сектор | Конечный сектор
---------------------------------------------------------------------
1 | 0:00.00 | 7:25.30 | 0 | 33404
2 | 7:25.30 | 4:04.05 | 33405 | 51709
3 | 11:29.35 | 1:40.10 | 51710 | 59219
4 | 13:09.45 | 2:03.05 | 59220 | 68449
5 | 15:12.50 | 3:08.35 | 68450 | 82584
6 | 18:21.10 | 4:50.70 | 82585 | 104404
7 | 23:12.05 | 3:16.35 | 104405 | 119139
8 | 26:28.40 | 1:49.05 | 119140 | 127319
9 | 28:17.45 | 2:54.15 | 127320 | 140384
10 | 31:11.60 | 0:46.62 | 140385 | 143896
11 | 31:58.47 | 4:10.35 | 143897 | 162681
12 | 36:09.07 | 2:26.38 | 162682 | 173669
13 | 38:35.45 | 3:15.52 | 173670 | 188346
14 | 41:51.22 | 2:22.60 | 188347 | 199056
15 | 44:14.07 | 5:19.10 | 199057 | 222991
16 | 49:33.17 | 2:04.53 | 222992 | 232344
17 | 51:37.70 | 1:16.72 | 232345 | 238116
18 | 52:54.67 | 5:17.50 | 238117 | 261941
19 | 58:12.42 | 1:35.18 | 261942 | 269084
20 | 59:47.60 | 4:28.20 | 269085 | 289204
21 | 64:16.05 | 1:44.42 | 289205 | 297046
22 | 66:00.47 | 5:06.53 | 297047 | 320049
Характеристики диапазона извлечения и сообщения об ошибках
Выбранный диапазон
Имя файла D:\временная\Bach-Ensemble der EuropaChorAkademie - Felix Mendelssohn-Bartholdy - Paulus.wav
Пиковый уровень 92.8 %
Качество диапазона 100.0 %
CRC копии 60B7E5CF
Копирование... OK
Ошибок не произошло
AccurateRip: сводка
Трек 1 точное извлечение (доверие 3) [B98E2AA7]
Трек 2 точное извлечение (доверие 3) [156C5593]
Трек 3 точное извлечение (доверие 3) [C08123A8]
Трек 4 точное извлечение (доверие 3) [972BB492]
Трек 5 точное извлечение (доверие 3) [770BEC00]
Трек 6 точное извлечение (доверие 3) [55CE1D81]
Трек 7 точное извлечение (доверие 3) [7FE4B98E]
Трек 8 точное извлечение (доверие 3) [84F04A27]
Трек 9 точное извлечение (доверие 3) [FCBE524F]
Трек 10 точное извлечение (доверие 3) [5A7C4013]
Трек 11 точное извлечение (доверие 3) [AA426D2A]
Трек 12 точное извлечение (доверие 3) [041BB4CD]
Трек 13 точное извлечение (доверие 3) [E8AF28DD]
Трек 14 точное извлечение (доверие 3) [12BCD0CD]
Трек 15 точное извлечение (доверие 3) [4EB4D380]
Трек 16 точное извлечение (доверие 3) [E28F7063]
Трек 17 точное извлечение (доверие 3) [67E47CCA]
Трек 18 точное извлечение (доверие 3) [A10F0368]
Трек 19 точное извлечение (доверие 3) [715B53FF]
Трек 20 точное извлечение (доверие 3) [2AA553C3]
Трек 21 точное извлечение (доверие 3) [3F1D9A19]
Трек 22 точное извлечение (доверие 3) [54C3185B]
Все треки извлечены точно
Конец отчёта

Отчёт EAC CD13

Exact Audio Copy V0.99 prebeta 4 from 23. January 2008
Отчёт EAC об извлечении, выполненном 9. сентября 2009, 12:55
Bach-Ensemble der EuropaChorAkademie / Felix Mendelssohn-Bartholdy - Paulus
Дисковод: HL-DT-STDVDRAM GSA-H62N Adapter: 2 ID: 0
Режим чтения : Достоверность
Использование точного потока : Да
Отключение кэша аудио : Да
Использование указателей C2 : Нет
Коррекция смещения при чтении : 667
Способность читать области Lead-in и Lead-out : Нет
Заполнение пропущенных сэмплов тишиной : Да
Удаление блоков с тишиной в начале и конце : Нет
При вычислениях CRC использовались нулевые сэмплы : Да
Интерфейс : Установленный внешний ASPI-интерфейс
Выходной формат : Внутренние WAV-операции
Формат сэмплов : 44.100 Гц; 16 бит; стерео
TOC извлечённого CD
Трек | Старт | Длительность | Начальный сектор | Конечный сектор
---------------------------------------------------------------------
1 | 0:00.00 | 4:03.60 | 0 | 18284
2 | 4:03.60 | 0:58.37 | 18285 | 22671
3 | 5:02.22 | 1:32.23 | 22672 | 29594
4 | 6:34.45 | 2:50.45 | 29595 | 42389
5 | 9:25.15 | 2:32.52 | 42390 | 53841
6 | 11:57.67 | 1:15.38 | 53842 | 59504
7 | 13:13.30 | 5:27.65 | 59505 | 84094
8 | 18:41.20 | 0:42.40 | 84095 | 87284
9 | 19:23.60 | 2:28.42 | 87285 | 98426
10 | 21:52.27 | 0:58.43 | 98427 | 102819
11 | 22:50.70 | 1:18.15 | 102820 | 108684
12 | 24:09.10 | 7:45.37 | 108685 | 143596
13 | 31:54.47 | 0:17.30 | 143597 | 144901
14 | 32:12.02 | 1:50.70 | 144902 | 153221
15 | 34:02.72 | 0:35.45 | 153222 | 155891
16 | 34:38.42 | 3:04.50 | 155892 | 169741
17 | 37:43.17 | 1:40.05 | 169742 | 177246
18 | 39:23.22 | 3:23.65 | 177247 | 192536
19 | 42:47.12 | 3:01.33 | 192537 | 206144
20 | 45:48.45 | 0:51.55 | 206145 | 210024
21 | 46:40.25 | 4:10.00 | 210025 | 228774
Характеристики диапазона извлечения и сообщения об ошибках
Выбранный диапазон
Имя файла D:\временная\Bach-Ensemble der EuropaChorAkademie - Felix Mendelssohn-Bartholdy - Paulus.wav
Пиковый уровень 90.6 %
Качество диапазона 99.9 %
CRC копии 9024EC22
Копирование... OK
Ошибок не произошло
AccurateRip: сводка
Трек 1 точное извлечение (доверие 3) [E54FABC1]
Трек 2 точное извлечение (доверие 3) [290C0C60]
Трек 3 точное извлечение (доверие 3) [A08CD555]
Трек 4 точное извлечение (доверие 3) [4E6A428D]
Трек 5 точное извлечение (доверие 3) [5C44EC0A]
Трек 6 точное извлечение (доверие 3) [A5B9F696]
Трек 7 точное извлечение (доверие 3) [7A4D2561]
Трек 8 точное извлечение (доверие 3) [4B8C3361]
Трек 9 точное извлечение (доверие 3) [3731DB06]
Трек 10 точное извлечение (доверие 3) [2E9042B4]
Трек 11 точное извлечение (доверие 3) [0C734EED]
Трек 12 точное извлечение (доверие 3) [C4AD37F2]
Трек 13 точное извлечение (доверие 3) [D6B1E661]
Трек 14 точное извлечение (доверие 3) [786C4CCB]
Трек 15 точное извлечение (доверие 3) [E98185A9]
Трек 16 точное извлечение (доверие 3) [6F6A3C12]
Трек 17 точное извлечение (доверие 3) [66478622]
Трек 18 точное извлечение (доверие 3) [72510599]
Трек 19 точное извлечение (доверие 3) [F88C4F6B]
Трек 20 точное извлечение (доверие 3) [A909AFF6]
Трек 21 точное извлечение (доверие 3) [E944C31D]
Все треки извлечены точно
Конец отчёта

Отчёт EAC CD14

Exact Audio Copy V0.99 prebeta 4 from 23. January 2008
Отчёт EAC об извлечении, выполненном 9. сентября 2009, 13:20
Mendelssohn / Rubens/Stutzmann/Taylor/Gerhaher - Gewandhauskammerchor & Gewandhauschor Leipzig/Gewandhausorchester Leipzig/Herbert Blomstedt
Дисковод: HL-DT-STDVDRAM GSA-H62N Adapter: 2 ID: 0
Режим чтения : Достоверность
Использование точного потока : Да
Отключение кэша аудио : Да
Использование указателей C2 : Нет
Коррекция смещения при чтении : 667
Способность читать области Lead-in и Lead-out : Нет
Заполнение пропущенных сэмплов тишиной : Да
Удаление блоков с тишиной в начале и конце : Нет
При вычислениях CRC использовались нулевые сэмплы : Да
Интерфейс : Установленный внешний ASPI-интерфейс
Выходной формат : Внутренние WAV-операции
Формат сэмплов : 44.100 Гц; 16 бит; стерео
TOC извлечённого CD
Трек | Старт | Длительность | Начальный сектор | Конечный сектор
---------------------------------------------------------------------
1 | 0:00.00 | 0:56.10 | 0 | 4209
2 | 0:56.10 | 3:24.41 | 4210 | 19550
3 | 4:20.51 | 3:24.62 | 19551 | 34912
4 | 7:45.38 | 2:03.70 | 34913 | 44207
5 | 9:49.33 | 0:45.43 | 44208 | 47625
6 | 10:35.01 | 2:21.60 | 47626 | 58260
7 | 12:56.61 | 4:00.07 | 58261 | 76267
8 | 16:56.68 | 0:47.47 | 76268 | 79839
9 | 17:44.40 | 3:54.07 | 79840 | 97396
10 | 21:38.47 | 6:25.68 | 97397 | 126339
11 | 28:04.40 | 3:02.24 | 126340 | 140013
12 | 31:06.64 | 3:55.65 | 140014 | 157703
13 | 35:02.54 | 3:25.46 | 157704 | 173124
14 | 38:28.25 | 1:04.53 | 173125 | 177977
15 | 39:33.03 | 2:05.30 | 177978 | 187382
16 | 41:38.33 | 3:11.36 | 187383 | 201743
17 | 44:49.69 | 1:30.55 | 201744 | 208548
18 | 46:20.49 | 2:26.11 | 208549 | 219509
19 | 48:46.60 | 1:51.38 | 219510 | 227872
20 | 50:38.23 | 3:10.69 | 227873 | 242191
21 | 53:49.17 | 5:27.43 | 242192 | 266759
22 | 59:16.60 | 3:35.15 | 266760 | 282899
Характеристики диапазона извлечения и сообщения об ошибках
Выбранный диапазон
Имя файла D:\временная\Mendelssohn - Rubens Stutzmann Taylor Gerhaher - Gewandhauskammerchor & Gewandhauschor Leipzig Gewandhausorchester Leipzig Herbert Blomstedt.wav
Пиковый уровень 99.9 %
Качество диапазона 100.0 %
CRC копии 3AA5A84F
Копирование... OK
Ошибок не произошло
AccurateRip: сводка
Трек 1 точное извлечение (доверие 4) [CBEB51AE]
Трек 2 точное извлечение (доверие 4) [507AAA57]
Трек 3 точное извлечение (доверие 4) [5384A968]
Трек 4 точное извлечение (доверие 4) [2ECB967D]
Трек 5 точное извлечение (доверие 4) [38EEEA91]
Трек 6 точное извлечение (доверие 4) [A6F7E71D]
Трек 7 точное извлечение (доверие 4) [EA7C08E4]
Трек 8 точное извлечение (доверие 4) [04FD2156]
Трек 9 точное извлечение (доверие 4) [97DB9C30]
Трек 10 точное извлечение (доверие 4) [424FCD6E]
Трек 11 точное извлечение (доверие 4) [7C29D17D]
Трек 12 точное извлечение (доверие 4) [0BC9812E]
Трек 13 точное извлечение (доверие 4) [393A2F0F]
Трек 14 точное извлечение (доверие 4) [21E13FDB]
Трек 15 точное извлечение (доверие 4) [BB762B07]
Трек 16 точное извлечение (доверие 4) [67AEFFA4]
Трек 17 точное извлечение (доверие 4) [B3B71049]
Трек 18 точное извлечение (доверие 4) [5F0C0CA8]
Трек 19 точное извлечение (доверие 4) [89FB733C]
Трек 20 точное извлечение (доверие 4) [72D842F8]
Трек 21 точное извлечение (доверие 4) [1035F2CD]
Трек 22 точное извлечение (доверие 4) [78ABB0BB]
Все треки извлечены точно
Конец отчёта

Отчёт EAC CD15

Exact Audio Copy V0.99 prebeta 4 from 23. January 2008
Отчёт EAC об извлечении, выполненном 9. сентября 2009, 13:53
Mendelssohn / Rubens/Stutzmann/Taylor/Gerhaher - Gewandhauskammerchor & Gewandhauschor Leipzig/Gewandhausorchester Leipzig/Herbert Blomstedt
Дисковод: HL-DT-STDVDRAM GSA-H62N Adapter: 2 ID: 0
Режим чтения : Достоверность
Использование точного потока : Да
Отключение кэша аудио : Да
Использование указателей C2 : Нет
Коррекция смещения при чтении : 667
Способность читать области Lead-in и Lead-out : Нет
Заполнение пропущенных сэмплов тишиной : Да
Удаление блоков с тишиной в начале и конце : Нет
При вычислениях CRC использовались нулевые сэмплы : Да
Интерфейс : Установленный внешний ASPI-интерфейс
Выходной формат : Внутренние WAV-операции
Формат сэмплов : 44.100 Гц; 16 бит; стерео
TOC извлечённого CD
Трек | Старт | Длительность | Начальный сектор | Конечный сектор
---------------------------------------------------------------------
1 | 0:00.00 | 5:19.23 | 0 | 23947
2 | 5:19.23 | 3:55.49 | 23948 | 41621
3 | 9:14.72 | 3:29.42 | 41622 | 57338
4 | 12:44.39 | 1:45.27 | 57339 | 65240
5 | 14:29.66 | 2:24.09 | 65241 | 76049
6 | 16:54.00 | 4:59.59 | 76050 | 98533
7 | 21:53.59 | 0:49.49 | 98534 | 102257
8 | 22:43.33 | 1:36.03 | 102258 | 109460
9 | 24:19.36 | 2:48.34 | 109461 | 122094
10 | 27:07.70 | 1:39.61 | 122095 | 129580
11 | 28:47.56 | 2:44.09 | 129581 | 141889
12 | 31:31.65 | 3:01.64 | 141890 | 155528
13 | 34:33.54 | 1:43.21 | 155529 | 163274
14 | 36:17.00 | 3:57.06 | 163275 | 181055
15 | 40:14.06 | 2:47.09 | 181056 | 193589
16 | 43:01.15 | 1:27.38 | 193590 | 200152
17 | 44:28.53 | 2:32.02 | 200153 | 211554
18 | 47:00.55 | 2:33.73 | 211555 | 223102
19 | 49:34.53 | 2:19.50 | 223103 | 233577
20 | 51:54.28 | 1:01.73 | 233578 | 238225
21 | 52:56.26 | 2:45.12 | 238226 | 250612
22 | 55:41.38 | 3:10.29 | 250613 | 264891
23 | 58:51.67 | 3:02.08 | 264892 | 278549
Характеристики диапазона извлечения и сообщения об ошибках
Выбранный диапазон
Имя файла D:\временная\Mendelssohn - Rubens Stutzmann Taylor Gerhaher - Gewandhauskammerchor & Gewandhauschor Leipzig Gewandhausorchester Leipzig Herbert Blomstedt.wav
Пиковый уровень 99.7 %
Качество диапазона 100.0 %
CRC копии 2F561B47
Копирование... OK
Ошибок не произошло
AccurateRip: сводка
Трек 1 точное извлечение (доверие 3) [623EF9FC]
Трек 2 точное извлечение (доверие 3) [593D646F]
Трек 3 точное извлечение (доверие 3) [AE08E29D]
Трек 4 точное извлечение (доверие 3) [A97C33BF]
Трек 5 точное извлечение (доверие 3) [1EC997AD]
Трек 6 точное извлечение (доверие 3) [48F80029]
Трек 7 точное извлечение (доверие 3) [21130791]
Трек 8 точное извлечение (доверие 3) [101DB433]
Трек 9 точное извлечение (доверие 3) [1ED4611D]
Трек 10 точное извлечение (доверие 3) [4FC40B6E]
Трек 11 точное извлечение (доверие 3) [CC689966]
Трек 12 точное извлечение (доверие 3) [7DF380EB]
Трек 13 точное извлечение (доверие 3) [4BC6CEF5]
Трек 14 точное извлечение (доверие 3) [B7DE5199]
Трек 15 точное извлечение (доверие 3) [54DBA29F]
Трек 16 точное извлечение (доверие 3) [7BFA5965]
Трек 17 точное извлечение (доверие 3) [DA1A81AF]
Трек 18 точное извлечение (доверие 3) [8FDDB790]
Трек 19 точное извлечение (доверие 3) [1D1DD142]
Трек 20 точное извлечение (доверие 3) [A8DFEACE]
Трек 21 точное извлечение (доверие 3) [00407440]
Трек 22 точное извлечение (доверие 3) [224ABEE4]
Трек 23 точное извлечение (доверие 3) [FA05079D]
Все треки извлечены точно
Конец отчёта

Отчёт EAC CD16

Exact Audio Copy V0.99 prebeta 4 from 23. January 2008
Отчёт EAC об извлечении, выполненном 9. сентября 2009, 20:06
Felix Mendelssohn-Bartholdy / Walpurgisnacht; "Leise zieht durch mein Gemьth"
Дисковод: HL-DT-STDVDRAM GSA-H62N Adapter: 2 ID: 0
Режим чтения : Достоверность
Использование точного потока : Да
Отключение кэша аудио : Да
Использование указателей C2 : Нет
Коррекция смещения при чтении : 667
Способность читать области Lead-in и Lead-out : Нет
Заполнение пропущенных сэмплов тишиной : Да
Удаление блоков с тишиной в начале и конце : Нет
При вычислениях CRC использовались нулевые сэмплы : Да
Интерфейс : Установленный внешний ASPI-интерфейс
Выходной формат : Внутренние WAV-операции
Формат сэмплов : 44.100 Гц; 16 бит; стерео
TOC извлечённого CD
Трек | Старт | Длительность | Начальный сектор | Конечный сектор
---------------------------------------------------------------------
1 | 0:00.00 | 7:15.27 | 0 | 32651
2 | 7:15.27 | 1:30.30 | 32652 | 39431
3 | 8:45.57 | 4:01.68 | 39432 | 57574
4 | 12:47.50 | 2:04.22 | 57575 | 66896
5 | 14:51.72 | 1:52.15 | 66897 | 75311
6 | 16:44.12 | 1:32.25 | 75312 | 82236
7 | 18:16.37 | 0:35.65 | 82237 | 84926
8 | 18:52.27 | 1:32.40 | 84927 | 91866
9 | 20:24.67 | 4:32.70 | 91867 | 112336
10 | 24:57.62 | 3:17.00 | 112337 | 127111
11 | 28:14.62 | 1:02.23 | 127112 | 131784
12 | 29:17.10 | 2:33.40 | 131785 | 143299
13 | 31:50.50 | 3:07.67 | 143300 | 157391
14 | 34:58.42 | 2:03.35 | 157392 | 166651
15 | 37:02.02 | 2:31.43 | 166652 | 178019
16 | 39:33.45 | 1:39.62 | 178020 | 185506
17 | 41:13.32 | 2:34.23 | 185507 | 197079
18 | 43:47.55 | 2:01.72 | 197080 | 206226
19 | 45:49.52 | 1:38.23 | 206227 | 213599
20 | 47:28.00 | 2:46.27 | 213600 | 226076
21 | 50:14.27 | 2:58.58 | 226077 | 239484
22 | 53:13.10 | 2:01.00 | 239485 | 248559
23 | 55:14.10 | 3:39.42 | 248560 | 265026
24 | 58:53.52 | 1:57.23 | 265027 | 273824
Характеристики диапазона извлечения и сообщения об ошибках
Выбранный диапазон
Имя файла D:\временная\Felix Mendelssohn-Bartholdy - Walpurgisnacht; Leise zieht durch mein Gemьth.wav
Пиковый уровень 100.0 %
Качество диапазона 100.0 %
CRC копии 03C5F974
Копирование... OK
Ошибок не произошло
AccurateRip: сводка
Трек 1 точное извлечение (доверие 2) [4F1D0C7D]
Трек 2 точное извлечение (доверие 2) [6F6906A6]
Трек 3 точное извлечение (доверие 2) [D9B16917]
Трек 4 точное извлечение (доверие 2) [C592B13C]
Трек 5 точное извлечение (доверие 2) [4450D65D]
Трек 6 точное извлечение (доверие 2) [A4EE3150]
Трек 7 точное извлечение (доверие 2) [EA52376A]
Трек 8 точное извлечение (доверие 2) [C6924EAE]
Трек 9 точное извлечение (доверие 2) [A8A07C00]
Трек 10 точное извлечение (доверие 2) [FAE18F4E]
Трек 11 точное извлечение (доверие 2) [B2F8BBAF]
Трек 12 точное извлечение (доверие 2) [EA8702E4]
Трек 13 точное извлечение (доверие 2) [D748B146]
Трек 14 точное извлечение (доверие 2) [E20EE031]
Трек 15 точное извлечение (доверие 2) [F87312E3]
Трек 16 точное извлечение (доверие 2) [475C3489]
Трек 17 точное извлечение (доверие 2) [5605B339]
Трек 18 точное извлечение (доверие 2) [B5DC5C1A]
Трек 19 точное извлечение (доверие 2) [427BE5B3]
Трек 20 точное извлечение (доверие 2) [B4895200]
Трек 21 точное извлечение (доверие 2) [C93003CF]
Трек 22 точное извлечение (доверие 2) [D4EF49D1]
Трек 23 точное извлечение (доверие 2) [EC4CFC88]
Трек 24 точное извлечение (доверие 2) [CE190952]
Все треки извлечены точно
Конец отчёта

Отчёт EAC CD17

Exact Audio Copy V0.99 prebeta 4 from 23. January 2008
Отчёт EAC об извлечении, выполненном 9. сентября 2009, 20:24
Mendelssohn-Bartholdy, Felix / Felix Mendelssaohn-Bartholdy, Choral Music
Дисковод: HL-DT-STDVDRAM GSA-H62N Adapter: 2 ID: 0
Режим чтения : Достоверность
Использование точного потока : Да
Отключение кэша аудио : Да
Использование указателей C2 : Нет
Коррекция смещения при чтении : 667
Способность читать области Lead-in и Lead-out : Нет
Заполнение пропущенных сэмплов тишиной : Да
Удаление блоков с тишиной в начале и конце : Нет
При вычислениях CRC использовались нулевые сэмплы : Да
Интерфейс : Установленный внешний ASPI-интерфейс
Выходной формат : Внутренние WAV-операции
Формат сэмплов : 44.100 Гц; 16 бит; стерео
TOC извлечённого CD
Трек | Старт | Длительность | Начальный сектор | Конечный сектор
---------------------------------------------------------------------
1 | 0:00.00 | 5:21.32 | 0 | 24106
2 | 5:21.32 | 3:07.57 | 24107 | 38188
3 | 8:29.14 | 3:14.66 | 38189 | 52804
4 | 11:44.05 | 1:56.13 | 52805 | 61517
5 | 13:40.18 | 1:25.16 | 61518 | 67908
6 | 15:05.34 | 4:36.20 | 67909 | 88628
7 | 19:41.54 | 4:52.21 | 88629 | 110549
8 | 24:34.00 | 1:41.18 | 110550 | 118142
9 | 26:15.18 | 2:59.25 | 118143 | 131592
10 | 29:14.43 | 3:30.06 | 131593 | 147348
11 | 32:44.49 | 1:38.25 | 147349 | 154723
12 | 34:22.74 | 2:20.59 | 154724 | 165282
13 | 36:43.58 | 2:41.27 | 165283 | 177384
14 | 39:25.10 | 10:14.32 | 177385 | 223466
Характеристики диапазона извлечения и сообщения об ошибках
Выбранный диапазон
Имя файла D:\временная\Mendelssohn-Bartholdy, Felix - Felix Mendelssaohn-Bartholdy, Choral Music.wav
Пиковый уровень 99.7 %
Качество диапазона 100.0 %
CRC копии B7B4E673
Копирование... OK
Ошибок не произошло
AccurateRip: сводка
Трек 1 точное извлечение (доверие 2) [4795C6E7]
Трек 2 точное извлечение (доверие 2) [CD7BE274]
Трек 3 точное извлечение (доверие 2) [643DFBBB]
Трек 4 точное извлечение (доверие 2) [4ED995C4]
Трек 5 точное извлечение (доверие 2) [9D79E957]
Трек 6 точное извлечение (доверие 2) [483BFFE3]
Трек 7 точное извлечение (доверие 2) [C3056E28]
Трек 8 точное извлечение (доверие 2) [051A562B]
Трек 9 точное извлечение (доверие 2) [B906416D]
Трек 10 точное извлечение (доверие 2) [4ACBFD15]
Трек 11 точное извлечение (доверие 2) [2EA6C38A]
Трек 12 точное извлечение (доверие 2) [713E533D]
Трек 13 точное извлечение (доверие 2) [CD9EC0EA]
Трек 14 точное извлечение (доверие 2) [11F95925]
Все треки извлечены точно
Конец отчёта

Отчёт EAC CD18

Exact Audio Copy V0.99 prebeta 4 from 23. January 2008
Отчёт EAC об извлечении, выполненном 9. сентября 2009, 20:48
Mendelssohn-Bartholdy, Felix / Felix Mendelssohn-Bartholdy - Chamber Music
Дисковод: HL-DT-STDVDRAM GSA-H62N Adapter: 2 ID: 0
Режим чтения : Достоверность
Использование точного потока : Да
Отключение кэша аудио : Да
Использование указателей C2 : Нет
Коррекция смещения при чтении : 667
Способность читать области Lead-in и Lead-out : Нет
Заполнение пропущенных сэмплов тишиной : Да
Удаление блоков с тишиной в начале и конце : Нет
При вычислениях CRC использовались нулевые сэмплы : Да
Интерфейс : Установленный внешний ASPI-интерфейс
Выходной формат : Внутренние WAV-операции
Формат сэмплов : 44.100 Гц; 16 бит; стерео
TOC извлечённого CD
Трек | Старт | Длительность | Начальный сектор | Конечный сектор
---------------------------------------------------------------------
1 | 0:00.00 | 14:36.04 | 0 | 65703
2 | 14:36.04 | 7:53.11 | 65704 | 101189
3 | 22:29.15 | 4:43.60 | 101190 | 122474
4 | 27:13.00 | 6:29.70 | 122475 | 151719
5 | 33:42.70 | 11:13.67 | 151720 | 202261
6 | 44:56.62 | 5:54.28 | 202262 | 228839
7 | 50:51.15 | 6:29.14 | 228840 | 258028
8 | 57:20.29 | 3:42.45 | 258029 | 274723
9 | 61:02.74 | 2:39.13 | 274724 | 286661
10 | 63:42.12 | 4:35.07 | 286662 | 307293
Характеристики диапазона извлечения и сообщения об ошибках
Выбранный диапазон
Имя файла D:\временная\Mendelssohn-Bartholdy, Felix - Felix Mendelssohn-Bartholdy - Chamber Music.wav
Пиковый уровень 97.9 %
Качество диапазона 100.0 %
CRC копии BF22A098
Копирование... OK
Ошибок не произошло
AccurateRip: сводка
Трек 1 точное извлечение (доверие 2) [33D99DA2]
Трек 2 точное извлечение (доверие 2) [57CA815B]
Трек 3 точное извлечение (доверие 2) [F0898B72]
Трек 4 точное извлечение (доверие 2) [A95E4A80]
Трек 5 точное извлечение (доверие 2) [F823CAAE]
Трек 6 точное извлечение (доверие 2) [1BA20C11]
Трек 7 точное извлечение (доверие 2) [05E95774]
Трек 8 точное извлечение (доверие 2) [3AB3F0FD]
Трек 9 точное извлечение (доверие 2) [4B850023]
Трек 10 точное извлечение (доверие 2) [495FF8AD]
Все треки извлечены точно
Конец отчёта

Отчёт EAC CD19

Exact Audio Copy V0.99 prebeta 4 from 23. January 2008
Отчёт EAC об извлечении, выполненном 9. сентября 2009, 21:57
L'Archibudelli / MENDELSSOHN: STRING QUINTETS No 1 IN A, No2 IN Bb L'ARCHIBUDELLI
Дисковод: HL-DT-STDVDRAM GSA-H62N Adapter: 2 ID: 0
Режим чтения : Достоверность
Использование точного потока : Да
Отключение кэша аудио : Да
Использование указателей C2 : Нет
Коррекция смещения при чтении : 667
Способность читать области Lead-in и Lead-out : Нет
Заполнение пропущенных сэмплов тишиной : Да
Удаление блоков с тишиной в начале и конце : Нет
При вычислениях CRC использовались нулевые сэмплы : Да
Интерфейс : Установленный внешний ASPI-интерфейс
Выходной формат : Внутренние WAV-операции
Формат сэмплов : 44.100 Гц; 16 бит; стерео
TOC извлечённого CD
Трек | Старт | Длительность | Начальный сектор | Конечный сектор
---------------------------------------------------------------------
1 | 0:00.00 | 12:03.60 | 0 | 54284
2 | 12:03.60 | 7:49.25 | 54285 | 89484
3 | 19:53.10 | 5:00.22 | 89485 | 112006
4 | 24:53.32 | 6:44.43 | 112007 | 142349
5 | 31:38.00 | 9:20.17 | 142350 | 184366
6 | 40:58.17 | 4:31.48 | 184367 | 204739
7 | 45:29.65 | 8:04.65 | 204740 | 241104
8 | 53:34.55 | 6:20.10 | 241105 | 269614
Характеристики диапазона извлечения и сообщения об ошибках
Выбранный диапазон
Имя файла D:\временная\L'Archibudelli - MENDELSSOHN STRING QUINTETS No 1 IN A, No2 IN Bb L'ARCHIBUDELLI.wav
Пиковый уровень 99.6 %
Качество диапазона 100.0 %
CRC копии EF2C9262
Копирование... OK
Ошибок не произошло
AccurateRip: сводка
Трек 1 точное извлечение (доверие 2) [1EF85709]
Трек 2 точное извлечение (доверие 2) [653592A3]
Трек 3 точное извлечение (доверие 2) [A83895F4]
Трек 4 точное извлечение (доверие 2) [D3D9E49B]
Трек 5 точное извлечение (доверие 2) [D1B24123]
Трек 6 точное извлечение (доверие 2) [EEE7EBF7]
Трек 7 точное извлечение (доверие 2) [9742EBD9]
Трек 8 точное извлечение (доверие 2) [95B0621B]
Все треки извлечены точно
Конец отчёта

Отчёт EAC CD20

Exact Audio Copy V0.99 prebeta 4 from 23. January 2008
Отчёт EAC об извлечении, выполненном 9. сентября 2009, 22:35
Henschel Quartett / The Complete String Quartetts / Samtliche Streichquartette (disc 1)
Дисковод: HL-DT-STDVDRAM GSA-H62N Adapter: 2 ID: 0
Режим чтения : Достоверность
Использование точного потока : Да
Отключение кэша аудио : Да
Использование указателей C2 : Нет
Коррекция смещения при чтении : 667
Способность читать области Lead-in и Lead-out : Нет
Заполнение пропущенных сэмплов тишиной : Да
Удаление блоков с тишиной в начале и конце : Нет
При вычислениях CRC использовались нулевые сэмплы : Да
Интерфейс : Установленный внешний ASPI-интерфейс
Выходной формат : Внутренние WAV-операции
Формат сэмплов : 44.100 Гц; 16 бит; стерео
TOC извлечённого CD
Трек | Старт | Длительность | Начальный сектор | Конечный сектор
---------------------------------------------------------------------
1 | 0:00.00 | 7:12.62 | 0 | 32461
2 | 7:12.62 | 4:12.19 | 32462 | 51380
3 | 11:25.06 | 4:21.48 | 51381 | 71003
4 | 15:46.54 | 8:09.05 | 71004 | 107683
5 | 23:55.59 | 7:15.73 | 107684 | 140381
6 | 31:11.57 | 4:38.00 | 140382 | 161231
7 | 35:49.57 | 7:24.00 | 161232 | 194531
8 | 43:13.57 | 5:48.18 | 194532 | 220649
9 | 49:02.00 | 9:06.00 | 220650 | 261599
10 | 58:08.00 | 6:01.39 | 261600 | 288713
11 | 64:09.39 | 5:57.36 | 288714 | 315524
12 | 70:07.00 | 4:07.00 | 315525 | 334049
Характеристики диапазона извлечения и сообщения об ошибках
Выбранный диапазон
Имя файла D:\временная\Henschel Quartett - The Complete String Quartetts Samtliche Streichquartette (disc 1).wav
Пиковый уровень 99.8 %
Качество диапазона 99.9 %
CRC копии 0F345E3A
Копирование... OK
Ошибок не произошло
AccurateRip: сводка
Трек 1 точное извлечение (доверие 4) [06B440DB]
Трек 2 точное извлечение (доверие 3) [66167738]
Трек 3 точное извлечение (доверие 4) [9C2A36E7]
Трек 4 точное извлечение (доверие 4) [8703A976]
Трек 5 точное извлечение (доверие 4) [F0DB4522]
Трек 6 точное извлечение (доверие 4) [A39C3E9B]
Трек 7 точное извлечение (доверие 4) [A0AF1A9A]
Трек 8 точное извлечение (доверие 4) [3506C8F1]
Трек 9 точное извлечение (доверие 4) [D221E239]
Трек 10 точное извлечение (доверие 3) [FAD507F5]
Трек 11 точное извлечение (доверие 4) [F6CDD989]
Трек 12 точное извлечение (доверие 4) [1DE493C3]
Все треки извлечены точно
Конец отчёта

Отчёт EAC CD21

Exact Audio Copy V0.99 prebeta 4 from 23. January 2008
Отчёт EAC об извлечении, выполненном 9. сентября 2009, 22:58
Felix Mendelssohn-Bartholdy / Streichquartette Op. 13 Am & Op. 44/3 Eb (Henschel-Quartett)
Дисковод: HL-DT-STDVDRAM GSA-H62N Adapter: 2 ID: 0
Режим чтения : Достоверность
Использование точного потока : Да
Отключение кэша аудио : Да
Использование указателей C2 : Нет
Коррекция смещения при чтении : 667
Способность читать области Lead-in и Lead-out : Нет
Заполнение пропущенных сэмплов тишиной : Да
Удаление блоков с тишиной в начале и конце : Нет
При вычислениях CRC использовались нулевые сэмплы : Да
Интерфейс : Установленный внешний ASPI-интерфейс
Выходной формат : Внутренние WAV-операции
Формат сэмплов : 44.100 Гц; 16 бит; стерео
TOC извлечённого CD
Трек | Старт | Длительность | Начальный сектор | Конечный сектор
---------------------------------------------------------------------
1 | 0:00.00 | 7:31.64 | 0 | 33888
2 | 7:31.64 | 8:10.00 | 33889 | 70638
3 | 15:41.64 | 4:40.71 | 70639 | 91709
4 | 20:22.60 | 9:17.15 | 91710 | 133499
5 | 29:40.00 | 12:37.33 | 133500 | 190307
6 | 42:17.33 | 3:57.45 | 190308 | 208127
7 | 46:15.03 | 9:01.04 | 208128 | 248706
8 | 55:16.07 | 8:13.26 | 248707 | 285707
Характеристики диапазона извлечения и сообщения об ошибках
Выбранный диапазон
Имя файла D:\временная\Felix Mendelssohn-Bartholdy - Streichquartette Op. 13 Am & Op. 44 3 Eb (Henschel-Quartett).wav
Пиковый уровень 100.0 %
Качество диапазона 99.9 %
CRC копии 824069E9
Копирование... OK
Ошибок не произошло
AccurateRip: сводка
Трек 1 точное извлечение (доверие 4) [ED3C0B71]
Трек 2 точное извлечение (доверие 4) [D5ED221B]
Трек 3 точное извлечение (доверие 4) [9EB3E69E]
Трек 4 точное извлечение (доверие 4) [E6AFA28C]
Трек 5 точное извлечение (доверие 4) [94110BBE]
Трек 6 точное извлечение (доверие 4) [A1029B85]
Трек 7 точное извлечение (доверие 4) [7CA3D59C]
Трек 8 точное извлечение (доверие 4) [56C24022]
Все треки извлечены точно
Конец отчёта

Отчёт EAC CD22

Exact Audio Copy V0.99 prebeta 4 from 23. January 2008
Отчёт EAC об извлечении, выполненном 10. сентября 2009, 0:02
Henschel Quartet / Mendelssohn SQ, Op.44-1, 44-2, 81
Дисковод: HL-DT-STDVDRAM GSA-H62N Adapter: 2 ID: 0
Режим чтения : Достоверность
Использование точного потока : Да
Отключение кэша аудио : Да
Использование указателей C2 : Нет
Коррекция смещения при чтении : 667
Способность читать области Lead-in и Lead-out : Нет
Заполнение пропущенных сэмплов тишиной : Да
Удаление блоков с тишиной в начале и конце : Нет
При вычислениях CRC использовались нулевые сэмплы : Да
Интерфейс : Установленный внешний ASPI-интерфейс
Выходной формат : Внутренние WAV-операции
Формат сэмплов : 44.100 Гц; 16 бит; стерео
TOC извлечённого CD
Трек | Старт | Длительность | Начальный сектор | Конечный сектор
---------------------------------------------------------------------
1 | 0:00.00 | 11:55.43 | 0 | 53667
2 | 11:55.43 | 4:44.41 | 53668 | 75008
3 | 16:40.09 | 5:27.12 | 75009 | 99545
4 | 22:07.21 | 6:57.54 | 99546 | 130874
5 | 29:05.00 | 10:03.37 | 130875 | 176136
6 | 39:08.37 | 3:50.38 | 176137 | 193424
7 | 42:59.00 | 5:54.42 | 193425 | 220016
8 | 48:53.42 | 6:28.33 | 220017 | 249149
9 | 55:22.00 | 5:29.21 | 249150 | 273845
10 | 60:51.21 | 3:32.46 | 273846 | 289791
11 | 64:23.67 | 5:25.52 | 289792 | 314218
12 | 69:49.44 | 5:51.19 | 314219 | 340562
Характеристики диапазона извлечения и сообщения об ошибках
Выбранный диапазон
Имя файла D:\временная\Henschel Quartet - Mendelssohn SQ, Op.44-1, 44-2, 81.wav
Пиковый уровень 100.0 %
Качество диапазона 100.0 %
CRC копии 6000E20F
Копирование... OK
Ошибок не произошло
AccurateRip: сводка
Трек 1 точное извлечение (доверие 4) [C730B5DB]
Трек 2 точное извлечение (доверие 4) [FE5FA160]
Трек 3 точное извлечение (доверие 4) [2DD1B782]
Трек 4 точное извлечение (доверие 4) [7D2620D0]
Трек 5 точное извлечение (доверие 4) [B9605C20]
Трек 6 точное извлечение (доверие 4) [D3EE0F9D]
Трек 7 точное извлечение (доверие 4) [A0100F4A]
Трек 8 точное извлечение (доверие 4) [78054E0B]
Трек 9 точное извлечение (доверие 4) [99472B95]
Трек 10 точное извлечение (доверие 4) [773F3792]
Трек 11 точное извлечение (доверие 4) [6A536964]
Трек 12 точное извлечение (доверие 4) [248EC691]
Все треки извлечены точно
Конец отчёта

Отчёт EAC CD23

Exact Audio Copy V0.99 prebeta 4 from 23. January 2008
Отчёт EAC об извлечении, выполненном 10. сентября 2009, 0:34
Felix Mendelssohn [1809-1847] / Piano Trios opp.49 & 66 [Isaac Stern - A Life in Music, Vol.20]
Дисковод: HL-DT-STDVDRAM GSA-H62N Adapter: 2 ID: 0
Режим чтения : Достоверность
Использование точного потока : Да
Отключение кэша аудио : Да
Использование указателей C2 : Нет
Коррекция смещения при чтении : 667
Способность читать области Lead-in и Lead-out : Нет
Заполнение пропущенных сэмплов тишиной : Да
Удаление блоков с тишиной в начале и конце : Нет
При вычислениях CRC использовались нулевые сэмплы : Да
Интерфейс : Установленный внешний ASPI-интерфейс
Выходной формат : Внутренние WAV-операции
Формат сэмплов : 44.100 Гц; 16 бит; стерео
TOC извлечённого CD
Трек | Старт | Длительность | Начальный сектор | Конечный сектор
---------------------------------------------------------------------
1 | 0:00.00 | 9:22.67 | 0 | 42216
2 | 9:22.67 | 6:42.60 | 42217 | 72426
3 | 16:05.52 | 3:47.50 | 72427 | 89501
4 | 19:53.27 | 8:25.00 | 89502 | 127376
5 | 28:18.27 | 10:25.30 | 127377 | 174281
6 | 38:43.57 | 7:09.68 | 174282 | 206524
7 | 45:53.50 | 3:49.65 | 206525 | 223764
8 | 49:43.40 | 7:58.35 | 223765 | 259649
Характеристики диапазона извлечения и сообщения об ошибках
Выбранный диапазон
Имя файла D:\временная\Felix Mendelssohn [1809-1847] - Piano Trios opp.49 & 66 [Isaac Stern - A Life in Music, Vol.20].wav
Пиковый уровень 100.0 %
Качество диапазона 100.0 %
CRC копии 6ABDB5F5
Копирование... OK
Ошибок не произошло
AccurateRip: сводка
Трек 1 точное извлечение (доверие 2) [C04CF40E]
Трек 2 точное извлечение (доверие 2) [3AC2D27B]
Трек 3 точное извлечение (доверие 2) [A9448715]
Трек 4 точное извлечение (доверие 2) [5243AB35]
Трек 5 точное извлечение (доверие 2) [F30418D8]
Трек 6 точное извлечение (доверие 2) [78600319]
Трек 7 точное извлечение (доверие 2) [94FC04A7]
Трек 8 точное извлечение (доверие 2) [669059AF]
Все треки извлечены точно
Конец отчёта

Отчёт EAC CD24

Exact Audio Copy V0.99 prebeta 4 from 23. January 2008
Отчёт EAC об извлечении, выполненном 10. сентября 2009, 1:04
Steven Isserlis / Mendelsson Works for Cello and Piano (Complete)
Дисковод: HL-DT-STDVDRAM GSA-H62N Adapter: 2 ID: 0
Режим чтения : Достоверность
Использование точного потока : Да
Отключение кэша аудио : Да
Использование указателей C2 : Нет
Коррекция смещения при чтении : 667
Способность читать области Lead-in и Lead-out : Нет
Заполнение пропущенных сэмплов тишиной : Да
Удаление блоков с тишиной в начале и конце : Нет
При вычислениях CRC использовались нулевые сэмплы : Да
Интерфейс : Установленный внешний ASPI-интерфейс
Выходной формат : Внутренние WAV-операции
Формат сэмплов : 44.100 Гц; 16 бит; стерео
TOC извлечённого CD
Трек | Старт | Длительность | Начальный сектор | Конечный сектор
---------------------------------------------------------------------
1 | 0:00.00 | 1:05.45 | 0 | 4919
2 | 1:05.45 | 0:29.55 | 4920 | 7149
3 | 1:35.25 | 0:26.62 | 7150 | 9161
4 | 2:02.12 | 0:27.23 | 9162 | 11209
5 | 2:29.35 | 0:37.57 | 11210 | 14041
6 | 3:07.17 | 0:42.63 | 14042 | 17254
7 | 3:50.05 | 0:29.25 | 17255 | 19454
8 | 4:19.30 | 1:25.32 | 19455 | 25861
9 | 5:44.62 | 2:57.03 | 25862 | 39139
10 | 8:41.65 | 11:15.65 | 39140 | 89829
11 | 19:57.55 | 5:11.20 | 89830 | 113174
12 | 25:09.00 | 5:59.72 | 113175 | 140171
13 | 31:08.72 | 2:07.63 | 140172 | 149759
14 | 33:16.60 | 4:48.72 | 149760 | 171431
15 | 38:05.57 | 7:20.03 | 171432 | 204434
16 | 45:25.60 | 4:53.00 | 204435 | 226409
17 | 50:18.60 | 5:06.12 | 226410 | 249371
18 | 55:24.72 | 6:53.03 | 249372 | 280349
Характеристики диапазона извлечения и сообщения об ошибках
Выбранный диапазон
Имя файла D:\временная\Steven Isserlis - Mendelsson Works for Cello and Piano (Complete).wav
Пиковый уровень 85.5 %
Качество диапазона 100.0 %
CRC копии E5A1C4D6
Копирование... OK
Ошибок не произошло
AccurateRip: сводка
Трек 1 точное извлечение (доверие 2) [3CCE5FA3]
Трек 2 точное извлечение (доверие 2) [2A54B728]
Трек 3 точное извлечение (доверие 2) [AF1CC94A]
Трек 4 точное извлечение (доверие 2) [842946C8]
Трек 5 точное извлечение (доверие 2) [0101168D]
Трек 6 точное извлечение (доверие 2) [1A4E4495]
Трек 7 точное извлечение (доверие 2) [1C127A23]
Трек 8 точное извлечение (доверие 2) [A91F9662]
Трек 9 точное извлечение (доверие 2) [308BBE82]
Трек 10 точное извлечение (доверие 2) [B72C4937]
Трек 11 точное извлечение (доверие 2) [B54E50B7]
Трек 12 точное извлечение (доверие 2) [E8DE6AA4]
Трек 13 точное извлечение (доверие 2) [B50AFD16]
Трек 14 точное извлечение (доверие 2) [B195463A]
Трек 15 точное извлечение (доверие 2) [DF5010BC]
Трек 16 точное извлечение (доверие 2) [B6658F82]
Трек 17 точное извлечение (доверие 2) [1CB37864]
Трек 18 точное извлечение (доверие 2) [ADECDBF4]
Все треки извлечены точно
Конец отчёта

Отчёт EAC CD25

Exact Audio Copy V0.99 prebeta 4 from 23. January 2008
Отчёт EAC об извлечении, выполненном 10. сентября 2009, 1:32
Mendelssohn-Bartholdy, Felix / Piano Music Vol. 1
Дисковод: HL-DT-STDVDRAM GSA-H62N Adapter: 2 ID: 0
Режим чтения : Достоверность
Использование точного потока : Да
Отключение кэша аудио : Да
Использование указателей C2 : Нет
Коррекция смещения при чтении : 667
Способность читать области Lead-in и Lead-out : Нет
Заполнение пропущенных сэмплов тишиной : Да
Удаление блоков с тишиной в начале и конце : Нет
При вычислениях CRC использовались нулевые сэмплы : Да
Интерфейс : Установленный внешний ASPI-интерфейс
Выходной формат : Внутренние WAV-операции
Формат сэмплов : 44.100 Гц; 16 бит; стерео
TOC извлечённого CD
Трек | Старт | Длительность | Начальный сектор | Конечный сектор
---------------------------------------------------------------------
1 | 0:00.00 | 5:56.20 | 0 | 26719
2 | 5:56.20 | 5:14.50 | 26720 | 50319
3 | 11:10.70 | 12:07.35 | 50320 | 104879
4 | 23:18.30 | 8:13.16 | 104880 | 141870
5 | 31:31.46 | 11:33.29 | 141871 | 193874
6 | 43:05.00 | 6:35.21 | 193875 | 223520
7 | 49:40.21 | 6:27.47 | 223521 | 252592
8 | 56:07.68 | 3:04.47 | 252593 | 266439
9 | 59:12.40 | 4:36.63 | 266440 | 287202
10 | 63:49.28 | 5:14.17 | 287203 | 310769
Характеристики диапазона извлечения и сообщения об ошибках
Выбранный диапазон
Имя файла D:\временная\Mendelssohn-Bartholdy, Felix - Piano Music Vol. 1.wav
Пиковый уровень 99.5 %
Качество диапазона 100.0 %
CRC копии 8B7AE37B
Копирование... OK
Ошибок не произошло
AccurateRip: сводка
Трек 1 точное извлечение (доверие 2) [F73B8565]
Трек 2 точное извлечение (доверие 2) [643FFAAD]
Трек 3 точное извлечение (доверие 2) [01CB92AF]
Трек 4 точное извлечение (доверие 2) [EE93AAC1]
Трек 5 точное извлечение (доверие 2) [17DA8090]
Трек 6 точное извлечение (доверие 2) [6333B493]
Трек 7 точное извлечение (доверие 2) [BDD672AD]
Трек 8 точное извлечение (доверие 2) [C57364A2]
Трек 9 точное извлечение (доверие 2) [5D8D60DD]
Трек 10 точное извлечение (доверие 2) [E08563DA]
Все треки извлечены точно
Конец отчёта
[teatrix.ru].t9772.torrent 
Торрент: Зарегистрирован [ 2015-10-23 17:26 ] · F88DC16CDF05C6F612647991622E792072E639AA

Скачать .torrent

Скачать

52 KB

Статус: проверено
Скачан: 1 раз
Размер: 7.61 GB
terms.php



Быстрый ответ

Имя:

      
Для отправки сообщений необходимо включить JavaScript
Показать сообщения:    

Текущее время: 03-Дек 07:38

Часовой пояс: UTC + 3


Вы можете начинать темы
Вы можете отвечать на сообщения
Вы не можете редактировать свои сообщения
Вы не можете удалять свои сообщения
Вы не можете голосовать в опросах
Вы не можете прикреплять файлы к сообщениям
Вы можете скачивать файлы