(Classic) Beethoven - Piano Sonata 1-32, Piano Concerto 1-5, Diabelly Variations, Triple Concerto - Arrau (14CD)- 1998, APE (image+.cue), lossless


Статистика раздачи [Обновить пиров]
Размер:  4.22 GB   |    Зарегистрирован:  1 год 2 месяца   |    Скачан:  0 раз

Полного источника не было: Никогда

Личеров:  1  [  0 KB/s  ]   Подробная статистика пиров
 
   
 
 
 

[Цитировать]

Ludwig van Beethoven - Piano Sonata 1-32, Piano Concerto 1-5, Diabelly Variations, Triple Concerto - Arrau (14CD)
Жанр: Classic
Год выпуска диска: 1998
Производитель диска: Philips
Аудио кодек: APE
Тип рипа: image+.cue
Битрейт аудио: lossless
Продолжительность: 17h:02m
Трэклист:

CD1 78:13 - Piano Sonata 1,2,5,19

Piano Sonata No.1 in F minor, Op.2 No.1
1.Allegro [5:21]
2.Adagio [5:39]
3.Menuetto (Allegretto) [2:59]
4.Prestissimo [7:24]
Piano Sonata No.2 in A, Op.2 No.2
1.Allegro vivace [10:42]
2.Largo appassionato [8:11]
3.Scherzo (Allegretto) [3:16]
4.Rondo (Grazioso) [6:48]
Piano Sonata No.5 in C minor, Op.10 No.1
1.Allegro molto e con brio [5:44]
2.Adagio molto [8:32]
3.Finale (Prestissimo) [4:28]
Piano Sonata No.19 in G minor, Op.49 No.1
1.Andante [4:35]
2.Rondo (Allegro) [3:41]

CD2 76:56 - Piano Sonata 3,4 & 6 Piano Variations in F, Op.34

Piano Sonata No.3 in C, Op.2 No.3
1.Allegro con brio [10:45]
2.Adagio [10:13]
3.Scherzo (Allegro) [3:15]
4.Allegro assai [5:39]
Piano Sonata No.4 in E flat, Op.7
1.Allegro molto e con brio [8:37]
2.Largo, con gran espressione [9:39]
3.Allegro [5:11]
4.Rondo (Poco allegretto e grazioso) [7:45]
6 Piano Variations in F, Op.34 [15:06]

CD3 74:38 - Piano Sonata 6-9

Piano Sonata No.6 in F, Op.10 No.2
1.Allegro [8:19]
2.Allegretto [4:00]
3.Presto [3:58]
Piano Sonata No.7 in D, Op.10 No.3
1.Presto [6:41]
2.Largo e mesto [10:24]
3.Menuetto (Allegro) [2:57]
4.Rondo (Allegro) [4:09]
Piano Sonata No.8 in C minor, Op.13 -"Pathetique"
1.Grave - Allegro di molto e con brio [9:01]
2.Adagio cantabile [6:18]
3.Rondo (Allegro) [4:28]
Piano Sonata No.9 in E, Op.14 No.1
1.Allegro [6:39]
2.Allegretto [3:31]
3.Rondo (Allegro comodo) [3:22]

CD4 76:38 - Piano Sonata 10-12,25

Piano Sonata No.10 in G, Op.14 No.2
1.Allegro [7:22]
2.Andante [6:11]
3.Scherzo (Allegro assai) [3:19]
Piano Sonata No.11 in B flat, Op.22
1.Allegro con brio [7:29]
2.Adagio con molto espressione [10:44]
3.Menuetto [3:16]
4.Rondo (Allegretto) [6:40]
Piano Sonata No.12 in A flat, Op.26
1.Andante con variazioni [8:48]
2.Scherzo (Allegro molto) [2:33]
3.Marcia funebre sulla morte d'un Eroe [6:15]
4.Allegro [3:08]
Piano Sonata No.25 in G, Op.79
1.Presto alla tedesca [4:54]
2.Andante [3:04]
3.Vivace [2:06]

CD5 71:55 - Piano Sonata 13-15,22

Piano Sonata No.13 in E flat, Op.27 No.1
1.Andante - Allegro - Tempo I [6:00]
2.Allegro molto e vivace [2:15]
3.Adagio con espressione [3:29]
4.Allegro vivace - Tempo I - Presto [5:41]
Piano Sonata No.14 in C sharp minor, Op.27 No.2 -"Moonlight"
1.Adagio sostenuto [6:46]
2.Allegretto [2:25]
3.Presto agitato [7:41]
Piano Sonata No.15 in D, Op.28 -"Pastorale"
1.Allegro [9:31]
2.Andante [7:51]
3.Scherzo. Allegro vivace [2:03]
4.Rondo. Allegro ma non troppo [4:57]
Piano Sonata No.22 in F, Op.54
1.In Tempo d'un Menuetto [6:13]
2.Allegretto [6:22]

CD6 76:47 - Piano Sonata 16-18

Piano Sonata No.16 in G, Op.31 No.1
1.Allegro vivace [6:31]
2.Adagio grazioso [12:16]
3.Rondo (Allegretto) [6:17]
Piano Sonata No.17 in D minor, Op.31 No.2 -"Tempest"
1.Largo - Allegro [8:38]
2.Adagio [10:19]
3.Allegretto [7:31]
Piano Sonata No.18 in E flat, Op.31 No.3 -"The Hunt"
1.Allegro [8:40]
2.Scherzo (Allegretto vivace) [5:32]
3.Menuetto (Moderato e grazioso) [5:16]
4.Presto con fuoco [5:00]

CD7 76:15 - Piano Sonata 21, 15 Piano Variations and Fugue in E flat, Op.35 -"Eroica Variations", 32 Piano Variations in C minor on an original theme, WoO 80, Rondo in G, Op.51, No.2

Piano Sonata No.21 in C, Op.53 -"Waldstein"
1.Allegro con brio [11:46]
2-3: Introduzione (Adagio molto) - Rondo (Allegretto moderato - Prestissimo) [15:02]
15 Piano Variations and Fugue in E flat, Op.35 -"Eroica Variations"
Introduzione col Basso del Tema: Allegretto vivace [3:37]
Variations 1-15 [17:26]
Finale alla Fuga: Allegro con brio - Andante con moto [5:08]
32 Piano Variations in C minor on an original theme, WoO 80 [12:14]
Rondo in G, Op.51, No.2 [10:29]

CD8 77:06 - Piano Sonata 20,23,24,26,27

Piano Sonata No.23 in F minor, Op.57 -"Appassionata"
1.Allegro assai [11:13]
2.Andante con moto [7:18]
3.Allegro ma non troppo [8:14]
Piano Sonata No.24 in F sharp, Op.78 "For Therese"
1.Adagio cantabile - Allegro ma non troppo [7:29]
2.Allegro vivace [2:55]
Piano Sonata No.26 in E flat, Op.81a -"Les adieux"
1.Das Lebewohl (Adagio - Allegro) [6:58]
2.Abwesenheit (Andante espressivo) [3:47]
3.Das Wiedersehen (Vivacissimamente) [6:17]
Piano Sonata No.27 in E minor, Op.90
1.Mit Lebhaftigkeit und durchaus mit Empfindung und Ausdruck [5:10]
2.Nicht zu geschwind und sehr singbar vorgetragen [7:53]
Piano Sonata No.20 in G, Op.49 No.2
1.Allegro ma non troppo [4:56]
2.Tempo di Menuetto [3:55]

CD9 68:20 - Piano Sonata 28,29

Piano Sonata No.28 in A, Op.101
1.Etwas lebhaft und mit der innigsten Empfindung (Allegretto ma non troppo) [4:46]
2.Lebhaft, marschma?ig (Vivace alla marcia) [6:04]
3.Langsam und sehnsuchtsvoll (Adagio ma non troppo, con affetto) [3:42]
4.Geschwind, doch nicht zu sehr und mit Entschlossenheit (Allegro) [7:59]
Piano Sonata No.29 in B flat, Op.106 -"Hammerklavier"
1.Allegro [10:46]
2.Scherzo (Assai vivace - Presto - Prestissimo - Tempo I) [2:28]
3.Adagio sostenuto [20:25]
4.Largo - Allegro risoluto [11:40]

CD10 72:41 - Piano Sonata 30,31,32

Piano Sonata No.30 in E major, Op.109
1/2.Vivace ma non troppo-Adagio espressivo-Tempo I - Prestissimo [6:31]
3. Gesangvoll, mit innigster Empfindung (Andante molto cantabile ed espressivo) [16:22]
Piano Sonata No.31 in A flat major, Op.110
1.Moderato cantabile molto espressivo [6:56]
2.Allegro molto [2:22]
3a.Adagio ma non troppo [3:56]
4.Fuga (Allegro ma non troppo) [7:09]
Piano Sonata No.32 in C minor, Op.111
1.Maestoso - Allegro con brio ed appassionato [9:12]
2.Arietta (Adagio molto semplice e cantabile) [19:37]

CD11 55:42 - 33 Piano Variations in C, Op.120 on a Waltz by Anton Diabelli

33 Piano Variations in C, Op.120 on a Waltz by Anton Diabelli
Tema (Vivace) - Variation I (Alla marcia maestoso) [2:41]
Variation II (Poco allegro) [0:56]
Variation III (L'istesso tempo) [1:26]
Variation IV (Un poco piu vivace) [1:06]
Variation V (Allegro vivace) [0:59]
Variation VI (Allegro ma non troppo e serioso) [1:44]
Variation VII (Un poco piu allegro) [1:12]
Variation VIII (Poco vivace) [1:37]
Variation IX (Allegro pesante e risoluto) [1:42]
Variation X (Presto) [0:43]
Variation XI (Allegretto) [1:07]
Variation XII (Un poco piu moto) [1:02]
Variation XIII (Vivace) [0:56]
Variation XIV (Grave e maestoso) [3:30]
Variation XV (Presto scherzando) [0:41]
Variation XVI (Allegro) [1:01]
Variation XVII [1:01]
Variation XVIII (Poco moderato) [1:52]
Variation XIX (Presto) [1:01]
Variation XX (Andante) [2:20]
Variation XXI (Allegro con brio - Meno allegro - Tempo I) [1:42]
Variation XXII (Allegro molto): Alla "Notte e giorno faticar" di Mozart [0:48]
Variation XXIII (Allegro assai) [1:00]
Variation XXIV: Fughetta (Andante) [2:54]
Variation XXV (Allegro) [0:51]
Variation XXVI [1:20]
Variation XXVII (Vivace) [1:10]
Variation XXVIII (Allegro) [1:02]
Variation XXIX (Adagio ma non troppo) [1:16]
Variation XXX (Andante, sempre cantabile) [2:09]
Variation XXXI (Largo, molto espressivo) [5:15]
Variation XXXII: Fuga (Allegro - Poco adagio) [3:19]
Variation XXXIII (Tempo di minuetto moderato, ma non tirarsi dietro) [4:15]

CD12 68:40 - Piano Concerto 1,2

Piano Concerto No.1 in C major, Op.15
1.Allegro con brio [16:41]
2.Largo [11:38]
3.Rondo (Allegro scherzando) [9:21]
Piano Concerto No.2 in B flat major, Op.19
1.Allegro con brio [14:10]
2.Adagio [9:22]
3.Rondo (Molto allegro) [6:52]
Royal Concertgebouw Orchestra
Bernard Haitink - conductor

CD13 73:29 - Piano Concerto 3,4

Piano Concerto No.3 in C minor, Op.37
1.Allegro con brio [17:09]
2.Largo [11:13]
3.Rondo (Allegro) [9:32]
Piano Concerto No.4 in G, Op.58
1.Allegro moderato [19:22]
2.Andante con moto [5:31]
3.Rondo (Vivace) [10:08]
Royal Concertgebouw Orchestra
Bernard Haitink - conductor

CD14 77:04 - Piano Concerto 5, Concerto for Piano, Violin, and Cello in C, Op.56

Piano Concerto No.5 in E flat major Op.73 -"Emperor"
1.Allegro [20:41]
2.Adagio un poco mosso [8:05]
3.Rondo (Allegro) [10:40]
Royal Concertgebouw Orchestra
Bernard Haitink - conductor
Concerto for Piano, Violin, and Cello in C, Op.56
1.Allegro [17:41]
2.Largo - attacca: [5:25]
3.Rondo alla Polacca [14:16]
Henryk Szeryng - violin
Janos Starker - cello
New Philharmonia Orchestra
Eliahu Inbal - conductor
Доп. информация:

Отчёт EAC CD1

Exact Audio Copy V0.99 prebeta 4 from 23. January 2008
Отчёт EAC об извлечении, выполненном 10. сентября 2009, 2:11
Beethoven, Ludwig van - Pianosonatas&Concerts CD 1 / Claudio Arrau
Дисковод: HL-DT-STDVDRAM GSA-H62N Adapter: 2 ID: 0
Режим чтения : Достоверность
Использование точного потока : Да
Отключение кэша аудио : Да
Использование указателей C2 : Нет
Коррекция смещения при чтении : 667
Способность читать области Lead-in и Lead-out : Нет
Заполнение пропущенных сэмплов тишиной : Да
Удаление блоков с тишиной в начале и конце : Нет
При вычислениях CRC использовались нулевые сэмплы : Да
Интерфейс : Установленный внешний ASPI-интерфейс
Выходной формат : Внутренние WAV-операции
Формат сэмплов : 44.100 Гц; 16 бит; стерео
TOC извлечённого CD
Трек | Старт | Длительность | Начальный сектор | Конечный сектор
---------------------------------------------------------------------
1 | 0:00.32 | 5:26.00 | 32 | 24481
2 | 5:26.32 | 5:44.00 | 24482 | 50281
3 | 11:10.32 | 3:01.00 | 50282 | 63856
4 | 14:11.32 | 7:31.00 | 63857 | 97681
5 | 21:42.32 | 10:48.00 | 97682 | 146281
6 | 32:30.32 | 8:13.00 | 146282 | 183256
7 | 40:43.32 | 3:17.63 | 183257 | 198094
8 | 44:01.20 | 6:55.12 | 198095 | 229231
9 | 50:56.32 | 5:49.00 | 229232 | 255406
10 | 56:45.32 | 8:33.00 | 255407 | 293881
11 | 65:18.32 | 4:36.00 | 293882 | 314581
12 | 69:54.32 | 4:36.00 | 314582 | 335281
13 | 74:30.32 | 3:43.00 | 335282 | 352006
Характеристики диапазона извлечения и сообщения об ошибках
Выбранный диапазон
Имя файла D:\временная\Beethoven, Ludwig van - Pianosonatas&Concerts CD 1 - Claudio Arrau.wav
Пиковый уровень 99.3 %
Качество диапазона 99.9 %
CRC копии 958681DF
Копирование... OK
Ошибок не произошло
AccurateRip: сводка
Трек 1 точное извлечение (доверие 4) [A7050958]
Трек 2 точное извлечение (доверие 4) [D81F9FD5]
Трек 3 точное извлечение (доверие 4) [8096CACF]
Трек 4 точное извлечение (доверие 4) [491CCEDA]
Трек 5 точное извлечение (доверие 4) [117AC905]
Трек 6 точное извлечение (доверие 4) [684564AC]
Трек 7 точное извлечение (доверие 4) [5FDFB756]
Трек 8 точное извлечение (доверие 4) [143EFF06]
Трек 9 точное извлечение (доверие 4) [C3B26D07]
Трек 10 точное извлечение (доверие 4) [39EA2FFA]
Трек 11 точное извлечение (доверие 4) [E8A4BEEF]
Трек 12 точное извлечение (доверие 4) [3EC4DEF7]
Трек 13 точное извлечение (доверие 4) [A0AA9124]
Все треки извлечены точно
Конец отчёта

Отчёт EAC CD2

Exact Audio Copy V0.99 prebeta 4 from 23. January 2008
Отчёт EAC об извлечении, выполненном 10. сентября 2009, 2:53
Beethoven, Ludwig van - Pianosonatas&Concerts CD 2 / Claudio Arrau
Дисковод: HL-DT-STDVDRAM GSA-H62N Adapter: 2 ID: 0
Режим чтения : Достоверность
Использование точного потока : Да
Отключение кэша аудио : Да
Использование указателей C2 : Нет
Коррекция смещения при чтении : 667
Способность читать области Lead-in и Lead-out : Нет
Заполнение пропущенных сэмплов тишиной : Да
Удаление блоков с тишиной в начале и конце : Нет
При вычислениях CRC использовались нулевые сэмплы : Да
Интерфейс : Установленный внешний ASPI-интерфейс
Выходной формат : Внутренние WAV-операции
Формат сэмплов : 44.100 Гц; 16 бит; стерео
TOC извлечённого CD
Трек | Старт | Длительность | Начальный сектор | Конечный сектор
---------------------------------------------------------------------
1 | 0:00.32 | 10:53.00 | 32 | 49006
2 | 10:53.32 | 10:17.00 | 49007 | 95281
3 | 21:10.32 | 3:18.00 | 95282 | 110131
4 | 24:28.32 | 5:46.00 | 110132 | 136081
5 | 30:14.32 | 8:43.00 | 136082 | 175306
6 | 38:57.32 | 9:43.00 | 175307 | 219031
7 | 48:40.32 | 5:14.00 | 219032 | 242581
8 | 53:54.32 | 7:50.00 | 242582 | 277831
9 | 61:44.32 | 15:12.00 | 277832 | 346231
Характеристики диапазона извлечения и сообщения об ошибках
Выбранный диапазон
Имя файла D:\временная\Beethoven, Ludwig van - Pianosonatas&Concerts CD 2 - Claudio Arrau.wav
Пиковый уровень 100.0 %
Качество диапазона 100.0 %
CRC копии 5005A0FC
Копирование... OK
Ошибок не произошло
AccurateRip: сводка
Трек 1 точное извлечение (доверие 4) [2B58BA6D]
Трек 2 точное извлечение (доверие 4) [5DA27B82]
Трек 3 точное извлечение (доверие 4) [71416BE2]
Трек 4 точное извлечение (доверие 4) [E6F97D93]
Трек 5 точное извлечение (доверие 4) [4CF11B7A]
Трек 6 точное извлечение (доверие 4) [EEF41BC1]
Трек 7 точное извлечение (доверие 4) [0F920F8B]
Трек 8 точное извлечение (доверие 4) [5401BBB7]
Трек 9 точное извлечение (доверие 4) [8E611880]
Все треки извлечены точно
Конец отчёта

Отчёт EAC CD3

Exact Audio Copy V0.99 prebeta 4 from 23. January 2008
Отчёт EAC об извлечении, выполненном 10. сентября 2009, 3:28
Ludwig van Beethoven [1770-1827] / Piano Sonatas & Concertos 3_14 [Claudio Arrau-PS#6,7,8"Pathetique",9]
Дисковод: HL-DT-STDVDRAM GSA-H62N Adapter: 2 ID: 0
Режим чтения : Достоверность
Использование точного потока : Да
Отключение кэша аудио : Да
Использование указателей C2 : Нет
Коррекция смещения при чтении : 667
Способность читать области Lead-in и Lead-out : Нет
Заполнение пропущенных сэмплов тишиной : Да
Удаление блоков с тишиной в начале и конце : Нет
При вычислениях CRC использовались нулевые сэмплы : Да
Интерфейс : Установленный внешний ASPI-интерфейс
Выходной формат : Внутренние WAV-операции
Формат сэмплов : 44.100 Гц; 16 бит; стерео
TOC извлечённого CD
Трек | Старт | Длительность | Начальный сектор | Конечный сектор
---------------------------------------------------------------------
1 | 0:00.32 | 8:22.00 | 32 | 37681
2 | 8:22.32 | 4:02.00 | 37682 | 55831
3 | 12:24.32 | 4:06.00 | 55832 | 74281
4 | 16:30.32 | 6:46.00 | 74282 | 104731
5 | 23:16.32 | 10:26.00 | 104732 | 151681
6 | 33:42.32 | 3:00.00 | 151682 | 165181
7 | 36:42.32 | 4:15.00 | 165182 | 184306
8 | 40:57.32 | 9:06.00 | 184307 | 225256
9 | 50:03.32 | 6:19.00 | 225257 | 253681
10 | 56:22.32 | 4:36.00 | 253682 | 274381
11 | 60:58.32 | 6:41.00 | 274382 | 304456
12 | 67:39.32 | 3:32.00 | 304457 | 320356
13 | 71:11.32 | 3:27.00 | 320357 | 335881
Характеристики диапазона извлечения и сообщения об ошибках
Выбранный диапазон
Имя файла D:\временная\Ludwig van Beethoven [1770-1827] - Piano Sonatas & Concertos 3_14 [Claudio Arrau-PS#6,7,8 Pathetique ,9].wav
Пиковый уровень 100.0 %
Качество диапазона 100.0 %
CRC копии 90BE237D
Копирование... OK
Ошибок не произошло
AccurateRip: сводка
Трек 1 точное извлечение (доверие 4) [55CA60CF]
Трек 2 точное извлечение (доверие 4) [462712EC]
Трек 3 точное извлечение (доверие 4) [943D3974]
Трек 4 точное извлечение (доверие 4) [5EEFA301]
Трек 5 точное извлечение (доверие 4) [5BD26334]
Трек 6 точное извлечение (доверие 4) [8F4FFD2C]
Трек 7 точное извлечение (доверие 4) [34602F8B]
Трек 8 точное извлечение (доверие 5) [D06EE069]
Трек 9 точное извлечение (доверие 5) [4D200D10]
Трек 10 точное извлечение (доверие 5) [58D2871D]
Трек 11 точное извлечение (доверие 5) [6AFADF90]
Трек 12 точное извлечение (доверие 5) [40146ADE]
Трек 13 точное извлечение (доверие 5) [AD031AB9]
Все треки извлечены точно
Конец отчёта

Отчёт EAC CD4

Exact Audio Copy V0.99 prebeta 4 from 23. January 2008
Отчёт EAC об извлечении, выполненном 10. сентября 2009, 16:22
Claudio Arrau / Ludwig van Beethoven - Piano Sonatas 10-12, 25
Дисковод: HL-DT-STDVDRAM GSA-H62N Adapter: 2 ID: 0
Режим чтения : Достоверность
Использование точного потока : Да
Отключение кэша аудио : Да
Использование указателей C2 : Нет
Коррекция смещения при чтении : 667
Способность читать области Lead-in и Lead-out : Нет
Заполнение пропущенных сэмплов тишиной : Да
Удаление блоков с тишиной в начале и конце : Нет
При вычислениях CRC использовались нулевые сэмплы : Да
Интерфейс : Установленный внешний ASPI-интерфейс
Выходной формат : Внутренние WAV-операции
Формат сэмплов : 44.100 Гц; 16 бит; стерео
TOC извлечённого CD
Трек | Старт | Длительность | Начальный сектор | Конечный сектор
---------------------------------------------------------------------
1 | 0:00.32 | 7:28.00 | 32 | 33631
2 | 7:28.32 | 6:12.00 | 33632 | 61531
3 | 13:40.32 | 3:28.00 | 61532 | 77131
4 | 17:08.32 | 7:30.00 | 77132 | 110881
5 | 24:38.32 | 10:47.00 | 110882 | 159406
6 | 35:25.32 | 3:18.00 | 159407 | 174256
7 | 38:43.32 | 6:50.00 | 174257 | 205006
8 | 45:33.32 | 8:49.00 | 205007 | 244681
9 | 54:22.32 | 2:35.00 | 244682 | 256306
10 | 56:57.32 | 6:16.00 | 256307 | 284506
11 | 63:13.32 | 3:17.00 | 284507 | 299281
12 | 66:30.32 | 4:56.00 | 299282 | 321481
13 | 71:26.32 | 3:05.00 | 321482 | 335356
14 | 74:31.32 | 2:07.00 | 335357 | 344881
Характеристики диапазона извлечения и сообщения об ошибках
Выбранный диапазон
Имя файла D:\временная\Claudio Arrau - Ludwig van Beethoven - Piano Sonatas 10-12, 25.wav
Пиковый уровень 95.6 %
Качество диапазона 99.9 %
CRC копии E96AC646
Копирование... OK
Ошибок не произошло
AccurateRip: сводка
Трек 1 точное извлечение (доверие 5) [2C9F7578]
Трек 2 точное извлечение (доверие 5) [162EF475]
Трек 3 точное извлечение (доверие 5) [ECE4D63E]
Трек 4 точное извлечение (доверие 5) [1625E511]
Трек 5 точное извлечение (доверие 5) [C1999E62]
Трек 6 точное извлечение (доверие 5) [208A8594]
Трек 7 точное извлечение (доверие 5) [9563A388]
Трек 8 точное извлечение (доверие 5) [F8F30D46]
Трек 9 точное извлечение (доверие 5) [158666E0]
Трек 10 точное извлечение (доверие 5) [A13D6608]
Трек 11 точное извлечение (доверие 5) [768BC166]
Трек 12 точное извлечение (доверие 5) [3360ACAA]
Трек 13 точное извлечение (доверие 5) [20AA58BB]
Трек 14 точное извлечение (доверие 5) [4C5A1FD3]
Все треки извлечены точно
Конец отчёта

Отчёт EAC CD5

Exact Audio Copy V0.99 prebeta 4 from 23. January 2008
Отчёт EAC об извлечении, выполненном 10. сентября 2009, 16:53
Ludwig van Beethoven [1770-1827] / Piano Sonatas & Concertos 5_14 [Arrau-PS13,14Moonlight,15Pastorale,22]
Дисковод: HL-DT-STDVDRAM GSA-H62N Adapter: 2 ID: 0
Режим чтения : Достоверность
Использование точного потока : Да
Отключение кэша аудио : Да
Использование указателей C2 : Нет
Коррекция смещения при чтении : 667
Способность читать области Lead-in и Lead-out : Нет
Заполнение пропущенных сэмплов тишиной : Да
Удаление блоков с тишиной в начале и конце : Нет
При вычислениях CRC использовались нулевые сэмплы : Да
Интерфейс : Установленный внешний ASPI-интерфейс
Выходной формат : Внутренние WAV-операции
Формат сэмплов : 44.100 Гц; 16 бит; стерео
TOC извлечённого CD
Трек | Старт | Длительность | Начальный сектор | Конечный сектор
---------------------------------------------------------------------
1 | 0:00.32 | 6:01.63 | 32 | 27169
2 | 6:02.20 | 2:14.62 | 27170 | 37281
3 | 8:17.07 | 3:28.50 | 37282 | 52931
4 | 11:45.57 | 5:49.50 | 52932 | 79156
5 | 17:35.32 | 6:47.00 | 79157 | 109681
6 | 24:22.32 | 2:27.00 | 109682 | 120706
7 | 26:49.32 | 7:53.00 | 120707 | 156181
8 | 34:42.32 | 9:32.00 | 156182 | 199081
9 | 44:14.32 | 7:53.00 | 199082 | 234556
10 | 52:07.32 | 2:03.00 | 234557 | 243781
11 | 54:10.32 | 5:07.00 | 243782 | 266806
12 | 59:17.32 | 6:14.00 | 266807 | 294856
13 | 65:31.32 | 6:24.00 | 294857 | 323656
Характеристики диапазона извлечения и сообщения об ошибках
Выбранный диапазон
Имя файла D:\временная\Ludwig van Beethoven [1770-1827] - Piano Sonatas & Concertos 5_14 [Arrau-PS13,14Moonlight,15Pastorale,22].wav
Пиковый уровень 98.1 %
Качество диапазона 100.0 %
CRC копии D52B88DB
Копирование... OK
Ошибок не произошло
AccurateRip: сводка
Трек 1 точное извлечение (доверие 4) [44D16EF8]
Трек 2 точное извлечение (доверие 4) [591AC141]
Трек 3 точное извлечение (доверие 4) [262C443E]
Трек 4 точное извлечение (доверие 4) [6C8505EF]
Трек 5 точное извлечение (доверие 4) [F4EC9750]
Трек 6 точное извлечение (доверие 4) [A2C29997]
Трек 7 точное извлечение (доверие 4) [8EC41EC8]
Трек 8 точное извлечение (доверие 4) [5E8D07F6]
Трек 9 точное извлечение (доверие 4) [3B17B94E]
Трек 10 точное извлечение (доверие 4) [A1070419]
Трек 11 точное извлечение (доверие 4) [9251483F]
Трек 12 точное извлечение (доверие 4) [A8281803]
Трек 13 точное извлечение (доверие 4) [10442B75]
Все треки извлечены точно
Конец отчёта

Отчёт EAC CD6

Exact Audio Copy V0.99 prebeta 4 from 23. January 2008
Отчёт EAC об извлечении, выполненном 10. сентября 2009, 17:21
Claudio Arrau / Ludwig van Beethoven - Piano Sonatas Nos. 16-18
Дисковод: HL-DT-STDVDRAM GSA-H62N Adapter: 2 ID: 0
Режим чтения : Достоверность
Использование точного потока : Да
Отключение кэша аудио : Да
Использование указателей C2 : Нет
Коррекция смещения при чтении : 667
Способность читать области Lead-in и Lead-out : Нет
Заполнение пропущенных сэмплов тишиной : Да
Удаление блоков с тишиной в начале и конце : Нет
При вычислениях CRC использовались нулевые сэмплы : Да
Интерфейс : Установленный внешний ASPI-интерфейс
Выходной формат : Внутренние WAV-операции
Формат сэмплов : 44.100 Гц; 16 бит; стерео
TOC извлечённого CD
Трек | Старт | Длительность | Начальный сектор | Конечный сектор
---------------------------------------------------------------------
1 | 0:00.32 | 6:36.00 | 32 | 29731
2 | 6:36.32 | 12:17.00 | 29732 | 85006
3 | 18:53.32 | 6:27.00 | 85007 | 114031
4 | 25:20.32 | 8:39.00 | 114032 | 152956
5 | 33:59.32 | 10:23.00 | 152957 | 199681
6 | 44:22.32 | 7:41.00 | 199682 | 234256
7 | 52:03.32 | 8:41.00 | 234257 | 273331
8 | 60:44.32 | 5:37.00 | 273332 | 298606
9 | 66:21.32 | 5:19.00 | 298607 | 322531
10 | 71:40.32 | 5:07.00 | 322532 | 345556
Характеристики диапазона извлечения и сообщения об ошибках
Выбранный диапазон
Имя файла D:\временная\Claudio Arrau - Ludwig van Beethoven - Piano Sonatas Nos. 16-18.wav
Пиковый уровень 94.3 %
Качество диапазона 99.9 %
CRC копии 3CA4722E
Копирование... OK
Ошибок не произошло
AccurateRip: сводка
Трек 1 точное извлечение (доверие 4) [A2BD178D]
Трек 2 точное извлечение (доверие 4) [607D1CA5]
Трек 3 точное извлечение (доверие 4) [3E1E36B9]
Трек 4 точное извлечение (доверие 4) [B2779254]
Трек 5 точное извлечение (доверие 4) [75ADE2A5]
Трек 6 точное извлечение (доверие 4) [B7556EEA]
Трек 7 точное извлечение (доверие 4) [C2FA9D8C]
Трек 8 точное извлечение (доверие 4) [5DC862E3]
Трек 9 точное извлечение (доверие 4) [63A8BC40]
Трек 10 точное извлечение (доверие 4) [4899512B]
Все треки извлечены точно
Конец отчёта

Отчёт EAC CD7

Exact Audio Copy V0.99 prebeta 4 from 23. January 2008
Отчёт EAC об извлечении, выполненном 10. сентября 2009, 17:45
BEETHOVEN Ludwig van, ARRAU Claudio / BEETHOVEN, ARRAU Claudio-Piano Sonata No.21, Eroica Variations-cd7
Дисковод: HL-DT-STDVDRAM GSA-H62N Adapter: 2 ID: 0
Режим чтения : Достоверность
Использование точного потока : Да
Отключение кэша аудио : Да
Использование указателей C2 : Нет
Коррекция смещения при чтении : 667
Способность читать области Lead-in и Lead-out : Нет
Заполнение пропущенных сэмплов тишиной : Да
Удаление блоков с тишиной в начале и конце : Нет
При вычислениях CRC использовались нулевые сэмплы : Да
Интерфейс : Установленный внешний ASPI-интерфейс
Выходной формат : Внутренние WAV-операции
Формат сэмплов : 44.100 Гц; 16 бит; стерео
TOC извлечённого CD
Трек | Старт | Длительность | Начальный сектор | Конечный сектор
---------------------------------------------------------------------
1 | 0:00.32 | 11:50.00 | 32 | 53281
2 | 11:50.32 | 15:11.00 | 53282 | 121606
3 | 27:01.32 | 3:37.00 | 121607 | 137881
4 | 30:38.32 | 17:22.38 | 137882 | 216069
5 | 48:00.70 | 5:15.37 | 216070 | 239731
6 | 53:16.32 | 12:23.00 | 239732 | 295456
7 | 65:39.32 | 10:36.00 | 295457 | 343156
Характеристики диапазона извлечения и сообщения об ошибках
Выбранный диапазон
Имя файла D:\временная\BEETHOVEN Ludwig van, ARRAU Claudio - BEETHOVEN, ARRAU Claudio-Piano Sonata No.21, Eroica Variations-cd7.wav
Пиковый уровень 100.0 %
Качество диапазона 100.0 %
CRC копии 97725309
Копирование... OK
Ошибок не произошло
AccurateRip: сводка
Трек 1 точное извлечение (доверие 4) [F4FF6D26]
Трек 2 точное извлечение (доверие 4) [04C38A05]
Трек 3 точное извлечение (доверие 4) [EC63A5A2]
Трек 4 точное извлечение (доверие 4) [0D3BA706]
Трек 5 точное извлечение (доверие 4) [3550721D]
Трек 6 точное извлечение (доверие 4) [FE501C90]
Трек 7 точное извлечение (доверие 3) [FB7B5554]
Все треки извлечены точно
Конец отчёта

Отчёт EAC CD8

Exact Audio Copy V0.99 prebeta 4 from 23. January 2008
Отчёт EAC об извлечении, выполненном 10. сентября 2009, 18:11
BEETHOVEN Ludwig van, ARRAU Claudio / BEETHOVEN, ARRAU Claudio-Piano Sonata No.20, 23, 24, 26, 27-cd8
Дисковод: HL-DT-STDVDRAM GSA-H62N Adapter: 2 ID: 0
Режим чтения : Достоверность
Использование точного потока : Да
Отключение кэша аудио : Да
Использование указателей C2 : Нет
Коррекция смещения при чтении : 667
Способность читать области Lead-in и Lead-out : Нет
Заполнение пропущенных сэмплов тишиной : Да
Удаление блоков с тишиной в начале и конце : Нет
При вычислениях CRC использовались нулевые сэмплы : Да
Интерфейс : Установленный внешний ASPI-интерфейс
Выходной формат : Внутренние WAV-операции
Формат сэмплов : 44.100 Гц; 16 бит; стерео
TOC извлечённого CD
Трек | Старт | Длительность | Начальный сектор | Конечный сектор
---------------------------------------------------------------------
1 | 0:00.32 | 11:20.00 | 32 | 51031
2 | 11:20.32 | 7:18.05 | 51032 | 83886
3 | 18:38.37 | 8:21.70 | 83887 | 121531
4 | 27:00.32 | 7:31.00 | 121532 | 155356
5 | 34:31.32 | 3:04.00 | 155357 | 169156
6 | 37:35.32 | 7:03.00 | 169157 | 200881
7 | 44:38.32 | 3:47.10 | 200882 | 217916
8 | 48:25.42 | 6:25.65 | 217917 | 246856
9 | 54:51.32 | 5:12.63 | 246857 | 270319
10 | 60:04.20 | 8:02.12 | 270320 | 306481
11 | 68:06.32 | 4:58.00 | 306482 | 328831
12 | 73:04.32 | 4:02.00 | 328832 | 346981
Характеристики диапазона извлечения и сообщения об ошибках
Выбранный диапазон
Имя файла D:\временная\BEETHOVEN Ludwig van, ARRAU Claudio - BEETHOVEN, ARRAU Claudio-Piano Sonata No.20, 23, 24, 26, 27-cd8.wav
Пиковый уровень 100.0 %
Качество диапазона 100.0 %
CRC копии 215E456A
Копирование... OK
Ошибок не произошло
AccurateRip: сводка
Трек 1 точное извлечение (доверие 4) [58B19D76]
Трек 2 точное извлечение (доверие 4) [0B86C426]
Трек 3 точное извлечение (доверие 4) [56C4798B]
Трек 4 точное извлечение (доверие 4) [49E57F49]
Трек 5 точное извлечение (доверие 4) [7DFF0419]
Трек 6 точное извлечение (доверие 4) [620451CD]
Трек 7 точное извлечение (доверие 4) [83B3DCD8]
Трек 8 точное извлечение (доверие 4) [839A02B8]
Трек 9 точное извлечение (доверие 4) [54E44F41]
Трек 10 точное извлечение (доверие 4) [FF5920B6]
Трек 11 точное извлечение (доверие 4) [766831AD]
Трек 12 точное извлечение (доверие 4) [6473648A]
Все треки извлечены точно
Конец отчёта

Отчёт EAC CD9

Exact Audio Copy V0.99 prebeta 4 from 23. January 2008
Отчёт EAC об извлечении, выполненном 10. сентября 2009, 18:40
Ludwig van Beethoven [1770-1827] / Piano Sonatas and Concertos cd9_14 [Claudio Arrau-PS28,29Hammerklavier]
Дисковод: HL-DT-STDVDRAM GSA-H62N Adapter: 2 ID: 0
Режим чтения : Достоверность
Использование точного потока : Да
Отключение кэша аудио : Да
Использование указателей C2 : Нет
Коррекция смещения при чтении : 667
Способность читать области Lead-in и Lead-out : Нет
Заполнение пропущенных сэмплов тишиной : Да
Удаление блоков с тишиной в начале и конце : Нет
При вычислениях CRC использовались нулевые сэмплы : Да
Интерфейс : Установленный внешний ASPI-интерфейс
Выходной формат : Внутренние WAV-операции
Формат сэмплов : 44.100 Гц; 16 бит; стерео
TOC извлечённого CD
Трек | Старт | Длительность | Начальный сектор | Конечный сектор
---------------------------------------------------------------------
1 | 0:00.32 | 4:49.50 | 32 | 21756
2 | 4:50.07 | 6:05.25 | 21757 | 49156
3 | 10:55.32 | 3:50.25 | 49157 | 66431
4 | 14:45.57 | 7:58.50 | 66432 | 102331
5 | 22:44.32 | 10:47.00 | 102332 | 150856
6 | 33:31.32 | 2:34.00 | 150857 | 162406
7 | 36:05.32 | 20:30.00 | 162407 | 254656
8 | 56:35.32 | 11:45.00 | 254657 | 307531
Характеристики диапазона извлечения и сообщения об ошибках
Выбранный диапазон
Имя файла D:\временная\Ludwig van Beethoven [1770-1827] - Piano Sonatas and Concertos cd9_14 [Claudio Arrau-PS28,29Hammerklavier].wav
Пиковый уровень 95.9 %
Качество диапазона 100.0 %
CRC копии 84776B5F
Копирование... OK
Ошибок не произошло
AccurateRip: сводка
Трек 1 точное извлечение (доверие 4) [7CE2B854]
Трек 2 точное извлечение (доверие 4) [E6C04A62]
Трек 3 точное извлечение (доверие 4) [CC05A814]
Трек 4 точное извлечение (доверие 4) [AE192D84]
Трек 5 точное извлечение (доверие 4) [61C513AA]
Трек 6 точное извлечение (доверие 4) [6E5D931C]
Трек 7 точное извлечение (доверие 4) [CC559600]
Трек 8 точное извлечение (доверие 4) [47F3C331]
Все треки извлечены точно
Конец отчёта

Отчёт EAC CD10

Exact Audio Copy V0.99 prebeta 4 from 23. January 2008
Отчёт EAC об извлечении, выполненном 10. сентября 2009, 19:30
Claudio Arrau / Beethoven - Complete Piano Sonatas & Concertos disc 10
Дисковод: HL-DT-STDVDRAM GSA-H62N Adapter: 2 ID: 0
Режим чтения : Достоверность
Использование точного потока : Да
Отключение кэша аудио : Да
Использование указателей C2 : Нет
Коррекция смещения при чтении : 667
Способность читать области Lead-in и Lead-out : Нет
Заполнение пропущенных сэмплов тишиной : Да
Удаление блоков с тишиной в начале и конце : Нет
При вычислениях CRC использовались нулевые сэмплы : Да
Интерфейс : Установленный внешний ASPI-интерфейс
Выходной формат : Внутренние WAV-операции
Формат сэмплов : 44.100 Гц; 16 бит; стерео
TOC извлечённого CD
Трек | Старт | Длительность | Начальный сектор | Конечный сектор
---------------------------------------------------------------------
1 | 0:00.32 | 6:36.00 | 32 | 29731
2 | 6:36.32 | 16:32.00 | 29732 | 104131
3 | 23:08.32 | 6:58.00 | 104132 | 135481
4 | 30:06.32 | 2:22.10 | 135482 | 146141
5 | 32:28.42 | 3:55.73 | 146142 | 163839
6 | 36:24.40 | 7:18.67 | 163840 | 196756
7 | 43:43.32 | 9:16.00 | 196757 | 238456
8 | 52:59.32 | 19:42.00 | 238457 | 327106
Характеристики диапазона извлечения и сообщения об ошибках
Выбранный диапазон
Имя файла D:\Temp\Claudio Arrau - Beethoven - Complete Piano Sonatas & Concertos disc 10.wav
Пиковый уровень 99.5 %
Качество диапазона 100.0 %
CRC копии A549D380
Копирование... OK
Ошибок не произошло
AccurateRip: сводка
Трек 1 точное извлечение (доверие 6) [1379217A]
Трек 2 точное извлечение (доверие 6) [4EA56F24]
Трек 3 точное извлечение (доверие 6) [A4853E34]
Трек 4 точное извлечение (доверие 6) [4410D919]
Трек 5 точное извлечение (доверие 6) [579B62E8]
Трек 6 точное извлечение (доверие 6) [FD3A15ED]
Трек 7 точное извлечение (доверие 6) [3ACED496]
Трек 8 точное извлечение (доверие 6) [9ED2182C]
Все треки извлечены точно
Конец отчёта

Отчёт EAC CD11

Exact Audio Copy V0.99 prebeta 4 from 23. January 2008
Отчёт EAC об извлечении, выполненном 10. сентября 2009, 19:57
Claudio Arrau / Beethoven: Diabelli Variations
Дисковод: HL-DT-STDVDRAM GSA-H62N Adapter: 2 ID: 0
Режим чтения : Достоверность
Использование точного потока : Да
Отключение кэша аудио : Да
Использование указателей C2 : Нет
Коррекция смещения при чтении : 667
Способность читать области Lead-in и Lead-out : Нет
Заполнение пропущенных сэмплов тишиной : Да
Удаление блоков с тишиной в начале и конце : Нет
При вычислениях CRC использовались нулевые сэмплы : Да
Интерфейс : Установленный внешний ASPI-интерфейс
Выходной формат : Внутренние WAV-операции
Формат сэмплов : 44.100 Гц; 16 бит; стерео
TOC извлечённого CD
Трек | Старт | Длительность | Начальный сектор | Конечный сектор
---------------------------------------------------------------------
1 | 0:00.32 | 2:40.55 | 32 | 12086
2 | 2:41.12 | 0:55.73 | 12087 | 16284
3 | 3:37.10 | 1:25.22 | 16285 | 22681
4 | 5:02.32 | 1:06.25 | 22682 | 27656
5 | 6:08.57 | 0:59.00 | 27657 | 32081
6 | 7:07.57 | 1:44.43 | 32082 | 39924
7 | 8:52.25 | 1:11.70 | 39925 | 45319
8 | 10:04.20 | 1:36.50 | 45320 | 52569
9 | 11:40.70 | 1:41.37 | 52570 | 60181
10 | 13:22.32 | 0:43.18 | 60182 | 63424
11 | 14:05.50 | 1:07.45 | 63425 | 68494
12 | 15:13.20 | 1:01.37 | 68495 | 73106
13 | 16:14.57 | 0:56.18 | 73107 | 77324
14 | 17:11.00 | 3:29.32 | 77325 | 93031
15 | 20:40.32 | 0:41.25 | 93032 | 96131
16 | 21:21.57 | 1:01.28 | 96132 | 100734
17 | 22:23.10 | 1:00.52 | 100735 | 105286
18 | 23:23.62 | 1:52.20 | 105287 | 113706
19 | 25:16.07 | 1:01.18 | 113707 | 118299
20 | 26:17.25 | 2:22.07 | 118300 | 128956
21 | 28:39.32 | 1:41.38 | 128957 | 136569
22 | 30:20.70 | 0:49.00 | 136570 | 140244
23 | 31:09.70 | 1:00.00 | 140245 | 144744
24 | 32:09.70 | 2:53.32 | 144745 | 157751
25 | 35:03.27 | 0:51.05 | 157752 | 161581
26 | 35:54.32 | 1:20.00 | 161582 | 167581
27 | 37:14.32 | 1:10.25 | 167582 | 172856
28 | 38:24.57 | 1:02.50 | 172857 | 177556
29 | 39:27.32 | 1:16.13 | 177557 | 183269
30 | 40:43.45 | 2:09.17 | 183270 | 192961
31 | 42:52.62 | 5:14.70 | 192962 | 216581
32 | 48:07.57 | 3:19.13 | 216582 | 231519
33 | 51:26.70 | 4:15.37 | 231520 | 250681
Характеристики диапазона извлечения и сообщения об ошибках
Выбранный диапазон
Имя файла D:\Temp\Claudio Arrau - Beethoven Diabelli Variations.wav
Пиковый уровень 95.5 %
Качество диапазона 100.0 %
CRC копии A5B71EFE
Копирование... OK
Ошибок не произошло
AccurateRip: сводка
Трек 1 точное извлечение (доверие 5) [BA059D22]
Трек 2 точное извлечение (доверие 5) [5E0DB3BE]
Трек 3 точное извлечение (доверие 5) [25B4E72F]
Трек 4 точное извлечение (доверие 5) [AA53AD21]
Трек 5 точное извлечение (доверие 5) [C1433DB1]
Трек 6 точное извлечение (доверие 5) [2B037275]
Трек 7 точное извлечение (доверие 5) [1E075B3E]
Трек 8 точное извлечение (доверие 5) [8911FE74]
Трек 9 точное извлечение (доверие 5) [CF7C9D75]
Трек 10 точное извлечение (доверие 5) [F33ADEF1]
Трек 11 точное извлечение (доверие 5) [02DA3DA0]
Трек 12 точное извлечение (доверие 5) [819572F1]
Трек 13 точное извлечение (доверие 5) [94A13E52]
Трек 14 точное извлечение (доверие 5) [33BF7786]
Трек 15 точное извлечение (доверие 5) [26E60336]
Трек 16 точное извлечение (доверие 5) [34E35B84]
Трек 17 точное извлечение (доверие 5) [48E7304C]
Трек 18 точное извлечение (доверие 5) [89A89E67]
Трек 19 точное извлечение (доверие 5) [E729426B]
Трек 20 точное извлечение (доверие 5) [36E58A60]
Трек 21 точное извлечение (доверие 5) [7CC510F8]
Трек 22 точное извлечение (доверие 5) [698BFEB6]
Трек 23 точное извлечение (доверие 5) [79F7EF33]
Трек 24 точное извлечение (доверие 5) [9DBC0389]
Трек 25 точное извлечение (доверие 5) [D400310A]
Трек 26 точное извлечение (доверие 5) [B5BC0C07]
Трек 27 точное извлечение (доверие 5) [96055169]
Трек 28 точное извлечение (доверие 5) [7339C6DA]
Трек 29 точное извлечение (доверие 5) [3709471B]
Трек 30 точное извлечение (доверие 5) [1FE92500]
Трек 31 точное извлечение (доверие 5) [B9AA2244]
Трек 32 точное извлечение (доверие 5) [3A77F0B4]
Трек 33 точное извлечение (доверие 5) [8916109D]
Все треки извлечены точно
Конец отчёта

Отчёт EAC CD12

Exact Audio Copy V0.99 prebeta 4 from 23. January 2008
Отчёт EAC об извлечении, выполненном 10. сентября 2009, 20:20
Ludwig van Beethoven [1770-1827] / Piano Sonatas & Concertos cd12_14 [Claudio Arrau-PC1&2]
Дисковод: HL-DT-STDVDRAM GSA-H62N Adapter: 2 ID: 0
Режим чтения : Достоверность
Использование точного потока : Да
Отключение кэша аудио : Да
Использование указателей C2 : Нет
Коррекция смещения при чтении : 667
Способность читать области Lead-in и Lead-out : Нет
Заполнение пропущенных сэмплов тишиной : Да
Удаление блоков с тишиной в начале и конце : Нет
При вычислениях CRC использовались нулевые сэмплы : Да
Интерфейс : Установленный внешний ASPI-интерфейс
Выходной формат : Внутренние WAV-операции
Формат сэмплов : 44.100 Гц; 16 бит; стерео
TOC извлечённого CD
Трек | Старт | Длительность | Начальный сектор | Конечный сектор
---------------------------------------------------------------------
1 | 0:00.32 | 16:49.00 | 32 | 75706
2 | 16:49.32 | 11:44.00 | 75707 | 128506
3 | 28:33.32 | 9:33.00 | 128507 | 171481
4 | 38:06.32 | 14:17.00 | 171482 | 235756
5 | 52:23.32 | 9:23.00 | 235757 | 277981
6 | 61:46.32 | 6:54.00 | 277982 | 309031
Характеристики диапазона извлечения и сообщения об ошибках
Выбранный диапазон
Имя файла D:\Temp\Ludwig van Beethoven [1770-1827] - Piano Sonatas & Concertos cd12_14 [Claudio Arrau-PC1&2].wav
Пиковый уровень 95.4 %
Качество диапазона 100.0 %
CRC копии 5B178E98
Копирование... OK
Ошибок не произошло
AccurateRip: сводка
Трек 1 точное извлечение (доверие 4) [4EFBF18D]
Трек 2 точное извлечение (доверие 4) [BDD96E65]
Трек 3 точное извлечение (доверие 4) [241CC304]
Трек 4 точное извлечение (доверие 4) [23E063C4]
Трек 5 точное извлечение (доверие 4) [43BBD1BE]
Трек 6 точное извлечение (доверие 4) [C100F84D]
Все треки извлечены точно
Конец отчёта

Отчёт EAC CD13

Exact Audio Copy V0.99 prebeta 4 from 23. January 2008
Отчёт EAC об извлечении, выполненном 10. сентября 2009, 20:45
Ludwig van Beethoven [1770-1827] / Piano Sonatas & Concertos 13_14 [Claudio Arrau - PC3&4]
Дисковод: HL-DT-STDVDRAM GSA-H62N Adapter: 2 ID: 0
Режим чтения : Достоверность
Использование точного потока : Да
Отключение кэша аудио : Да
Использование указателей C2 : Нет
Коррекция смещения при чтении : 667
Способность читать области Lead-in и Lead-out : Нет
Заполнение пропущенных сэмплов тишиной : Да
Удаление блоков с тишиной в начале и конце : Нет
При вычислениях CRC использовались нулевые сэмплы : Да
Интерфейс : Установленный внешний ASPI-интерфейс
Выходной формат : Внутренние WAV-операции
Формат сэмплов : 44.100 Гц; 16 бит; стерео
TOC извлечённого CD
Трек | Старт | Длительность | Начальный сектор | Конечный сектор
---------------------------------------------------------------------
1 | 0:00.32 | 17:20.00 | 32 | 78031
2 | 17:20.32 | 11:15.00 | 78032 | 128656
3 | 28:35.32 | 9:42.00 | 128657 | 172306
4 | 38:17.32 | 19:29.00 | 172307 | 259981
5 | 57:46.32 | 5:30.00 | 259982 | 284731
6 | 63:16.32 | 10:13.00 | 284732 | 330706
Характеристики диапазона извлечения и сообщения об ошибках
Выбранный диапазон
Имя файла D:\временная\Ludwig van Beethoven [1770-1827] - Piano Sonatas & Concertos 13_14 [Claudio Arrau - PC3&4].wav
Пиковый уровень 100.0 %
Качество диапазона 100.0 %
CRC копии D3D2F517
Копирование... OK
Ошибок не произошло
AccurateRip: сводка
Трек 1 точное извлечение (доверие 4) [2ACEC794]
Трек 2 точное извлечение (доверие 4) [57B304F9]
Трек 3 точное извлечение (доверие 4) [5CB881D9]
Трек 4 точное извлечение (доверие 4) [1CA28DF3]
Трек 5 точное извлечение (доверие 4) [089DDE52]
Трек 6 точное извлечение (доверие 4) [20AF85A6]
Все треки извлечены точно
Конец отчёта

Отчёт EAC CD14

Exact Audio Copy V0.99 prebeta 4 from 23. January 2008
Отчёт EAC об извлечении, выполненном 10. сентября 2009, 21:17
Beethoven / Piano Sonatas & Concertos - Arrau (Disc 14)
Дисковод: HL-DT-STDVDRAM GSA-H62N Adapter: 2 ID: 0
Режим чтения : Достоверность
Использование точного потока : Да
Отключение кэша аудио : Да
Использование указателей C2 : Нет
Коррекция смещения при чтении : 667
Способность читать области Lead-in и Lead-out : Нет
Заполнение пропущенных сэмплов тишиной : Да
Удаление блоков с тишиной в начале и конце : Нет
При вычислениях CRC использовались нулевые сэмплы : Да
Интерфейс : Установленный внешний ASPI-интерфейс
Выходной формат : Внутренние WAV-операции
Формат сэмплов : 44.100 Гц; 16 бит; стерео
TOC извлечённого CD
Трек | Старт | Длительность | Начальный сектор | Конечный сектор
---------------------------------------------------------------------
1 | 0:00.32 | 20:43.00 | 32 | 93256
2 | 20:43.32 | 8:06.38 | 93257 | 129744
3 | 28:49.70 | 10:49.37 | 129745 | 178456
4 | 39:39.32 | 17:43.00 | 178457 | 258181
5 | 57:22.32 | 5:24.25 | 258182 | 282506
6 | 62:46.57 | 14:17.50 | 282507 | 346831
Характеристики диапазона извлечения и сообщения об ошибках
Выбранный диапазон
Имя файла D:\временная\Beethoven - Piano Sonatas & Concertos - Arrau (Disc 14).wav
Пиковый уровень 100.0 %
Качество диапазона 100.0 %
CRC копии A3BF0A83
Копирование... OK
Ошибок не произошло
AccurateRip: сводка
Трек 1 точное извлечение (доверие 3) [E171611E]
Трек 2 точное извлечение (доверие 3) [5E7F8687]
Трек 3 точное извлечение (доверие 3) [333B46FB]
Трек 4 точное извлечение (доверие 3) [ADF816D6]
Трек 5 точное извлечение (доверие 3) [9EFE96B4]
Трек 6 точное извлечение (доверие 3) [BA07B30D]
Все треки извлечены точно
Конец отчёта
[teatrix.ru].t9773.torrent 
Торрент: Зарегистрирован [ 2015-10-23 17:26 ] · 60A5EC3B2CFB7B614E753F03E1A24A0DD1B749C3

Скачать .torrent

Скачать

27 KB

Статус: проверено
Скачан: 0 раз
Размер: 4.22 GB
terms.php



Быстрый ответ

Имя:

      
Для отправки сообщений необходимо включить JavaScript
Показать сообщения:    

Текущее время: 22-Янв 04:43

Часовой пояс: UTC + 3


Вы можете начинать темы
Вы можете отвечать на сообщения
Вы не можете редактировать свои сообщения
Вы не можете удалять свои сообщения
Вы не можете голосовать в опросах
Вы не можете прикреплять файлы к сообщениям
Вы можете скачивать файлы