(Оркестровая музыка) Игорь Стравинский дирижирует Стравинского - Igor Stravinsky conducts Stravinsky - The Original Jacket Collection 9CD, 1999 FLAC (image+.cue), lossless


Статистика раздачи [Обновить пиров]
Размер:  1.73 GB   |    Зарегистрирован:  1 год 1 месяц   |    Скачан:  0 раз
Сидов:  3  [  0 KB/s  ]   Личеров:  2  [  0 KB/s  ]   Подробная статистика пиров
 
   
 
 

[Цитировать]

Igor Stravinsky conducts STRAVINSKY
SONY Recordings
Жанр: Оркестровая музыка
Производитель диска: Sony
Аудио кодек: FLAC
Тип рипа: image+.cue
Битрейт аудио: lossless
Cканы: jpg
Продолжительность: 6 h 46' 08''
Игорь Стравинский
Трэклист:

CD1 - Le Sacre du printemps

[1-14] Le Sacre du printemps
Columbia Symphony Orchestra

EAC

Exact Audio Copy V0.99 prebeta 5 from 4. May 2009
EAC extraction logfile from 31. January 2010, 16:42
Stravinsky, Igor (1882-1971) / Le Sacre du Printemps (Stravinsky)
Used drive : TEAC CD-W516EB Adapter: 2 ID: 0
Read mode : Secure
Utilize accurate stream : Yes
Defeat audio cache : Yes
Make use of C2 pointers : No
Read offset correction : 685
Overread into Lead-In and Lead-Out : No
Fill up missing offset samples with silence : Yes
Delete leading and trailing silent blocks : No
Null samples used in CRC calculations : No
Used interface : Installed external ASPI interface
Used output format : Internal WAV Routines
Sample format : 44.100 Hz; 16 Bit; Stereo
TOC of the extracted CD
Track | Start | Length | Start sector | End sector
---------------------------------------------------------
1 | 0:00.00 | 2:57.01 | 0 | 13275
2 | 2:57.01 | 3:03.34 | 13276 | 27034
3 | 6:00.35 | 1:17.24 | 27035 | 32833
4 | 7:17.59 | 3:05.03 | 32834 | 46711
5 | 10:22.62 | 1:59.40 | 46712 | 55676
6 | 12:22.27 | 0:43.19 | 55677 | 58920
7 | 13:05.46 | 0:25.13 | 58921 | 60808
8 | 13:30.59 | 1:14.55 | 60809 | 66413
9 | 14:45.39 | 3:41.40 | 66414 | 83028
10 | 18:27.04 | 2:51.49 | 83029 | 95902
11 | 21:18.53 | 1:35.58 | 95903 | 103085
12 | 22:54.36 | 0:42.31 | 103086 | 106266
13 | 23:36.67 | 3:19.55 | 106267 | 121246
14 | 26:56.47 | 4:37.33 | 121247 | 142054
15 | 34:06.05 | 1:19.08 | 153455 | 159387
Range status and errors
Selected range
Filename E:\stravinsky jacket collection\64138_le sacre du printemps\cdimage.wav
Peak level 95.1 %
Range quality 100.0 %
Copy CRC CA24FC55
Copy OK
No errors occurred
AccurateRip summary
Track 1 cannot be verified as accurate (confidence 3) [0716B07D], AccurateRip returned [53594D67]
Track 2 cannot be verified as accurate (confidence 3) [F66DE59E], AccurateRip returned [71B9FDA6]
Track 3 cannot be verified as accurate (confidence 3) [29680BC8], AccurateRip returned [2F0785F8]
Track 4 cannot be verified as accurate (confidence 3) [D1AC6E80], AccurateRip returned [AD6B05E9]
Track 5 cannot be verified as accurate (confidence 3) [700629D5], AccurateRip returned [D19504AF]
Track 6 cannot be verified as accurate (confidence 3) [E599E0C5], AccurateRip returned [C6529B8D]
Track 7 cannot be verified as accurate (confidence 3) [BC7A2081], AccurateRip returned [FC92954C]
Track 8 cannot be verified as accurate (confidence 3) [9A1EC808], AccurateRip returned [942810C7]
Track 9 cannot be verified as accurate (confidence 3) [47258D85], AccurateRip returned [13DD6152]
Track 10 cannot be verified as accurate (confidence 3) [7E3AC8D1], AccurateRip returned [8D2704F4]
Track 11 cannot be verified as accurate (confidence 3) [018C5F87], AccurateRip returned [E3D92C6E]
Track 12 cannot be verified as accurate (confidence 3) [36F1B393], AccurateRip returned [A932ED24]
Track 13 cannot be verified as accurate (confidence 3) [95CDFFE7], AccurateRip returned [2C2D4FB6]
Track 14 cannot be verified as accurate (confidence 3) [D916C077], AccurateRip returned [5AEA3DAB]
No tracks could be verified as accurate
You may have a different pressing from the one(s) in the database
End of status report

CD2 - The Firebird

[1-21] The Firebird
Columbia Symphony Orchestra

EAC

Exact Audio Copy V0.99 prebeta 5 from 4. May 2009
EAC extraction logfile from 31. January 2010, 4:58
Igor Stravinsky - Columbia Symphony Orchestra / Stravinsky Conducts - L'Oiseau du Feu - The Firebird
Used drive : TEAC CD-W516EB Adapter: 2 ID: 0
Read mode : Secure
Utilize accurate stream : Yes
Defeat audio cache : Yes
Make use of C2 pointers : No
Read offset correction : 685
Overread into Lead-In and Lead-Out : No
Fill up missing offset samples with silence : Yes
Delete leading and trailing silent blocks : No
Null samples used in CRC calculations : No
Used interface : Installed external ASPI interface
Used output format : Internal WAV Routines
Sample format : 44.100 Hz; 16 Bit; Stereo
TOC of the extracted CD
Track | Start | Length | Start sector | End sector
---------------------------------------------------------
1 | 0:00.00 | 2:21.10 | 0 | 10584
2 | 2:21.10 | 1:36.12 | 10585 | 17796
3 | 3:57.22 | 2:17.18 | 17797 | 28089
4 | 6:14.40 | 1:26.27 | 28090 | 34566
5 | 7:40.67 | 1:01.20 | 34567 | 39161
6 | 8:42.12 | 5:15.43 | 39162 | 62829
7 | 13:57.55 | 2:24.20 | 62830 | 73649
8 | 16:22.00 | 2:23.15 | 73650 | 84389
9 | 18:45.15 | 1:01.20 | 84390 | 88984
10 | 19:46.35 | 3:59.42 | 88985 | 106951
11 | 23:46.02 | 1:35.23 | 106952 | 114099
12 | 25:21.25 | 1:24.07 | 114100 | 120406
13 | 26:45.32 | 1:12.48 | 120407 | 125854
14 | 27:58.05 | 1:03.27 | 125855 | 130606
15 | 29:01.32 | 1:00.53 | 130607 | 135159
16 | 30:02.10 | 0:35.60 | 135160 | 137844
17 | 30:37.70 | 0:49.10 | 137845 | 141529
18 | 31:27.05 | 4:40.57 | 141530 | 162586
19 | 36:07.62 | 2:32.18 | 162587 | 174004
20 | 38:40.05 | 1:07.25 | 174005 | 179054
21 | 39:47.30 | 1:20.37 | 179055 | 185091
22 | 41:07.67 | 2:50.08 | 185092 | 197849
Range status and errors
Selected range
Filename E:\stravinsky jacket collection\64139_the firebird\cdimage.wav
Peak level 99.8 %
Range quality 100.0 %
Copy CRC F9877D0C
Copy OK
No errors occurred
AccurateRip summary
Track 1 accurately ripped (confidence 3) [5322F752]
Track 2 accurately ripped (confidence 3) [95FF64FA]
Track 3 accurately ripped (confidence 3) [221B8EF8]
Track 4 accurately ripped (confidence 3) [6C188A6C]
Track 5 accurately ripped (confidence 3) [DCF1BE5D]
Track 6 accurately ripped (confidence 3) [1489D1A3]
Track 7 accurately ripped (confidence 3) [0CE0FDC1]
Track 8 accurately ripped (confidence 3) [F67BBAAA]
Track 9 accurately ripped (confidence 3) [B11E2310]
Track 10 accurately ripped (confidence 3) [22DEFA25]
Track 11 accurately ripped (confidence 3) [138285DE]
Track 12 accurately ripped (confidence 3) [9D81ED0D]
Track 13 accurately ripped (confidence 3) [22758461]
Track 14 accurately ripped (confidence 3) [7F51F8A8]
Track 15 accurately ripped (confidence 3) [71FC30D9]
Track 16 accurately ripped (confidence 3) [406F4CEA]
Track 17 accurately ripped (confidence 3) [935EDBE3]
Track 18 accurately ripped (confidence 3) [06B878C9]
Track 19 accurately ripped (confidence 3) [AF84B994]
Track 20 accurately ripped (confidence 3) [48F7CA24]
Track 21 accurately ripped (confidence 3) [A4793E73]
Track 22 accurately ripped (confidence 3) [64B10A5F]
All tracks accurately ripped
End of status report

CD3 - Symphony of Psalms, Symphony in C

[1-3] Symphony of Psalms
Festival Singers of Toronto
CBC Symphony Orchestra

[4-7] Symphony in C
CBC Symphony Orchestra

EAC

Exact Audio Copy V0.99 prebeta 5 from 4. May 2009
EAC extraction logfile from 31. January 2010, 4:27
Igor Stravinsky - Festival Singers - CBC Symphony Orchestra / Stravinsky Conducts - Symphony of Psalms - Symphony in C
Used drive : TEAC CD-W516EB Adapter: 2 ID: 0
Read mode : Secure
Utilize accurate stream : Yes
Defeat audio cache : Yes
Make use of C2 pointers : No
Read offset correction : 685
Overread into Lead-In and Lead-Out : No
Fill up missing offset samples with silence : Yes
Delete leading and trailing silent blocks : No
Null samples used in CRC calculations : No
Used interface : Installed external ASPI interface
Used output format : Internal WAV Routines
Sample format : 44.100 Hz; 16 Bit; Stereo
TOC of the extracted CD
Track | Start | Length | Start sector | End sector
---------------------------------------------------------
1 | 0:00.00 | 3:22.50 | 0 | 15199
2 | 3:22.50 | 6:16.37 | 15200 | 43436
3 | 9:39.12 | 12:03.25 | 43437 | 97686
4 | 21:42.37 | 9:24.50 | 97687 | 140036
5 | 31:07.12 | 5:42.13 | 140037 | 165699
6 | 36:49.25 | 4:35.62 | 165700 | 186386
7 | 41:25.12 | 7:19.50 | 186387 | 219361
Range status and errors
Selected range
Filename E:\stravinsky jacket collection\64151_symphony of psalms\cdimage.wav
Peak level 99.8 %
Range quality 99.9 %
Copy CRC 46127529
Copy OK
No errors occurred
AccurateRip summary
Track 1 accurately ripped (confidence 3) [26345786]
Track 2 accurately ripped (confidence 3) [3909995C]
Track 3 accurately ripped (confidence 3) [5694B08F]
Track 4 accurately ripped (confidence 3) [3445B02D]
Track 5 accurately ripped (confidence 3) [C258F16D]
Track 6 accurately ripped (confidence 3) [D886B3AA]
Track 7 accurately ripped (confidence 3) [E3947090]
All tracks accurately ripped
End of status report

CD4 - Firebird Suite, Petrushka Suite

[1-12] Firebird Suite
[13-23] Petrushka Suite
Columbia Symphony Orchestra

EAC

Exact Audio Copy V0.99 prebeta 5 from 4. May 2009
EAC extraction logfile from 31. January 2010, 17:03
Igor Stravinsky - Columbia Symphony Orchestra / Stravinsky Conducts Stravinsky (Columbia/Sony) (disc 4)
Used drive : TEAC CD-W516EB Adapter: 2 ID: 0
Read mode : Secure
Utilize accurate stream : Yes
Defeat audio cache : Yes
Make use of C2 pointers : No
Read offset correction : 685
Overread into Lead-In and Lead-Out : No
Fill up missing offset samples with silence : Yes
Delete leading and trailing silent blocks : No
Null samples used in CRC calculations : No
Used interface : Installed external ASPI interface
Used output format : Internal WAV Routines
Sample format : 44.100 Hz; 16 Bit; Stereo
TOC of the extracted CD
Track | Start | Length | Start sector | End sector
---------------------------------------------------------
1 | 0:00.00 | 2:50.20 | 0 | 12769
2 | 2:50.20 | 0:17.30 | 12770 | 14074
3 | 3:07.50 | 1:21.15 | 14075 | 20164
4 | 4:28.65 | 0:26.02 | 20165 | 22116
5 | 4:54.67 | 4:21.00 | 22117 | 41691
6 | 9:15.67 | 0:22.38 | 41692 | 43379
7 | 9:38.30 | 2:31.65 | 43380 | 54769
8 | 12:10.20 | 1:01.02 | 54770 | 59346
9 | 13:11.22 | 4:12.58 | 59347 | 78304
10 | 17:24.05 | 4:34.10 | 78305 | 98864
11 | 21:58.15 | 3:54.00 | 98865 | 116414
12 | 25:52.15 | 3:31.15 | 116415 | 132254
13 | 29:23.30 | 0:50.12 | 132255 | 136016
14 | 30:13.42 | 4:17.30 | 136017 | 155321
15 | 34:30.72 | 1:51.70 | 155322 | 163716
16 | 36:22.67 | 2:40.33 | 163717 | 175749
17 | 39:03.25 | 4:10.30 | 175750 | 194529
18 | 43:13.55 | 1:10.52 | 194530 | 199831
19 | 44:24.32 | 2:38.28 | 199832 | 211709
20 | 47:02.60 | 1:15.37 | 211710 | 217371
21 | 48:18.22 | 1:08.15 | 217372 | 222486
22 | 49:26.37 | 2:10.08 | 222487 | 232244
23 | 51:36.45 | 1:51.40 | 232245 | 240609
Range status and errors
Selected range
Filename E:\stravinsky jacket collection\89025_firebird suite\cdimage.wav
Peak level 99.8 %
Range quality 100.0 %
Copy CRC 736377C3
Copy OK
No errors occurred
AccurateRip summary
Track 1 accurately ripped (confidence 3) [A133E6A2]
Track 2 accurately ripped (confidence 3) [4588FF15]
Track 3 accurately ripped (confidence 3) [34CEA65E]
Track 4 accurately ripped (confidence 3) [8FA7FFA6]
Track 5 accurately ripped (confidence 3) [F8ACE7D7]
Track 6 accurately ripped (confidence 3) [A9DFE20C]
Track 7 accurately ripped (confidence 3) [2EB8BE3C]
Track 8 accurately ripped (confidence 3) [8672807A]
Track 9 accurately ripped (confidence 3) [CF26AEEB]
Track 10 accurately ripped (confidence 3) [DEB41527]
Track 11 accurately ripped (confidence 3) [C65FF64B]
Track 12 accurately ripped (confidence 3) [CE0E8C5F]
Track 13 accurately ripped (confidence 3) [7BB646EC]
Track 14 accurately ripped (confidence 3) [BD1431E4]
Track 15 accurately ripped (confidence 3) [F0E9B25E]
Track 16 accurately ripped (confidence 3) [B8CA515E]
Track 17 accurately ripped (confidence 3) [CB0C23F6]
Track 18 accurately ripped (confidence 3) [A63A8B9D]
Track 19 accurately ripped (confidence 3) [915EABA2]
Track 20 accurately ripped (confidence 3) [719EB7BE]
Track 21 accurately ripped (confidence 3) [2E930244]
Track 22 accurately ripped (confidence 3) [C62C12A9]
Track 23 accurately ripped (confidence 3) [C256DD65]
All tracks accurately ripped
End of status report

CD5 - Recent Stravinsky

[1] Fanfare pour deux trompettes
Robert Heinrich & Robert Nagel, trompettes
[2] The Owl and the Pussy-Cat (poeme d'Edward Lear)
Adrienne Albert, soprano
Robert Craft, piano

[3-5] Septuor
The Columbia Chamber Orchestra
[6-10] Movements for Piano and Orchestra
Charles Rosen, piano
Columbia Symphony Orchestra

[11] Anthem
The Festival Singers of Toronto
[12] Double Canon for String Quartet
Israel Baker and Otis Igleman - violins
Sanford Schonbach - viola
George Neikrug - cello

[13] Epitaphium
Arthur Gleghorh - flute
Kalman Bloch - clarinet
Dorothy Remsen - harp

[14] Elegy for J.F.K.
Cathy Berberian - mezzo-soprano
Paul Howland, Jack Kreiselmann, Charles Russo - clarinets

[15-17] A Sermon, a Narrative and a Prayer
Shirley Verret - mezzo-soprano
Loren Driscoll - tenor
John Horton - speaker
The CBC Symphony Orchestra

EAC

Exact Audio Copy V0.99 prebeta 5 from 4. May 2009
EAC extraction logfile from 31. January 2010, 5:20
Stravinsky, Igor (1882-1971) / Recent Stravinsky (Stravinsky)
Used drive : TEAC CD-W516EB Adapter: 2 ID: 0
Read mode : Secure
Utilize accurate stream : Yes
Defeat audio cache : Yes
Make use of C2 pointers : No
Read offset correction : 685
Overread into Lead-In and Lead-Out : No
Fill up missing offset samples with silence : Yes
Delete leading and trailing silent blocks : No
Null samples used in CRC calculations : No
Used interface : Installed external ASPI interface
Used output format : Internal WAV Routines
Sample format : 44.100 Hz; 16 Bit; Stereo
TOC of the extracted CD
Track | Start | Length | Start sector | End sector
---------------------------------------------------------
1 | 0:00.00 | 0:38.22 | 0 | 2871
2 | 0:38.22 | 2:36.40 | 2872 | 14611
3 | 3:14.62 | 3:20.63 | 14612 | 29674
4 | 6:35.50 | 4:36.45 | 29675 | 50419
5 | 11:12.20 | 3:55.15 | 50420 | 68059
6 | 15:07.35 | 1:56.72 | 68060 | 76831
7 | 17:04.32 | 1:34.25 | 76832 | 83906
8 | 18:38.57 | 1:07.13 | 83907 | 88944
9 | 19:45.70 | 1:36.32 | 88945 | 96176
10 | 21:22.27 | 2:05.70 | 96177 | 105621
11 | 23:28.22 | 3:41.70 | 105622 | 122266
12 | 27:10.17 | 1:24.28 | 122267 | 128594
13 | 28:34.45 | 1:12.40 | 128595 | 134034
14 | 29:47.10 | 1:55.35 | 134035 | 142694
15 | 31:42.45 | 4:01.05 | 142695 | 160774
16 | 35:43.50 | 7:28.42 | 160775 | 194416
17 | 43:12.17 | 3:47.43 | 194417 | 211484
Range status and errors
Selected range
Filename E:\stravinsky jacket collection\64192_recent stravinsky\cdimage.wav
Peak level 97.8 %
Range quality 100.0 %
Copy CRC A5713C3E
Copy OK
No errors occurred
AccurateRip summary
Track 1 accurately ripped (confidence 3) [B3DAFBF9]
Track 2 accurately ripped (confidence 3) [2D4DEEF7]
Track 3 accurately ripped (confidence 3) [4375492C]
Track 4 accurately ripped (confidence 3) [B0FDB0C1]
Track 5 accurately ripped (confidence 3) [15D80968]
Track 6 accurately ripped (confidence 3) [3F5462D3]
Track 7 accurately ripped (confidence 3) [ACCE09A9]
Track 8 accurately ripped (confidence 3) [27F7DD99]
Track 9 accurately ripped (confidence 3) [E0686723]
Track 10 accurately ripped (confidence 3) [F77ED5B2]
Track 11 accurately ripped (confidence 3) [5FB2F7D4]
Track 12 accurately ripped (confidence 3) [299BE9CD]
Track 13 accurately ripped (confidence 3) [19B1B22C]
Track 14 accurately ripped (confidence 3) [5E797B04]
Track 15 accurately ripped (confidence 3) [3780E029]
Track 16 accurately ripped (confidence 3) [C65EAEA4]
Track 17 accurately ripped (confidence 3) [B85313B8]
All tracks accurately ripped
End of status report

CD6 - L'Historie du Soldat suite, Pulcinella Suite

[1-9] L'Historie du Soldat suite
[10-20] Pulcinella Suite
Columbia Symphony Orchestra

EAC

Exact Audio Copy V0.99 prebeta 5 from 4. May 2009
EAC extraction logfile from 31. January 2010, 5:32
Igor Stravinsky - Columbia Chamber Ensemble - Columbia Symphony Orchestra / Stravinsky Conducts - Histoire du Soldat Suite - Pulcinella Suite
Used drive : TEAC CD-W516EB Adapter: 2 ID: 0
Read mode : Secure
Utilize accurate stream : Yes
Defeat audio cache : Yes
Make use of C2 pointers : No
Read offset correction : 685
Overread into Lead-In and Lead-Out : No
Fill up missing offset samples with silence : Yes
Delete leading and trailing silent blocks : No
Null samples used in CRC calculations : No
Used interface : Installed external ASPI interface
Used output format : Internal WAV Routines
Sample format : 44.100 Hz; 16 Bit; Stereo
TOC of the extracted CD
Track | Start | Length | Start sector | End sector
---------------------------------------------------------
1 | 0:00.00 | 1:39.00 | 0 | 7424
2 | 1:39.00 | 2:28.02 | 7425 | 18526
3 | 4:07.02 | 2:36.00 | 18527 | 30226
4 | 6:43.02 | 2:38.00 | 30227 | 42076
5 | 9:21.02 | 2:58.35 | 42077 | 55461
6 | 12:19.37 | 5:50.53 | 55462 | 81764
7 | 18:10.15 | 1:24.20 | 81765 | 88084
8 | 19:34.35 | 2:28.55 | 88085 | 99239
9 | 22:03.15 | 2:17.70 | 99240 | 109584
10 | 24:21.10 | 1:56.40 | 109585 | 118324
11 | 26:17.50 | 3:04.42 | 118325 | 132166
12 | 29:22.17 | 1:45.53 | 132167 | 140094
13 | 31:07.70 | 1:02.27 | 140095 | 144771
14 | 32:10.22 | 1:17.23 | 144772 | 150569
15 | 33:27.45 | 1:13.42 | 150570 | 156086
16 | 34:41.12 | 0:55.58 | 156087 | 160269
17 | 35:36.70 | 4:16.72 | 160270 | 179541
18 | 39:53.67 | 1:37.65 | 179542 | 186881
19 | 41:31.57 | 2:07.13 | 186882 | 196419
20 | 43:38.70 | 2:07.05 | 196420 | 205949
Range status and errors
Selected range
Filename E:\stravinsky jacket collection\89026_histoire du soldat\cdimage.wav
Peak level 99.8 %
Range quality 100.0 %
Copy CRC 434D91D3
Copy OK
No errors occurred
AccurateRip summary
Track 1 accurately ripped (confidence 3) [7161924D]
Track 2 accurately ripped (confidence 3) [C49BAD12]
Track 3 accurately ripped (confidence 3) [1C1296AA]
Track 4 accurately ripped (confidence 3) [064C9033]
Track 5 accurately ripped (confidence 3) [2D6D9DE5]
Track 6 accurately ripped (confidence 3) [BFC06DF9]
Track 7 accurately ripped (confidence 3) [3ABED9E5]
Track 8 accurately ripped (confidence 3) [370F072F]
Track 9 accurately ripped (confidence 3) [7A14FF5D]
Track 10 accurately ripped (confidence 3) [9CFB64F3]
Track 11 accurately ripped (confidence 3) [3CC46584]
Track 12 accurately ripped (confidence 3) [3A674D64]
Track 13 accurately ripped (confidence 3) [EC88A6AE]
Track 14 accurately ripped (confidence 3) [3A140DD2]
Track 15 accurately ripped (confidence 3) [3299CA63]
Track 16 accurately ripped (confidence 3) [664ACA00]
Track 17 accurately ripped (confidence 3) [28E011F9]
Track 18 accurately ripped (confidence 3) [A105D412]
Track 19 accurately ripped (confidence 3) [BB801B72]
Track 20 accurately ripped (confidence 3) [24ED30B7]
All tracks accurately ripped
End of status report

CD7 - Chamber and Jazz Works

[1] Rraeludium for Jazz Ensemble
The Columbia Jazz Combo
[2] Pastorale
The Columbia Chamber Ensemble
[3] Ragtime for 11 Instruments
The Columbia Chamber Ensemble
[4-6] Octet for Winds
The Columbia Chamber Ensemble
[7] Tango
The Columbia Jazz Combo
[8] Concertino for 12 Instruments
The Columbia Chamber Ensemble
[9-11] Ebony Concerto
The Columbia Jazz Combo
Benny Goodman - clarinet

EAC

Exact Audio Copy V0.99 prebeta 5 from 4. May 2009
EAC extraction logfile from 31. January 2010, 4:46
Igor Stravinsky | The Columbia Jazz Combo; The Columbia Chamber Ensemble; / Stravinsky conducts music for chamber and jazz ensembles
Used drive : TEAC CD-W516EB Adapter: 2 ID: 0
Read mode : Secure
Utilize accurate stream : Yes
Defeat audio cache : Yes
Make use of C2 pointers : No
Read offset correction : 685
Overread into Lead-In and Lead-Out : No
Fill up missing offset samples with silence : Yes
Delete leading and trailing silent blocks : No
Null samples used in CRC calculations : No
Used interface : Installed external ASPI interface
Used output format : Internal WAV Routines
Sample format : 44.100 Hz; 16 Bit; Stereo
TOC of the extracted CD
Track | Start | Length | Start sector | End sector
---------------------------------------------------------
1 | 0:00.00 | 1:31.15 | 0 | 6839
2 | 1:31.15 | 2:54.70 | 6840 | 19959
3 | 4:26.10 | 4:41.27 | 19960 | 41061
4 | 9:07.37 | 3:57.48 | 41062 | 58884
5 | 13:05.10 | 7:12.40 | 58885 | 91324
6 | 20:17.50 | 3:33.17 | 91325 | 107316
7 | 23:50.67 | 4:08.63 | 107317 | 125979
8 | 27:59.55 | 6:24.25 | 125980 | 154804
9 | 34:24.05 | 3:02.17 | 154805 | 168471
10 | 37:26.22 | 2:35.63 | 168472 | 180159
11 | 40:02.10 | 3:42.60 | 180160 | 196869
Range status and errors
Selected range
Filename E:\stravinsky jacket collection\64149_chamber and jazz music\cdimage.wav
Peak level 97.7 %
Range quality 100.0 %
Copy CRC 53AF2FA6
Copy OK
No errors occurred
AccurateRip summary
Track 1 accurately ripped (confidence 4) [C965C679]
Track 2 accurately ripped (confidence 4) [881153AD]
Track 3 accurately ripped (confidence 4) [5130E5C0]
Track 4 accurately ripped (confidence 4) [FD5B5824]
Track 5 accurately ripped (confidence 4) [47962041]
Track 6 accurately ripped (confidence 4) [3D1EEC2F]
Track 7 accurately ripped (confidence 4) [125528DD]
Track 8 accurately ripped (confidence 4) [08384797]
Track 9 accurately ripped (confidence 4) [D63634DC]
Track 10 accurately ripped (confidence 4) [CB3B3209]
Track 11 accurately ripped (confidence 4) [86AD5FD7]
All tracks accurately ripped
End of status report

CD8 - Choral Music

[1] The Star-Spangled Banner
The CBC Symphony Orchestra
Toronto Festival Singers

[2-5] Four Russian Songs
Adrienne Albert - mezzo-soprano
[6-9] Four Russian Peasant Songs
The Gregg Smith SIngers
[10] Renard
The Columbia Chamber Ensemble
[11] Zvezdolikiy
The CBC Symphony Orchestra
Toronto Festival Singers

[12] Babel
[13] Ave Maria
Toronto Festival Singers
[14] Credo
The Gregg Smith SIngers
[15] Pater Noster
Toronto Festival Singers
[16-21] Chorale and Variations on Bach's "Von Himmel Hoch..."
The CBC Symphony Orchestra
Toronto Festival Singers

EAC

Exact Audio Copy V0.99 prebeta 5 from 4. May 2009
EAC extraction logfile from 31. January 2010, 16:32
Igor Stravinsky - various artists / Stravinsky Conducts - Choral Music
Used drive : TEAC CD-W516EB Adapter: 2 ID: 0
Read mode : Secure
Utilize accurate stream : Yes
Defeat audio cache : Yes
Make use of C2 pointers : No
Read offset correction : 685
Overread into Lead-In and Lead-Out : No
Fill up missing offset samples with silence : Yes
Delete leading and trailing silent blocks : No
Null samples used in CRC calculations : No
Used interface : Installed external ASPI interface
Used output format : Internal WAV Routines
Sample format : 44.100 Hz; 16 Bit; Stereo
TOC of the extracted CD
Track | Start | Length | Start sector | End sector
---------------------------------------------------------
1 | 0:00.00 | 1:27.12 | 0 | 6536
2 | 1:27.12 | 1:17.00 | 6537 | 12311
3 | 2:44.12 | 1:44.50 | 12312 | 20161
4 | 4:28.62 | 0:35.35 | 20162 | 22821
5 | 5:04.22 | 1:08.13 | 22822 | 27934
6 | 6:12.35 | 1:21.62 | 27935 | 34071
7 | 7:34.22 | 0:44.45 | 34072 | 37416
8 | 8:18.67 | 0:57.70 | 37417 | 41761
9 | 9:16.62 | 1:09.43 | 41762 | 46979
10 | 10:26.30 | 15:34.52 | 46980 | 117081
11 | 26:01.07 | 4:20.28 | 117082 | 136609
12 | 30:21.35 | 5:17.17 | 136610 | 160401
13 | 35:38.52 | 1:25.63 | 160402 | 166839
14 | 37:04.40 | 2:42.72 | 166840 | 179061
15 | 39:47.37 | 1:47.50 | 179062 | 187136
16 | 41:35.12 | 0:40.38 | 187137 | 190174
17 | 42:15.50 | 1:17.17 | 190175 | 195966
18 | 43:32.67 | 1:10.35 | 195967 | 201251
19 | 44:43.27 | 2:17.23 | 201252 | 211549
20 | 47:00.50 | 2:33.55 | 211550 | 223079
21 | 49:34.30 | 2:42.45 | 223080 | 235274
Range status and errors
Selected range
Filename E:\stravinsky jacket collection\64150_choral music\cdimage.wav
Peak level 99.8 %
Range quality 100.0 %
Copy CRC F12700C4
Copy OK
No errors occurred
AccurateRip summary
Track 1 accurately ripped (confidence 3) [184FA96C]
Track 2 accurately ripped (confidence 3) [43FC1730]
Track 3 accurately ripped (confidence 3) [7C66714F]
Track 4 accurately ripped (confidence 3) [9F831506]
Track 5 accurately ripped (confidence 3) [FFC7EACC]
Track 6 accurately ripped (confidence 3) [F257FF1D]
Track 7 accurately ripped (confidence 3) [66ABE8D7]
Track 8 accurately ripped (confidence 3) [95C762F4]
Track 9 accurately ripped (confidence 3) [7D91F82E]
Track 10 accurately ripped (confidence 3) [4D901933]
Track 11 accurately ripped (confidence 3) [6BD5CC16]
Track 12 accurately ripped (confidence 3) [0605BF27]
Track 13 accurately ripped (confidence 3) [9D2A65B7]
Track 14 accurately ripped (confidence 3) [ABA19647]
Track 15 accurately ripped (confidence 3) [33318BED]
Track 16 accurately ripped (confidence 3) [CFA98BF6]
Track 17 accurately ripped (confidence 3) [2CB9A3BA]
Track 18 accurately ripped (confidence 3) [D15EDE03]
Track 19 accurately ripped (confidence 3) [0C791605]
Track 20 accurately ripped (confidence 3) [653768A1]
Track 21 accurately ripped (confidence 3) [7B054E74]
All tracks accurately ripped
End of status report

CD9 - Meet the Composer

[1] Fireworks
[2-4] Ode
[5-8] Four Norvegian Moods
[9] Circus Polka
Philharmonia Symphony Orchestra of New-York
[10-12] Ebony Concerto
The Woody Herman Orchestra
[13] Russian Maiden's Song
Joseph Szigeti - violin

EAC

Exact Audio Copy V0.99 prebeta 5 from 4. May 2009
EAC extraction logfile from 31. January 2010, 16:19
Igor Stravinsky - various artists / Stravinsky Conducts - Meet the Composer
Used drive : TEAC CD-W516EB Adapter: 2 ID: 0
Read mode : Secure
Utilize accurate stream : Yes
Defeat audio cache : Yes
Make use of C2 pointers : No
Read offset correction : 685
Overread into Lead-In and Lead-Out : No
Fill up missing offset samples with silence : Yes
Delete leading and trailing silent blocks : No
Null samples used in CRC calculations : No
Used interface : Installed external ASPI interface
Used output format : Internal WAV Routines
Sample format : 44.100 Hz; 16 Bit; Stereo
TOC of the extracted CD
Track | Start | Length | Start sector | End sector
---------------------------------------------------------
1 | 0:00.00 | 4:00.30 | 0 | 18029
2 | 4:00.30 | 4:13.07 | 18030 | 37011
3 | 8:13.37 | 2:55.40 | 37012 | 50176
4 | 11:09.02 | 3:37.73 | 50177 | 66524
5 | 14:47.00 | 2:23.05 | 66525 | 77254
6 | 17:10.05 | 2:13.00 | 77255 | 87229
7 | 19:23.05 | 1:07.15 | 87230 | 92269
8 | 20:30.20 | 2:25.05 | 92270 | 103149
9 | 22:55.25 | 3:34.15 | 103150 | 119214
10 | 26:29.40 | 3:02.42 | 119215 | 132906
11 | 29:32.07 | 2:10.10 | 132907 | 142666
12 | 31:42.17 | 3:26.08 | 142667 | 158124
13 | 35:08.25 | 4:27.07 | 158125 | 178156
Range status and errors
Selected range
Filename E:\stravinsky jacket collection\64196_meet the composer\cdimage.wav
Peak level 98.5 %
Range quality 100.0 %
Copy CRC D1FDDBB4
Copy OK
No errors occurred
AccurateRip summary
Track 1 accurately ripped (confidence 3) [64A4FC61]
Track 2 accurately ripped (confidence 3) [406BA302]
Track 3 accurately ripped (confidence 3) [D5A36B53]
Track 4 accurately ripped (confidence 3) [C6869584]
Track 5 accurately ripped (confidence 3) [91F4D291]
Track 6 accurately ripped (confidence 3) [C13BCD6A]
Track 7 accurately ripped (confidence 3) [774BD0CA]
Track 8 accurately ripped (confidence 3) [5BBE9550]
Track 9 accurately ripped (confidence 3) [CB5142F2]
Track 10 accurately ripped (confidence 3) [1C581081]
Track 11 accurately ripped (confidence 3) [546CC899]
Track 12 accurately ripped (confidence 3) [20558278]
Track 13 accurately ripped (confidence 3) [AD3E655B]
All tracks accurately ripped
End of status report
[teatrix.ru].t9774.torrent 
Торрент: Зарегистрирован [ 2015-10-23 17:26 ] · 478DCFAD23981537FEB201B17F4350C791B5A514

Скачать .torrent

Скачать

20 KB

Статус: проверено
Скачан: 0 раз
Размер: 1.73 GB
terms.php



Быстрый ответ

Имя:

      
Для отправки сообщений необходимо включить JavaScript
Показать сообщения:    

Текущее время: 04-Дек 13:18

Часовой пояс: UTC + 3


Вы можете начинать темы
Вы можете отвечать на сообщения
Вы не можете редактировать свои сообщения
Вы не можете удалять свои сообщения
Вы не можете голосовать в опросах
Вы не можете прикреплять файлы к сообщениям
Вы можете скачивать файлы