(Classical, piano) Emil Gilels Recitals of 1962-1970/ Эмиль Гилельс Концерты 1962-70 г.г. (5CD) - 2004, APE (image+.cue), lossless


Статистика раздачи [Обновить пиров]
Размер:  1.54 GB   |    Зарегистрирован:  1 год 1 месяц   |    Скачан:  0 раз

Полного источника не было: Никогда

Личеров:  2  [  0 KB/s  ]   Подробная статистика пиров
 
   
 
 
 

[Цитировать]

Emil Gilels Recitals of 1962-1970/ Эмиль Гилельс Концерты 1962-70 г.г. (5CD)
Жанр: Classical, piano
Год выпуска диска: 2004
Производитель диска: "Мелодия"
Аудио кодек: APE
Тип рипа: image+.cue
Битрейт аудио: lossless
Продолжительность: 63'28+66'12+68'53+77'36+74'07
Трэклист:
Emil Gilels Recitals of 1962-1970/ Эмиль Гилельс Концерты 1962-70 г.г.
Эмиль Гилельс, фортепиано
Симфонический оркестр Московской государственной филармонии
Дирижер Кирилл Кондрашин

CD1

Фредерик Шопен
Концерт №1 для фортепиано с оркестром, соч.11
1. 1. Allegretto Maestoso
2. 2. Romance. Larghetto
3. 3. Rondo. Vivace
Франсис Пуленк
Концерт для фортепиано с оркестром ре мажор «Пасторальный» (1928г.)
4. 1. Adagio - Allegro Molto
5. 2. Andante
6. 3. Finale. Presto Tres Gai
Эмиль Гилельс, фортепиано
Симфонический оркестр Московской государственной филармонии
Дирижер Кирилл Кондрашин
Запись с концерта в Большом зале Московской консерватории, 12 октября 1962г.

CD2

Франц Шуберт (1797-1828)
Музыкальные моменты, D.780
1. No. 1 до мажор
2. No. 2 ля-бемоль мажор
3. No. 3 фа минор
4. No. 4 до-диез минор
5. No. 5 фа минор
6. No. 6 ля-бемоль мажор
Дмитрий Шостакович (1906-1975)
Соната №2 для фортепиано си минор, соч.64
7. 1. Allegretto
8. 2. Largo
9. 3. Moderato (Con Moto) - Allegretto Con Moto - Adagio – Moderato
Роберт Шуман (1810-1856)
10. Арабеска до мажор, соч.18
Фредерик Шопен (1810-1849)
11. Баллада №1 соль минор, соч.23

CD3

Иоганн Себастьян Бах (1685-1750)
1. Прелюдия и фуга ре мажор для органа, BWV 532
Людвиг ван Бетховен (1770-1827)
2. 32 вариации на оригинальную тему до минор, WoO.80
Карл Мария фон Вебер (1786-1826)
Соната №2 для фортепиано ля-бемоль мажор, соч.39
3. Allegro Moderato Con Spirito Ed Assai Legato
4. Andante
5. Presto Assai
6. Rondo. Moderato E Molto Grazioso
Франц Лист (1811-1886)
7. Испанская рапсодия
Сергей Прокофьев (1891-1953)
Мимолетности, соч.22
8. No.1 Lentamente
9. No.3 Allegretto
10. No.5 Molto Giocoso
11. No.11 Con Vivacita

CD4

Людвиг Ван Бетховен (1770-1827)
Соната для фортепиано №8 до минор, соч.13 «Патетическая»
1. 1. Grave - Allegro Di Molto E Con Brio
2. 2. Adagio Cantabile
3. 3. Rondo. Allegro
Людвиг ван Бетховен (1770-1827)
Соната для фортепиано №14 до-диез минор, соч. 27 №2 "Лунная"
4. 1. Adagio Sostenuto
5. 2. Allegretto
6. 3. Presto Agatato
Франц Шуберт (1797-1828)
7. Экспромт фа минор, D.935 №1 (соч.142)
Морис Равель (1875-1937)
8. Павана почившей инфанте
9. Игра воды
Николай Метнер (1880-1951)
Соната-воспоминание ля минор, соч.38 №1
10. Allegretto Tranquillo (Andantino Con Moto) - Svegliando - Tempo I
Фредерик Шопен (1810-1849)
11. Этюд ля-бемоль минор, соч. посм.
12. Этюд фа минор, соч.25 №2
Сергей Прокофьев (1891-1953)
Скерцо и марш из оперы "Любовь к трем апельсинам", соч.33-ter
13. №2. Скерцо
14. №1. Марш

CD5

Вольфганг Амадей Моцарт (1756-1791)
Соната для фортепиано си-бемоль мажор, K.281
1. 1. Allegro
2. 2. Andante Amoroso
3. 3. Rondo. Allegro
4. 6 вариаций фа мажор на тему "Salve tu, Domine" из оперы Паизиелло "Мнимые философы", K.398
5. 10 вариаций соль мажор на тему "Unser dummer Pobel meint" из оперы Глюка "Паломники в Мекку", K.455
6. Фантазия ре минор, K.397
Соната для фортепиано ля минор, К.310
7. 1. Allegro Maestoso
8. 2. Andante Cantabile Con Espressione
9. 3. Presto
Доп. информация:
материал данного бокса на 4/5 совпадает с содержанием релиза http://rutracker.org/forum/viewtopic.php?t=352912
однако во 1-х это разные издания (в 1 оч по оформлению, вряд ли по звуку - не вслушивался) а во 2-х все таки по 1 отличному диску в каждой раздаче присутствует: так что как качать и компоновать если нужно решать каждому самому

отчет EAC CD1

Exact Audio Copy V0.99 prebeta 4 from 23. January 2008
Отчёт EAC об извлечении, выполненном 26. марта 2010, 9:12
Emil Gilels / 62-70-CD1
Дисковод: _NEC DVD_RW ND-4550A Adapter: 3 ID: 0
Режим чтения : Достоверность
Использование точного потока : Да
Отключение кэша аудио : Да
Использование указателей C2 : Нет
Коррекция смещения при чтении : 48
Способность читать области Lead-in и Lead-out : Нет
Заполнение пропущенных сэмплов тишиной : Да
Удаление блоков с тишиной в начале и конце : Нет
При вычислениях CRC использовались нулевые сэмплы : Да
Интерфейс : Встроенный Win32-интерфейс для Win NT/2000
Выходной формат : Внутренние WAV-операции
Формат сэмплов : 44.100 Гц; 16 бит; стерео
TOC извлечённого CD
Трек | Старт | Длительность | Начальный сектор | Конечный сектор
---------------------------------------------------------------------
1 | 0:00.37 | 20:02.67 | 37 | 90253
2 | 20:03.29 | 9:57.35 | 90254 | 135063
3 | 30:00.64 | 9:50.30 | 135064 | 179343
4 | 39:51.19 | 10:26.63 | 179344 | 226356
5 | 50:18.07 | 6:10.07 | 226357 | 254113
6 | 56:28.14 | 7:00.48 | 254114 | 285661
Характеристики диапазона извлечения и сообщения об ошибках
Выбранный диапазон
Имя файла C:\Documents and Settings\Директор\Мои документы\Моя музыка\Emil Gilels - 62-70-CD1.wav
Пиковый уровень 100.0 %
Качество диапазона 100.0 %
CRC копии E616954F
Копирование... OK
Ошибок не произошло
Конец отчёта

отчет EAC CD2

Exact Audio Copy V0.99 prebeta 4 from 23. January 2008
Отчёт EAC об извлечении, выполненном 26. марта 2010, 9:36
Emil Gilels / 62-70-CD2
Дисковод: _NEC DVD_RW ND-4550A Adapter: 3 ID: 0
Режим чтения : Достоверность
Использование точного потока : Да
Отключение кэша аудио : Да
Использование указателей C2 : Нет
Коррекция смещения при чтении : 48
Способность читать области Lead-in и Lead-out : Нет
Заполнение пропущенных сэмплов тишиной : Да
Удаление блоков с тишиной в начале и конце : Нет
При вычислениях CRC использовались нулевые сэмплы : Да
Интерфейс : Встроенный Win32-интерфейс для Win NT/2000
Выходной формат : Внутренние WAV-операции
Формат сэмплов : 44.100 Гц; 16 бит; стерео
TOC извлечённого CD
Трек | Старт | Длительность | Начальный сектор | Конечный сектор
---------------------------------------------------------------------
1 | 0:00.37 | 4:42.68 | 37 | 21254
2 | 4:43.30 | 6:19.10 | 21255 | 49689
3 | 11:02.40 | 1:50.10 | 49690 | 57949
4 | 12:52.50 | 4:14.42 | 57950 | 77041
5 | 17:07.17 | 1:45.28 | 77042 | 84944
6 | 18:52.45 | 7:02.05 | 84945 | 116599
7 | 25:54.50 | 6:48.25 | 116600 | 147224
8 | 32:43.00 | 6:21.37 | 147225 | 175836
9 | 39:04.37 | 12:12.63 | 175837 | 230799
10 | 51:17.25 | 6:43.37 | 230800 | 261061
11 | 58:00.62 | 8:12.13 | 261062 | 297974
Характеристики диапазона извлечения и сообщения об ошибках
Выбранный диапазон
Имя файла C:\Documents and Settings\Директор\Мои документы\Моя музыка\Emil Gilels - 62-70-CD2.wav
Пиковый уровень 100.0 %
Качество диапазона 100.0 %
CRC копии 0359D544
Копирование... OK
Ошибок не произошло
Конец отчёта

отчет EAC CD3

Exact Audio Copy V0.99 prebeta 4 from 23. January 2008
Отчёт EAC об извлечении, выполненном 26. марта 2010, 9:58
Emil Gilels / 62-70-CD3
Дисковод: _NEC DVD_RW ND-4550A Adapter: 3 ID: 0
Режим чтения : Достоверность
Использование точного потока : Да
Отключение кэша аудио : Да
Использование указателей C2 : Нет
Коррекция смещения при чтении : 48
Способность читать области Lead-in и Lead-out : Нет
Заполнение пропущенных сэмплов тишиной : Да
Удаление блоков с тишиной в начале и конце : Нет
При вычислениях CRC использовались нулевые сэмплы : Да
Интерфейс : Встроенный Win32-интерфейс для Win NT/2000
Выходной формат : Внутренние WAV-операции
Формат сэмплов : 44.100 Гц; 16 бит; стерео
TOC извлечённого CD
Трек | Старт | Длительность | Начальный сектор | Конечный сектор
---------------------------------------------------------------------
1 | 0:00.37 | 12:59.58 | 37 | 58519
2 | 13:00.20 | 10:51.72 | 58520 | 107416
3 | 23:52.17 | 12:20.50 | 107417 | 162966
4 | 36:12.67 | 6:26.58 | 162967 | 191974
5 | 42:39.50 | 3:39.67 | 191975 | 208466
6 | 46:19.42 | 6:12.30 | 208467 | 236396
7 | 52:31.72 | 12:52.60 | 236397 | 294356
8 | 65:24.57 | 1:02.60 | 294357 | 299066
9 | 66:27.42 | 0:48.10 | 299067 | 302676
10 | 67:15.52 | 0:21.08 | 302677 | 304259
11 | 67:36.60 | 1:17.02 | 304260 | 310036
Характеристики диапазона извлечения и сообщения об ошибках
Выбранный диапазон
Имя файла C:\Documents and Settings\Директор\Мои документы\Моя музыка\Emil Gilels - 62-70-CD3.wav
Пиковый уровень 95.1 %
Качество диапазона 100.0 %
CRC копии 9C997578
Копирование... OK
Ошибок не произошло
Конец отчёта

отчет EAC CD4

Exact Audio Copy V0.99 prebeta 4 from 23. January 2008
Отчёт EAC об извлечении, выполненном 26. марта 2010, 10:23
Emil Gilels / 62-70-CD4
Дисковод: _NEC DVD_RW ND-4550A Adapter: 3 ID: 0
Режим чтения : Достоверность
Использование точного потока : Да
Отключение кэша аудио : Да
Использование указателей C2 : Нет
Коррекция смещения при чтении : 48
Способность читать области Lead-in и Lead-out : Нет
Заполнение пропущенных сэмплов тишиной : Да
Удаление блоков с тишиной в начале и конце : Нет
При вычислениях CRC использовались нулевые сэмплы : Да
Интерфейс : Встроенный Win32-интерфейс для Win NT/2000
Выходной формат : Внутренние WAV-операции
Формат сэмплов : 44.100 Гц; 16 бит; стерео
TOC извлечённого CD
Трек | Старт | Длительность | Начальный сектор | Конечный сектор
---------------------------------------------------------------------
1 | 0:00.37 | 8:27.18 | 37 | 38079
2 | 8:27.55 | 5:43.72 | 38080 | 63876
3 | 14:11.52 | 4:57.65 | 63877 | 86216
4 | 19:09.42 | 7:12.13 | 86217 | 118629
5 | 26:21.55 | 2:39.65 | 118630 | 130619
6 | 29:01.45 | 6:57.67 | 130620 | 161961
7 | 35:59.37 | 9:55.08 | 161962 | 206594
8 | 45:54.45 | 6:26.55 | 206595 | 235599
9 | 52:21.25 | 5:26.52 | 235600 | 260101
10 | 57:48.02 | 13:20.43 | 260102 | 320144
11 | 71:08.45 | 1:58.62 | 320145 | 329056
12 | 73:07.32 | 1:22.58 | 329057 | 335264
13 | 74:30.15 | 1:19.57 | 335265 | 341246
14 | 75:49.72 | 1:47.15 | 341247 | 349286
Характеристики диапазона извлечения и сообщения об ошибках
Выбранный диапазон
Имя файла C:\Documents and Settings\Директор\Мои документы\Моя музыка\Emil Gilels - 62-70-CD4.wav
Пиковый уровень 100.0 %
Качество диапазона 100.0 %
CRC копии 249D4F9C
Копирование... OK
Ошибок не произошло
Конец отчёта

отчет EAC CD5

Exact Audio Copy V0.99 prebeta 4 from 23. January 2008
Отчёт EAC об извлечении, выполненном 26. марта 2010, 11:07
Emil Gilels / 62-70-CD5
Дисковод: _NEC DVD_RW ND-4550A Adapter: 3 ID: 0
Режим чтения : Достоверность
Использование точного потока : Да
Отключение кэша аудио : Да
Использование указателей C2 : Нет
Коррекция смещения при чтении : 48
Способность читать области Lead-in и Lead-out : Нет
Заполнение пропущенных сэмплов тишиной : Да
Удаление блоков с тишиной в начале и конце : Нет
При вычислениях CRC использовались нулевые сэмплы : Да
Интерфейс : Встроенный Win32-интерфейс для Win NT/2000
Выходной формат : Внутренние WAV-операции
Формат сэмплов : 44.100 Гц; 16 бит; стерео
TOC извлечённого CD
Трек | Старт | Длительность | Начальный сектор | Конечный сектор
---------------------------------------------------------------------
1 | 0:00.37 | 7:55.67 | 37 | 35728
2 | 7:56.29 | 8:16.50 | 35729 | 72978
3 | 16:13.04 | 5:01.58 | 72979 | 95611
4 | 21:14.62 | 8:37.35 | 95612 | 134421
5 | 29:52.22 | 14:36.20 | 134422 | 200141
6 | 44:28.42 | 6:25.67 | 200142 | 229083
7 | 50:54.34 | 8:56.53 | 229084 | 269336
8 | 59:51.12 | 10:58.25 | 269337 | 318711
9 | 70:49.37 | 3:18.00 | 318712 | 333561
Характеристики диапазона извлечения и сообщения об ошибках
Выбранный диапазон
Имя файла C:\Documents and Settings\Директор\Мои документы\Моя музыка\Emil Gilels - 62-70-CD5.wav
Пиковый уровень 100.0 %
Качество диапазона 100.0 %
CRC копии 4D7328CF
Копирование... OK
Ошибок не произошло
Конец отчёта
[teatrix.ru].t9776.torrent 
Торрент: Зарегистрирован [ 2015-10-23 17:26 ] · FBA809EA470BA1CBA09828107A9B5314789C89A1

Скачать .torrent

Скачать

35 KB

Статус: проверено
Скачан: 0 раз
Размер: 1.54 GB
terms.php



Быстрый ответ

Имя:

      
Для отправки сообщений необходимо включить JavaScript
Показать сообщения:    

Текущее время: 11-Дек 09:10

Часовой пояс: UTC + 3


Вы можете начинать темы
Вы можете отвечать на сообщения
Вы не можете редактировать свои сообщения
Вы не можете удалять свои сообщения
Вы не можете голосовать в опросах
Вы не можете прикреплять файлы к сообщениям
Вы можете скачивать файлы