(concerto / symphony) Concerto Koln plays works by Dall`Abaco, Locatelli, Vanhal, Kozeluch, Cannabich, Stamitz and Eberl – 6 CD - 2007, FLAC (image+.cue), lossless


Статистика раздачи [Обновить пиров]
Размер:  2.21 GB   |    Зарегистрирован:  1 год 1 месяц   |    Скачан:  0 раз

Полного источника не было: Никогда

Личеров:  2  [  0 KB/s  ]   Подробная статистика пиров
 
   
 
 
 

[Цитировать]

Concerto Koln plays works by Dall`Abaco, Locatelli, Vanhal, Kozeluch, Cannabich, Stamitz and Eberl
Жанр: concerto / symphony
Год выпуска диска: 2007
Производитель диска: Teldec Classics
Аудио кодек: FLAC
Тип рипа: image+.cue
Битрейт аудио: lossless
Продолжительность: CD 1- 78:14, CD 2- 73:04, CD 3- 66:49, CD 4- 73:19, CD 5- 74:45, CD 6- 77:55
Трэклист:

скрытый текст

CD 1
Evaristo Felice Dall`Abaco (1675-1742)
Concerto a quattro da chiesa d-moll Op.2 N.1
1. Largo 2:23
2. Allegro 1:13
3. Andante 1:50
4. Allegro assai 2:26
Concerto a quattro da chiesa a-moll Op.2 N.4
5. Aria – Allegro 2:00
6. Largo 2:54
7. Presto 2:18
Concerto a quattro da chiesa g-moll Op.2 N.5
8. Largo 1:56
9. Allegro spiritoso 1:10
10. Grave 1:28
11. Allegro 1:24
Concerto a quattro da chiesa C-Dur Op.2 N.7
12. Largo andante 2:01
13. Allegro – Adagio 1:22
14. Presto 1:00
Concerto a piu istrumenti e-moll Op.5 N.3
15. Largo 2:35
16. Adagio cantabile 2:19
17. Presto assai – Adagio – Prestissimo – Adagio 1:50
18. Largo 1:59
19. Primo Passepied – Secondo passepied 2:06
Concerto a piu istrumenti C-Dur Op.5 N.5
20. Allegro 4:46
21. Grave 2:43
22. Allegro assai 2:47
23. Rondeau – Allegro 1:34
Concerto a piu istrumenti D-Dur Op.5 N.6
24. Allegro 3:11
25. Aria – Cantabile 1:45
26. Ciaccona: Allegro e spiccato 2:22
27. Rondeau – Allegro 0:44
28. Allegro 3:23
Concerto a piu istrumenti G-Dur Op.6 N.5
29. Allegro e vivace assai 3:21
30. Aria – Adagio cantabile 2:43
31. Allegro 1:37
Concerto a piu istrumenti E-Dur Op.6 N.11
32. Allegro 4:05
33. Aria – Cantabile 3:40
34. Allegro e spiritoso 2:30
CD 2
Pietro Antonio Locatelli (1695-1764)
Concerto grosso Es-Dur Op.7 N.6 “Il Pianto d`Arianna”
1. Andante – Allegro – Adagio – Andante – Allegro 4:27
2. Largo 2:39
3. Largo andante 4:02
4. Grave 3:04
5. Allegro 0:41
6. Largo 2:56
Andrea Keller – solo violin
Concerto grosso B-Dur Op.1 N.3
7. Largo 2:57
8. Allegro 1:56
9. Largo – Allegro 2:12
10. Vivace 3:08
11. Allegro 2:31
Concertino: Sylvie Kraus – violin I, Jorg Buschhaus – violin II, Claudia Steeb – viola, Nina Diehl – cello, Joachim Held – lute, Gerald Hambitzer – harpsichord
Concerto grosso F-Dur Op.7 N.4
12. Andante 6:05
13. Largo 2:44
14. Cantabile 4:56
15. Allegro molto 2:03
Concertino: Werner Ehrhardt – violin I, Andrea Keller – violin II, Antje Sabinski – viola, Werner Matzke – cello, Gerald Hambitzer – harpsichord
Concerto grosso g-moll Op.1 N.12
16. Largo 2:24
17. Allemanda – Allegro 1:40
18. Sarabanda – Vivace 2:14
19. Presto 1:23
20. Gavotta – Allegro 2:21
Concertino: Sylvie Kraus – violin I, Jorg Buschhaus – violin II, Claudia Steeb – viola, Nina Diehl – cello, Joachim Held – lute, Gerald Hambitzer – harpsichord
Concerto grosso Es-Dur Op.4 N.10
21. Adagio 5:37
22. Allegro 2:39
23. Minuetto 8:06
Concertino: Werner Ehrhardt – violin I, Andrea Keller – violin II, Antje Sabinski – viola, Werner Matzke – cello, Gerald Hambitzer – harpsichord
CD 3
Mannheim: The Golden Age
Christian Cannabich (1731-1798)
Sinfonia Es-Dur
1. Allegro 4:05
2. Andante 3:10
3. Presto 2:22
Carl Stamitz (1745-1801)
Cello concerto C-Dur N.4
4. Allegro moderato 7:25
5. Andante grazioso 4:49
6. Rondeau – Allegretto 4:04
Werner Matzke – cello
Anton Fils (1733-1760)
Sinfonia g-moll
7. Allegro 2:58
8. Andante 3:43
9. Menuet 2:57
10. Allegro assai 5:35
Johann Stamitz (1717-1757)
Sinfonia G-Dur
11. Allegro 2:43
12. Andante sempre piano 1:54
13. Da capo Allegro 2:44
14. Menuetto 1:52
15. Presto 2:32
Ignaz Franzl (1736-1811)
Sinfonia C-Dur N.5
16. Allegro vivace 5:29
17. Andante 5:03
18. Presto 2:54
CD 4
Johann Baptist Vanhal (1739-1813)
Symphony d-moll
1. Allegro 3:40
2. Arioso ma non lento 3:47
3. Menuetto 3:00
4. Presto 3:53
Symphony g-moll
5. Allegro moderato 3:57
6. Andante cantabile 5:10
7. Menuetto 2:52
8. Finale: Allegro 3:23
Symphony C-Dur “Sinfonia comista”
9. Allegro con brio (La speranza) 4:02
10. Andante cantabile (Il sospirare e languire) 4:54
11. Finale: Adagio piu andante (La lamentazione) – Allegro (L`allegrezza) 3:07
Symphony a-moll
12. Allegro moderato 4:40
13. Andante cantabile 3:01
14. Menuetto 2:30
15. Allegro 5:48
Symphony e-moll
16. Allegro moderato 3:39
17. Andante 4:12
18. Menuetto 2:55
19. Finale:Allegro 4:11
CD 5
Leopold Kozeluch (1747-1818)
Symphony C-Dur
1. Poco adagio – Allegro 7:41
2. Poco adagio 5:35
3. Menuetto – Vivace 2:55
4. Presto con fuoco 4:16
Symphony A-Dur “A la francaise”
5. Allegro molto 5:51
6. Poco adagio ma piu andante 4:05
7. Menuetto 2:51
8. Finale: Presto con fuoco 4:16
Symphony D-Dur
9. Allegro 5:43
10. Andante 2:28
11. Rondo: Allegro moderato 4:32
Symphony B-Dur “L`irresoluto”
12. Allegro ma piu presto 7:26
13. Adagio 7:04
14. Menuetto – Vivace 3:50
15. Allegro molto poco presto 5:24
CD 6
Anton Eberl (1765-1807)
Symphony C-Dur
1. Allegro con brio 7:47
2. Andante grazioso 5:32
3. Finale: Allegro assai 4:34
Symphony Es-Dur Opus 33
4. Andante sostenuto - Allegro con fuoco e vivace 11:40
5. Andante con moto 5:23
6. Menuetto – Allegro vivace 3:19
7. Finale: Allegro assai 8:42
Symphony d-moll Opus 34
8. Andante maestoso e sostenuto – Tempo di Marcia – Allegro agitato 15:26
9. Andante con moto 6:14
10. Finale: Vivace assai 9:00
Log EAC CD 1:

скрытый текст

Exact Audio Copy V0.99 prebeta 4 from 23. January 2008
EAC extraction logfile from 28. April 2010, 14:36
Dall`Abaco / Concerto Koln
Used drive : PIONEER DVD-RW DVR-112D Adapter: 0 ID: 0
Read mode : Secure
Utilize accurate stream : Yes
Defeat audio cache : Yes
Make use of C2 pointers : No
Read offset correction : 48
Overread into Lead-In and Lead-Out : No
Fill up missing offset samples with silence : Yes
Delete leading and trailing silent blocks : No
Null samples used in CRC calculations : Yes
Used interface : Native Win32 interface for Win NT & 2000
Used output format : User Defined Encoder
Selected bitrate : 768 kBit/s
Quality : High
Add ID3 tag : No
Command line compressor : C:\Program Files\Exact Audio Copy\FLAC\FLAC.EXE
Additional command line options : -6 -V -T "ARTIST=%a" -T "TITLE=%t" -T "ALBUM=%g" -T "DATE=%y" -T "TRACKNUMBER=%n" -T "GENRE=%m" -T "COMMENT=%e" %s -o %d
TOC of the extracted CD
Track | Start | Length | Start sector | End sector
---------------------------------------------------------
1 | 0:00.00 | 2:22.67 | 0 | 10716
2 | 2:22.67 | 1:13.63 | 10717 | 16254
3 | 3:36.55 | 1:50.52 | 16255 | 24556
4 | 5:27.32 | 2:31.18 | 24557 | 35899
5 | 7:58.50 | 2:00.00 | 35900 | 44899
6 | 9:58.50 | 2:53.70 | 44900 | 57944
7 | 12:52.45 | 2:23.10 | 57945 | 68679
8 | 15:15.55 | 1:56.47 | 68680 | 77426
9 | 17:12.27 | 1:09.70 | 77427 | 82671
10 | 18:22.22 | 1:28.35 | 82672 | 89306
11 | 19:50.57 | 1:28.00 | 89307 | 95906
12 | 21:18.57 | 2:01.50 | 95907 | 105031
13 | 23:20.32 | 1:22.38 | 105032 | 111219
14 | 24:42.70 | 1:06.20 | 111220 | 116189
15 | 25:49.15 | 2:35.20 | 116190 | 127834
16 | 28:24.35 | 2:19.20 | 127835 | 138279
17 | 30:43.55 | 1:50.50 | 138280 | 146579
18 | 32:34.30 | 1:59.05 | 146580 | 155509
19 | 34:33.35 | 2:11.15 | 155510 | 165349
20 | 36:44.50 | 4:46.20 | 165350 | 186819
21 | 41:30.70 | 2:43.60 | 186820 | 199104
22 | 44:14.55 | 2:47.35 | 199105 | 211664
23 | 47:02.15 | 1:39.12 | 211665 | 219101
24 | 48:41.27 | 3:11.58 | 219102 | 233484
25 | 51:53.10 | 1:45.02 | 233485 | 241361
26 | 53:38.12 | 2:22.58 | 241362 | 252069
27 | 56:00.70 | 0:44.62 | 252070 | 255431
28 | 56:45.57 | 3:27.68 | 255432 | 271024
29 | 60:13.50 | 3:21.60 | 271025 | 286159
30 | 63:35.35 | 2:43.05 | 286160 | 298389
31 | 66:18.40 | 1:40.45 | 298390 | 305934
32 | 67:59.10 | 4:05.05 | 305935 | 324314
33 | 72:04.15 | 3:40.30 | 324315 | 340844
34 | 75:44.45 | 2:29.72 | 340845 | 352091
Range status and errors
Selected range
Filename N:\ANTHOLOGIES\Concerto Koln plays works by Dall`Abaco, Locatelli, Vanhal, Kozeluch, Cannabich & Eberl (6 CD)\CD 1\Dall`Abaco - Concerto Koln.wav
Peak level 98.0 %
Range quality 99.9 %
Copy CRC FEF79257
Copy OK
No errors occurred
AccurateRip summary
Track 1 cannot be verified as accurate (confidence 4) [FA458868], AccurateRip returned [7E084BD7]
Track 2 cannot be verified as accurate (confidence 4) [E4E35EBD], AccurateRip returned [4FB72858]
Track 3 cannot be verified as accurate (confidence 4) [8B6633ED], AccurateRip returned [8C667321]
Track 4 cannot be verified as accurate (confidence 4) [94851870], AccurateRip returned [FC25DC6E]
Track 5 cannot be verified as accurate (confidence 4) [79DCF5CF], AccurateRip returned [3967502F]
Track 6 cannot be verified as accurate (confidence 4) [AD17F3C3], AccurateRip returned [D31FFD42]
Track 7 cannot be verified as accurate (confidence 4) [AA73E2F4], AccurateRip returned [D88B900E]
Track 8 cannot be verified as accurate (confidence 4) [8951A1F6], AccurateRip returned [866ABC63]
Track 9 cannot be verified as accurate (confidence 4) [7582F7A7], AccurateRip returned [74F31A93]
Track 10 cannot be verified as accurate (confidence 4) [2A06F5B1], AccurateRip returned [AA753912]
Track 11 cannot be verified as accurate (confidence 4) [5B0E6B24], AccurateRip returned [BED799A3]
Track 12 cannot be verified as accurate (confidence 4) [98864194], AccurateRip returned [EDC523A1]
Track 13 cannot be verified as accurate (confidence 4) [03CFDDFF], AccurateRip returned [D1E26689]
Track 14 cannot be verified as accurate (confidence 4) [54667199], AccurateRip returned [EC1BC349]
Track 15 cannot be verified as accurate (confidence 4) [DC603ACD], AccurateRip returned [183A91F7]
Track 16 cannot be verified as accurate (confidence 4) [982C8A76], AccurateRip returned [27046EB4]
Track 17 cannot be verified as accurate (confidence 4) [1C4F11E9], AccurateRip returned [9B1D1CBC]
Track 18 cannot be verified as accurate (confidence 4) [ACC55D72], AccurateRip returned [F6F1A368]
Track 19 cannot be verified as accurate (confidence 4) [AAD138F4], AccurateRip returned [81A11C6E]
Track 20 cannot be verified as accurate (confidence 4) [E120E7FF], AccurateRip returned [80BDF40B]
Track 21 cannot be verified as accurate (confidence 4) [DDE128A4], AccurateRip returned [8E5F997F]
Track 22 cannot be verified as accurate (confidence 4) [48B3D34F], AccurateRip returned [AAE5FBE7]
Track 23 cannot be verified as accurate (confidence 4) [BE07723D], AccurateRip returned [CD710F88]
Track 24 cannot be verified as accurate (confidence 4) [88AE5813], AccurateRip returned [663FB2CE]
Track 25 cannot be verified as accurate (confidence 4) [AAA995F1], AccurateRip returned [333458EE]
Track 26 cannot be verified as accurate (confidence 4) [01E08CC5], AccurateRip returned [C5E0DBF5]
Track 27 cannot be verified as accurate (confidence 4) [50254C32], AccurateRip returned [55810048]
Track 28 cannot be verified as accurate (confidence 4) [8D120E08], AccurateRip returned [DFB3E2F7]
Track 29 cannot be verified as accurate (confidence 4) [3DC756F4], AccurateRip returned [B23B7BE9]
Track 30 cannot be verified as accurate (confidence 4) [DABAEB93], AccurateRip returned [3C99FDAA]
Track 31 cannot be verified as accurate (confidence 4) [98CC8A06], AccurateRip returned [E03306F1]
Track 32 cannot be verified as accurate (confidence 4) [C8C6E3AE], AccurateRip returned [566D0ADF]
Track 33 cannot be verified as accurate (confidence 4) [08A92C64], AccurateRip returned [C6FDE321]
Track 34 cannot be verified as accurate (confidence 4) [50EB8AF5], AccurateRip returned [8720D577]
No tracks could be verified as accurate
You may have a different pressing from the one(s) in the database
End of status report
Log EAC CD 2:

скрытый текст

Exact Audio Copy V0.99 prebeta 4 from 23. January 2008
EAC extraction logfile from 28. April 2010, 14:48
Concerto Koln / Pietro Antonio Locatelli ; Concerti Grossi
Used drive : PIONEER DVD-RW DVR-112D Adapter: 0 ID: 0
Read mode : Secure
Utilize accurate stream : Yes
Defeat audio cache : Yes
Make use of C2 pointers : No
Read offset correction : 48
Overread into Lead-In and Lead-Out : No
Fill up missing offset samples with silence : Yes
Delete leading and trailing silent blocks : No
Null samples used in CRC calculations : Yes
Used interface : Native Win32 interface for Win NT & 2000
Used output format : User Defined Encoder
Selected bitrate : 768 kBit/s
Quality : High
Add ID3 tag : No
Command line compressor : C:\Program Files\Exact Audio Copy\FLAC\FLAC.EXE
Additional command line options : -6 -V -T "ARTIST=%a" -T "TITLE=%t" -T "ALBUM=%g" -T "DATE=%y" -T "TRACKNUMBER=%n" -T "GENRE=%m" -T "COMMENT=%e" %s -o %d
TOC of the extracted CD
Track | Start | Length | Start sector | End sector
---------------------------------------------------------
1 | 0:00.00 | 4:27.27 | 0 | 20051
2 | 4:27.27 | 2:39.28 | 20052 | 32004
3 | 7:06.55 | 4:02.32 | 32005 | 50186
4 | 11:09.12 | 3:04.38 | 50187 | 64024
5 | 14:13.50 | 0:41.37 | 64025 | 67136
6 | 14:55.12 | 3:00.55 | 67137 | 80691
7 | 17:55.67 | 2:57.45 | 80692 | 94011
8 | 20:53.37 | 1:56.23 | 94012 | 102734
9 | 22:49.60 | 2:12.30 | 102735 | 112664
10 | 25:02.15 | 3:08.42 | 112665 | 126806
11 | 28:10.57 | 2:32.05 | 126807 | 138211
12 | 30:42.62 | 6:05.48 | 138212 | 165634
13 | 36:48.35 | 2:44.52 | 165635 | 177986
14 | 39:33.12 | 4:56.28 | 177987 | 200214
15 | 44:29.40 | 2:05.20 | 200215 | 209609
16 | 46:34.60 | 2:24.30 | 209610 | 220439
17 | 48:59.15 | 1:40.00 | 220440 | 227939
18 | 50:39.15 | 2:14.60 | 227940 | 238049
19 | 52:54.00 | 1:22.72 | 238050 | 244271
20 | 54:16.72 | 2:24.63 | 244272 | 255134
21 | 56:41.60 | 5:37.00 | 255135 | 280409
22 | 62:18.60 | 2:39.15 | 280410 | 292349
23 | 64:58.00 | 8:06.20 | 292350 | 328819
Range status and errors
Selected range
Filename N:\ANTHOLOGIES\Concerto Koln plays works by Dall`Abaco, Locatelli, Vanhal, Kozeluch, Cannabich & Eberl (6 CD)\CD 2\Concerto Koln - Pietro Antonio Locatelli ; Concerti Grossi.wav
Peak level 99.3 %
Range quality 99.9 %
Copy CRC 474DE82F
Copy OK
No errors occurred
AccurateRip summary
Track 1 cannot be verified as accurate (confidence 2) [ABB96969], AccurateRip returned [BB106436]
Track 2 cannot be verified as accurate (confidence 4) [EDBDE5E5], AccurateRip returned [ADA38720]
Track 3 cannot be verified as accurate (confidence 4) [D44AC32C], AccurateRip returned [F97DD378]
Track 4 cannot be verified as accurate (confidence 4) [B3C6E983], AccurateRip returned [D1BA9A45]
Track 5 cannot be verified as accurate (confidence 4) [4268358F], AccurateRip returned [EA07B934]
Track 6 cannot be verified as accurate (confidence 4) [DE0FD5C2], AccurateRip returned [17068D9A]
Track 7 cannot be verified as accurate (confidence 4) [412547F1], AccurateRip returned [E46C2CF6]
Track 8 cannot be verified as accurate (confidence 4) [F38EA194], AccurateRip returned [299F11A7]
Track 9 cannot be verified as accurate (confidence 4) [53C20262], AccurateRip returned [ED36D408]
Track 10 cannot be verified as accurate (confidence 4) [48159C56], AccurateRip returned [621EDCF8]
Track 11 cannot be verified as accurate (confidence 4) [95183AF2], AccurateRip returned [98FB1B56]
Track 12 cannot be verified as accurate (confidence 4) [B9A338D3], AccurateRip returned [1AC88E2E]
Track 13 cannot be verified as accurate (confidence 4) [678C10B5], AccurateRip returned [0953754D]
Track 14 cannot be verified as accurate (confidence 4) [6C126F70], AccurateRip returned [39F085A8]
Track 15 cannot be verified as accurate (confidence 4) [66D773F7], AccurateRip returned [9D9216F8]
Track 16 cannot be verified as accurate (confidence 4) [31CDD375], AccurateRip returned [D81E9D0D]
Track 17 cannot be verified as accurate (confidence 4) [58757FC7], AccurateRip returned [0A27FC07]
Track 18 cannot be verified as accurate (confidence 4) [C06AD976], AccurateRip returned [E5B0B979]
Track 19 cannot be verified as accurate (confidence 4) [5D81E490], AccurateRip returned [F4970D2E]
Track 20 cannot be verified as accurate (confidence 4) [15147B48], AccurateRip returned [0DF750B7]
Track 21 cannot be verified as accurate (confidence 4) [B625A0B7], AccurateRip returned [6E9042F5]
Track 22 cannot be verified as accurate (confidence 4) [DAACB131], AccurateRip returned [C8752588]
Track 23 cannot be verified as accurate (confidence 4) [BB3658F9], AccurateRip returned [57175AC4]
No tracks could be verified as accurate
You may have a different pressing from the one(s) in the database
End of status report
Log EAC CD 3:

скрытый текст

Exact Audio Copy V0.99 prebeta 4 from 23. January 2008
EAC extraction logfile from 28. April 2010, 12:04
Various / Mannheim : L'Age d'Or
Used drive : PIONEER DVD-RW DVR-112D Adapter: 0 ID: 0
Read mode : Secure
Utilize accurate stream : Yes
Defeat audio cache : Yes
Make use of C2 pointers : No
Read offset correction : 48
Overread into Lead-In and Lead-Out : No
Fill up missing offset samples with silence : Yes
Delete leading and trailing silent blocks : No
Null samples used in CRC calculations : Yes
Used interface : Native Win32 interface for Win NT & 2000
Used output format : User Defined Encoder
Selected bitrate : 768 kBit/s
Quality : High
Add ID3 tag : No
Command line compressor : C:\Program Files\Exact Audio Copy\FLAC\FLAC.EXE
Additional command line options : -6 -V -T "ARTIST=%a" -T "TITLE=%t" -T "ALBUM=%g" -T "DATE=%y" -T "TRACKNUMBER=%n" -T "GENRE=%m" -T "COMMENT=%e" %s -o %d
TOC of the extracted CD
Track | Start | Length | Start sector | End sector
---------------------------------------------------------
1 | 0:00.00 | 4:05.35 | 0 | 18409
2 | 4:05.35 | 3:09.67 | 18410 | 32651
3 | 7:15.27 | 2:28.35 | 32652 | 43786
4 | 9:43.62 | 7:25.10 | 43787 | 77171
5 | 17:08.72 | 4:49.28 | 77172 | 98874
6 | 21:58.25 | 4:10.35 | 98875 | 117659
7 | 26:08.60 | 2:58.15 | 117660 | 131024
8 | 29:07.00 | 3:43.25 | 131025 | 147774
9 | 32:50.25 | 2:57.32 | 147775 | 161081
10 | 35:47.57 | 5:41.03 | 161082 | 186659
11 | 41:28.60 | 2:43.50 | 186660 | 198934
12 | 44:12.35 | 1:54.40 | 198935 | 207524
13 | 46:07.00 | 2:44.55 | 207525 | 219879
14 | 48:51.55 | 1:52.55 | 219880 | 228334
15 | 50:44.35 | 2:38.25 | 228335 | 240209
16 | 53:22.60 | 5:29.05 | 240210 | 264889
17 | 58:51.65 | 5:03.10 | 264890 | 287624
18 | 63:55.00 | 2:53.67 | 287625 | 300666
Range status and errors
Selected range
Filename N:\ANTHOLOGIES\Concerto Koln plays works by Dall`Abaco, Locatelli, Vanhal, Kozeluch, Cannabich & Eberl (6 CD)\CD 3\Various - Mannheim L'Age d'Or.wav
Peak level 98.8 %
Range quality 100.0 %
Copy CRC 6593564D
Copy OK
No errors occurred
AccurateRip summary
Track 1 cannot be verified as accurate (confidence 4) [D7B7F979], AccurateRip returned [7CB01B42]
Track 2 cannot be verified as accurate (confidence 4) [617DBC06], AccurateRip returned [12F9E75C]
Track 3 cannot be verified as accurate (confidence 4) [BCA8D28D], AccurateRip returned [7B822F66]
Track 4 cannot be verified as accurate (confidence 4) [05431B85], AccurateRip returned [DADB09FA]
Track 5 cannot be verified as accurate (confidence 4) [D3DA2AD7], AccurateRip returned [3BFF7C5A]
Track 6 cannot be verified as accurate (confidence 4) [62DECCA0], AccurateRip returned [7499E8AC]
Track 7 cannot be verified as accurate (confidence 4) [D67E7A34], AccurateRip returned [C680DE9D]
Track 8 cannot be verified as accurate (confidence 4) [85BAE7B4], AccurateRip returned [2D748C62]
Track 9 cannot be verified as accurate (confidence 4) [C7D06F2F], AccurateRip returned [ADEFFDCC]
Track 10 cannot be verified as accurate (confidence 4) [A88E7A49], AccurateRip returned [0778CCD1]
Track 11 cannot be verified as accurate (confidence 4) [0FF58E14], AccurateRip returned [E7B86468]
Track 12 cannot be verified as accurate (confidence 4) [B9AFAB7B], AccurateRip returned [CFCC0569]
Track 13 cannot be verified as accurate (confidence 4) [D36514F8], AccurateRip returned [0F99D3E9]
Track 14 cannot be verified as accurate (confidence 3) [70FB1BB3], AccurateRip returned [71AF128E]
Track 15 cannot be verified as accurate (confidence 3) [303E81B1], AccurateRip returned [A2563DEF]
Track 16 cannot be verified as accurate (confidence 4) [9A2ED60F], AccurateRip returned [52D2D4FB]
Track 17 cannot be verified as accurate (confidence 4) [A7DC3E07], AccurateRip returned [0FA11183]
Track 18 cannot be verified as accurate (confidence 4) [83DF90D4], AccurateRip returned [D13E0D08]
No tracks could be verified as accurate
You may have a different pressing from the one(s) in the database
End of status report
Log EAC CD 4:

скрытый текст

Exact Audio Copy V0.99 prebeta 4 from 23. January 2008
EAC extraction logfile from 28. April 2010, 15:00
Concerto Koln / Johann Baptist Vanhal, Symphonies
Used drive : PIONEER DVD-RW DVR-112D Adapter: 0 ID: 0
Read mode : Secure
Utilize accurate stream : Yes
Defeat audio cache : Yes
Make use of C2 pointers : No
Read offset correction : 48
Overread into Lead-In and Lead-Out : No
Fill up missing offset samples with silence : Yes
Delete leading and trailing silent blocks : No
Null samples used in CRC calculations : Yes
Used interface : Native Win32 interface for Win NT & 2000
Used output format : User Defined Encoder
Selected bitrate : 768 kBit/s
Quality : High
Add ID3 tag : No
Command line compressor : C:\Program Files\Exact Audio Copy\FLAC\FLAC.EXE
Additional command line options : -6 -V -T "ARTIST=%a" -T "TITLE=%t" -T "ALBUM=%g" -T "DATE=%y" -T "TRACKNUMBER=%n" -T "GENRE=%m" -T "COMMENT=%e" %s -o %d
TOC of the extracted CD
Track | Start | Length | Start sector | End sector
---------------------------------------------------------
1 | 0:00.00 | 3:40.40 | 0 | 16539
2 | 3:40.40 | 3:46.67 | 16540 | 33556
3 | 7:27.32 | 3:00.55 | 33557 | 47111
4 | 10:28.12 | 4:00.48 | 47112 | 65159
5 | 14:28.60 | 3:57.17 | 65160 | 82951
6 | 18:26.02 | 5:10.28 | 82952 | 106229
7 | 23:36.30 | 2:52.62 | 106230 | 119191
8 | 26:29.17 | 3:31.43 | 119192 | 135059
9 | 30:00.60 | 4:01.65 | 135060 | 153199
10 | 34:02.50 | 4:54.50 | 153200 | 175299
11 | 38:57.25 | 3:15.25 | 175300 | 189949
12 | 42:12.50 | 4:40.25 | 189950 | 210974
13 | 46:53.00 | 3:01.10 | 210975 | 224559
14 | 49:54.10 | 2:30.12 | 224560 | 235821
15 | 52:24.22 | 5:56.40 | 235822 | 262561
16 | 58:20.62 | 3:39.25 | 262562 | 279011
17 | 62:00.12 | 4:12.30 | 279012 | 297941
18 | 66:12.42 | 2:55.45 | 297942 | 311111
19 | 69:08.12 | 4:10.65 | 311112 | 329926
Range status and errors
Selected range
Filename N:\ANTHOLOGIES\Concerto Koln plays works by Dall`Abaco, Locatelli, Vanhal, Kozeluch, Cannabich & Eberl (6 CD)\CD 4\Concerto Koln - Johann Baptist Vanhal, Symphonies.wav
Peak level 97.9 %
Range quality 99.9 %
Copy CRC 0279A4D6
Copy OK
No errors occurred
AccurateRip summary
Track 1 cannot be verified as accurate (confidence 1) [2BD23B58], AccurateRip returned [5B8C6E6F]
Track 2 cannot be verified as accurate (confidence 1) [B3C25757], AccurateRip returned [4C7DC0D5]
Track 3 cannot be verified as accurate (confidence 1) [2F5119FC], AccurateRip returned [BE3C4B3F]
Track 4 cannot be verified as accurate (confidence 1) [0CC1946F], AccurateRip returned [74F79F53]
Track 5 cannot be verified as accurate (confidence 1) [F6D793C1], AccurateRip returned [219E6341]
Track 6 cannot be verified as accurate (confidence 1) [4E18A492], AccurateRip returned [38EBF179]
Track 7 cannot be verified as accurate (confidence 1) [45222EB6], AccurateRip returned [A5B7FAFE]
Track 8 cannot be verified as accurate (confidence 1) [6B74FC2B], AccurateRip returned [B9DB0604]
Track 9 cannot be verified as accurate (confidence 1) [EC2959F8], AccurateRip returned [87263B50]
Track 10 cannot be verified as accurate (confidence 1) [8B7C616F], AccurateRip returned [7B3FBA69]
Track 11 cannot be verified as accurate (confidence 1) [FFBC4B41], AccurateRip returned [7B27D1FB]
Track 12 cannot be verified as accurate (confidence 1) [2487005A], AccurateRip returned [E9EE2B7C]
Track 13 cannot be verified as accurate (confidence 1) [2B9F4F9F], AccurateRip returned [30E3BC13]
Track 14 cannot be verified as accurate (confidence 1) [B97F4D14], AccurateRip returned [3F12015F]
Track 15 cannot be verified as accurate (confidence 1) [B3637ACD], AccurateRip returned [14059DC0]
Track 16 cannot be verified as accurate (confidence 1) [04A3F073], AccurateRip returned [CCCF9F2E]
Track 17 cannot be verified as accurate (confidence 1) [7877FDCF], AccurateRip returned [0A47A28E]
Track 18 cannot be verified as accurate (confidence 1) [5C0DC4DA], AccurateRip returned [0335E654]
Track 19 cannot be verified as accurate (confidence 1) [2EA621FD], AccurateRip returned [C9BC4D81]
No tracks could be verified as accurate
You may have a different pressing from the one(s) in the database
End of status report
Log EAC CD 5:

скрытый текст

Exact Audio Copy V0.99 prebeta 4 from 23. January 2008
EAC extraction logfile from 28. April 2010, 15:15
Leopold Antonin Kozeluch (1747-1818) (Concerto Köln) / Symphonies (Studio DeutschlandRadio, Köln)
Used drive : PIONEER DVD-RW DVR-112D Adapter: 0 ID: 0
Read mode : Secure
Utilize accurate stream : Yes
Defeat audio cache : Yes
Make use of C2 pointers : No
Read offset correction : 48
Overread into Lead-In and Lead-Out : No
Fill up missing offset samples with silence : Yes
Delete leading and trailing silent blocks : No
Null samples used in CRC calculations : Yes
Used interface : Native Win32 interface for Win NT & 2000
Used output format : User Defined Encoder
Selected bitrate : 768 kBit/s
Quality : High
Add ID3 tag : No
Command line compressor : C:\Program Files\Exact Audio Copy\FLAC\FLAC.EXE
Additional command line options : -6 -V -T "ARTIST=%a" -T "TITLE=%t" -T "ALBUM=%g" -T "DATE=%y" -T "TRACKNUMBER=%n" -T "GENRE=%m" -T "COMMENT=%e" %s -o %d
TOC of the extracted CD
Track | Start | Length | Start sector | End sector
---------------------------------------------------------
1 | 0:00.00 | 7:41.47 | 0 | 34621
2 | 7:41.47 | 5:35.03 | 34622 | 59749
3 | 13:16.50 | 2:55.07 | 59750 | 72881
4 | 16:11.57 | 4:24.05 | 72882 | 92686
5 | 20:35.62 | 5:51.33 | 92687 | 119044
6 | 26:27.20 | 4:05.12 | 119045 | 137431
7 | 30:32.32 | 2:51.05 | 137432 | 150261
8 | 33:23.37 | 4:45.28 | 150262 | 171664
9 | 38:08.65 | 5:43.27 | 171665 | 197416
10 | 43:52.17 | 2:28.40 | 197417 | 208556
11 | 46:20.57 | 4:40.05 | 208557 | 229561
12 | 51:00.62 | 7:26.25 | 229562 | 263036
13 | 58:27.12 | 7:04.43 | 263037 | 294879
14 | 65:31.55 | 3:50.07 | 294880 | 312136
15 | 69:21.62 | 5:23.73 | 312137 | 336434
Range status and errors
Selected range
Filename N:\ANTHOLOGIES\Concerto Koln plays works by Dall`Abaco, Locatelli, Vanhal, Kozeluch, Cannabich & Eberl (6 CD)\CD 5\Leopold Antonin Kozeluch (1747-1818) (Concerto Köln) - Symphonies (Studio DeutschlandRadio, Köln).wav
Peak level 97.7 %
Range quality 99.9 %
Copy CRC 33CF10C8
Copy OK
No errors occurred
AccurateRip summary
Track 1 cannot be verified as accurate (confidence 3) [5DA786DE], AccurateRip returned [0A9D6C20]
Track 2 cannot be verified as accurate (confidence 3) [7C3D9AEB], AccurateRip returned [2FD221BB]
Track 3 cannot be verified as accurate (confidence 3) [26289084], AccurateRip returned [BE29ED4D]
Track 4 cannot be verified as accurate (confidence 3) [7EC77AFA], AccurateRip returned [FDD2403F]
Track 5 cannot be verified as accurate (confidence 3) [4939DB57], AccurateRip returned [ABEEEF24]
Track 6 cannot be verified as accurate (confidence 3) [48ED574D], AccurateRip returned [3B92D43F]
Track 7 cannot be verified as accurate (confidence 3) [091223E0], AccurateRip returned [29DCD01D]
Track 8 cannot be verified as accurate (confidence 3) [081D4152], AccurateRip returned [13A42392]
Track 9 cannot be verified as accurate (confidence 3) [40CC74F8], AccurateRip returned [45870746]
Track 10 cannot be verified as accurate (confidence 3) [65C90036], AccurateRip returned [C1C5720F]
Track 11 cannot be verified as accurate (confidence 3) [081A53E3], AccurateRip returned [4BC593C4]
Track 12 cannot be verified as accurate (confidence 3) [1A597151], AccurateRip returned [428C8530]
Track 13 cannot be verified as accurate (confidence 3) [C4DF7A9E], AccurateRip returned [967A2A61]
Track 14 cannot be verified as accurate (confidence 3) [B0F20BC1], AccurateRip returned [7F5B3B01]
Track 15 cannot be verified as accurate (confidence 3) [E8EDACBE], AccurateRip returned [EF3A8978]
No tracks could be verified as accurate
You may have a different pressing from the one(s) in the database
End of status report
Log EAC CD 6:

скрытый текст

Exact Audio Copy V0.99 prebeta 4 from 23. January 2008
EAC extraction logfile from 28. April 2010, 15:28
Concerto Koln / Anton Eberl ; Symphonies
Used drive : PIONEER DVD-RW DVR-112D Adapter: 0 ID: 0
Read mode : Secure
Utilize accurate stream : Yes
Defeat audio cache : Yes
Make use of C2 pointers : No
Read offset correction : 48
Overread into Lead-In and Lead-Out : No
Fill up missing offset samples with silence : Yes
Delete leading and trailing silent blocks : No
Null samples used in CRC calculations : Yes
Used interface : Native Win32 interface for Win NT & 2000
Used output format : User Defined Encoder
Selected bitrate : 768 kBit/s
Quality : High
Add ID3 tag : No
Command line compressor : C:\Program Files\Exact Audio Copy\FLAC\FLAC.EXE
Additional command line options : -6 -V -T "ARTIST=%a" -T "TITLE=%t" -T "ALBUM=%g" -T "DATE=%y" -T "TRACKNUMBER=%n" -T "GENRE=%m" -T "COMMENT=%e" %s -o %d
TOC of the extracted CD
Track | Start | Length | Start sector | End sector
---------------------------------------------------------
1 | 0:00.00 | 7:47.32 | 0 | 35056
2 | 7:47.32 | 5:32.05 | 35057 | 59961
3 | 13:19.37 | 4:42.43 | 59962 | 81154
4 | 18:02.05 | 11:40.20 | 81155 | 133674
5 | 29:42.25 | 5:23.00 | 133675 | 157899
6 | 35:05.25 | 3:19.20 | 157900 | 172844
7 | 38:24.45 | 8:50.15 | 172845 | 212609
8 | 47:14.60 | 15:26.47 | 212610 | 282106
9 | 62:41.32 | 6:13.65 | 282107 | 310146
10 | 68:55.22 | 9:00.33 | 310147 | 350679
Range status and errors
Selected range
Filename N:\ANTHOLOGIES\Concerto Koln plays works by Dall`Abaco, Locatelli, Vanhal, Kozeluch, Cannabich & Eberl (6 CD)\CD 6\Concerto Koln - Anton Eberl ; Symphonies.wav
Peak level 82.2 %
Range quality 99.9 %
Copy CRC 809FE2CC
Copy OK
No errors occurred
AccurateRip summary
Track 1 cannot be verified as accurate (confidence 6) [78594C44], AccurateRip returned [B2FC0E6A]
Track 2 cannot be verified as accurate (confidence 6) [852D008C], AccurateRip returned [D0B69938]
Track 3 cannot be verified as accurate (confidence 6) [70043378], AccurateRip returned [1006CB42]
Track 4 cannot be verified as accurate (confidence 6) [824C0A3F], AccurateRip returned [7CE7726A]
Track 5 cannot be verified as accurate (confidence 6) [CCE3A7A3], AccurateRip returned [8D8139B8]
Track 6 cannot be verified as accurate (confidence 6) [887B5792], AccurateRip returned [A994DCBD]
Track 7 cannot be verified as accurate (confidence 6) [18D2A7AE], AccurateRip returned [14C96E86]
Track 8 cannot be verified as accurate (confidence 6) [D2D2C2A3], AccurateRip returned [EA854316]
Track 9 cannot be verified as accurate (confidence 6) [C460DB0C], AccurateRip returned [CC6B4692]
Track 10 cannot be verified as accurate (confidence 7) [4279A968], AccurateRip returned [9B93C0A4]
No tracks could be verified as accurate
You may have a different pressing from the one(s) in the database
End of status report
Доп. информация:
Concerto Koln

Сайт оркестра - http://www.concerto-koln.de/home_welcome.php?lang=eng
Сканы обложек и буклета прилагаются.
[teatrix.ru].t9779.torrent 
Торрент: Зарегистрирован [ 2015-10-23 17:26 ] · 2434DEEE9EE065929EB51E0F69FF6D09C39F731C

Скачать .torrent

Скачать

15 KB

Статус: проверено
Скачан: 0 раз
Размер: 2.21 GB
terms.php



Быстрый ответ

Имя:

      
Для отправки сообщений необходимо включить JavaScript
Показать сообщения:    

Текущее время: 08-Дек 07:10

Часовой пояс: UTC + 3


Вы можете начинать темы
Вы можете отвечать на сообщения
Вы не можете редактировать свои сообщения
Вы не можете удалять свои сообщения
Вы не можете голосовать в опросах
Вы не можете прикреплять файлы к сообщениям
Вы можете скачивать файлы