(classic) Johannes Brahms Edition - Complete Works (60 CD) - 2008, FLAC (tracks+.cue), lossless


Статистика раздачи [Обновить пиров]
Размер:  13.65 GB   |    Зарегистрирован:  1 год 1 месяц   |    Скачан:  0 раз
Сидов:  6  [  0 KB/s  ]   Личеров:  5  [  0 KB/s  ]   Подробная статистика пиров
 
   
 
 

[Цитировать]

Johannes Brahms Edition - Complete Works (60 CD)
Жанр: classic
Год выпуска диска: 2008
Производитель диска: Brilliant Classics
Аудио кодек: FLAC
Тип рипа: tracks+.cue
Битрейт аудио: lossless
Продолжительность: 60 cd
Трэклист:

Tracklist1. Symphony No. 1 - Netherlands Philharmonic Orchestra, Jaap van Zweden

SYMPHONY No. 1 in C minor Op. 68
1. Un poco sostenuto-allegro-meno allegro
2. Andante sostenuto
3. Un poco allegretto e grazioso
4. Adagio-piu andante-allegro non troppo ma con brio-piu allegro

2. Symphony No. 2 - Radio Filharmonisch Orkest Holland, Jaap van Zweden

SYMPHONY No. 2 in D major Op. 73
1. Allegro non troppo
2. Adagio non troppo
3. Allegretto grazioso
4. Allegro con spirito

3. Symphonies Nos. 3 & 4 - Netherlands Philharmonic Orchestra, Jaap van Zweden

SYMPHONY No. 3 in F major Op. 90
1. Allegro con brio-un poco sostenuto-tempo I
2. Andante
3. Poco allegretto
4. Allegro-un poco sostenuto
SYMPHONY No. 4 in E minor Op. 98
5. Allegro non troppo
6. Andante moderato
7. Allegro giocoso
8. Allegro energico e passionato-piu allegro

4. Overtures Op. 80/81; Haydn Variations Op. 56a; Serenade No. 2- London Philharmonic Orchestra, Wolfgang Sawallisch; Ulster Orchestra, Vernon Handley; London Philharmonic Orchestra, Sir Adrian Boult

1. Akademische Festouverture Op. 80
2. Tragische Ouverture Op. 81

Variations on a theme by Joseph Haydn (St. Anthony) Op. 56a
3. Chorale St. Antoni, andante
4. Var. 1, poco piu animato
5. Var. 2, piu vivace
6. Var. 3, con moto
7. Var. 4, andante con moto
8. Var. 5, vivace
9. Var. 6, vivace
10. Var. 7, grazioso
11. Var. 8, presto non troppo
12. Finale, andante
Serenade No. 2 in Amajor Op. 16
13. Allegro moderato
14. Scherzo, vivace
15. Adagio non troppo
16. Quasi menuetto
17. Rondo, allegro

5. Serenade No. 1 - Radio Kamerorkest, Frans Bruggen

Serenade No. 1 in D major Op. 11
1. Allegro molto
2. Scherzo, allegro non troppo
3. Adagio non troppo
4. Menuetto 1& 2
5. Scherzo, allegro
6. Rondo, allegro

6. Hungarian Dances (orchestral) - London Symphony Orchestra, Neeme Jarvi

1. No. 1 in G minor
2. No. 2 in D minor
3. No. 3 in F major
4. No. 4 in F Sharp minor
5. No. 5 in G minor
6. No. 6 in D minor
7. No. 7 in F major
8. No. 8 in A minor
9. No. 9 in E minor
10. No. 10 in F major
11. No. 11 in D minor
12. No. 12 in D minor
13. No. 13 in D major
14. No. 14 in D minor
15. No. 15 in B flat major
16. No. 16 in F minor
17. No. 17 in f Sharp minor
18. No. 18 in D major
19. No 19 in B minor
20. No. 20 in E minor
21. No. 21 in E minor

7. Piano Concerto No. 1, WALTZES - Karin Lechner, piano; Berliner Symphoniker - Eduardo Marturter

PIANO CONCERTO No. 1 in D minor Op. 15
1. Maestoso
2. Adagio
3. Rondo, allegro non troppo
16 WALTZES Op. 39
4. No. 1 in B major
5. No. 2 in E major
6. No. 3 in G sharp minor
7. No. 4 in E minor
8. No. 5 in E major
9. No. 6 in C sharp major
10. No. 7 in C sharp minor
11. No. 8 in B flat major
12. No. 9 in D minor
13. No. 10 in G major
14. No. 11 in B minor
15. No. 12 in E major
16. No. 13 in B major
17. No. 14 in G sharp minor
18. No. 15 in A flat major
19. No. 16 in C sharp minor

8. Piano Concerto No. 2, KLAVIERSTUCKE - Karin Lechner, piano; Berliner Symphoniker - Eduardo Marturter

PIANO CONCERTO No. 2 in B flat major Op. 83
1. Allegro non troppo
2. Allegro appassionato
3. Andante
4. Allegretto grazioso
4 KLAVIERSTUCKE Op. 119
5. Intermezzo in B minor: adagio
6. Intermezzo in E minor:
andantino un poco agitato
7. Intermezzo in C major: grazioso e giocoso
8. Rhapsody in E flat major: allegro risoluto

9. Violin Concerto; Double Concerto - Borika van den Booren, violin; Berliner Symphoniker; Emmy Verhey/Janos Starker; Amsterdam Philharmonic Orchestra, Arpad Jóo

VIOLIN CONCERTO in D major Op. 77
1. Allegro ma non troppo
2. Adagio
3. Allegro giocoso
CONCERTO FOR VIOLIN, CELLO & ORCHESTRA in A minor Op. 102
4. Allegro
5. Andante
6. Vivace non troppo

10. Piano Quartets Nos. 1 & 3 - Faust/Meunier/Giaranna/Han

PIANO QUARTET No. 1 in G minor Op. 25
1. Allegro
2. Intermezzo, allegro ma non troppo
3. Andante con moto
4. Rondo alla Zingarese
PIANO QUARTET No. 3 in C minor Op. 60
5. Allegro non troppo
6. Scherzo, allegro
7. Andante
8. Finale, allegro comodo

11. Piano Quartet No. 2 - Faust/Meunier/Giaranna/Han

PIANO QUARTET No. 2 in Amajor Op. 26
1. Allegro non troppo
2. Poco adagio
3. Scherzo, poco allegro
4. Finale, allegro

12. String Quintets - Brandis Quartet, with Brett Dean, viola

STRING QUINTET No. 1 in F major Op. 88
1. Allegro non troppo ma con brio
2. Grave ed appassionato-allegretto vivace-tempo I-presto-tempo I
3. Allegro energico
STRING QUINTET No. 2 in G major Op. 111
4. Allegro non troppo ma con brio
5. Adagio
6. Un poco allegretto
7. Vivace ma non troppo presto

13. Clarinet Sonatas - Karl Leister/Ferenc Bognar

CLARINET SONATA in F minor Op. 120 No. 1
1. Allegro appassionato
2. Andante un poco adagio
3. Allegretto grazioso
4. Vivace
CLARINET SONATA in E flat major Op. 120 No. 2
5. Allegro amabile
6. Allegro appassionato
7. Andante con moto-allegro

14. Clarinet Quintet; String Quartet No. 2 - Karl Leister/Brandis Quartet; Tokyo Quartet

CLARINET QUINTET in B minor Op. 115
1. Allegro
2. Adagio-piu lento
3. Andantino-presto non assai, ma con sentimento
4. Con moto
STRING QUARTET No. 2 in Aminor Op. 51 No. 2
5. Allegro non troppo
6. Andante moderato
7. Quasi minuetto
8. Allegro non assai

15. String Quartets 1 & 3 - Tokyo Quartet

STRING QUARTET No. 1 in C minor Op. 51 No. 1
1. Allegro
2. Romanze, poco adagio
3. Allegro molto moderato e comodo
4. Allegro
STRING QUARTET No. 3 in B flat major Op. 67
5. Vivace
6. Andante
7. Agitato-allegretto non troppo
8. Poco allegretto con variazioni

16. Horn Trio & Piano Quintet - Nash Ensemble

HORN TRIO in E flat major Op. 40
1. Andante-poco piu animato
2. Scherzo & Trio (allegro)
3. Adagio mesto
4. Allegro con brio
PIANO QUINTET in F minor Op. 34
5. Allegro non troppo
6. Andante, un poco adagio
7. Scherzo & Trio (allegro)
8. Poco sostenuto-allegro non troppo

17. Violin Sonatas Gyorgy Pauk/Roger Vignoles

VIOLIN SONATA No. 1 in G major Op. 78
1. Vivace ma non troppo
2. Adagio-piu andante-adagio
3. Allegro molto moderato
VIOLIN SONATA No. 2 in Amajor Op. 100
4. Allegro amabile
5. Andante tranquillo-vivace
6. Allegretto grazioso
VIOLIN SONATA No. 3 in D minor Op. 108
7. Allegro
8. Adagio
9. Un poco presto e con sentimento
10. Presto agitato
11. Sonata movement in C minor (From F.A.E. Sonata)

18. Cello Sonatas - Herre-Jan Stegenga/Philippe Entremont

CELLO SONATA No. 1 in E minor Op. 38
1. Allegro non troppo
2. Allegretto quasi menuetto
3. Allegro
CELLO SONATA No. 2 in F major Op. 99
4. Allegro vivace
5. Adagio affetuoso
6. Allegro passionato
7. Allegro molto

19. String Sextets - Alberni Quartet

STRING SEXTET No. 1 in B flat major Op. 18
1. Allegro ma non troppo
2. Andante, ma moderato
3. Scherzo, allegro molto
4. Rondo, poco allegretto e grazioso
STRING SEXTET No. 2 in G major Op. 36
5. Allegro non troppo
6. Scherzo, allegro non troppo, presto giocoso
7. Poco adagio
8. Poco allegro

20. Piano Trios Nos. 1 & 3 - Kalichstein/Laredo/Robinson

PIANO TRIO No. 1 in B major Op. 8
1. Allegro
2. Scherzo, allegro molto
3. Adagio
4. Allegro
PIANO TRIO No. 3 in C minor Op. 101
5. Allegro energico
6. Presto non assai
7. Andante grazioso
8. Allegro molto

21. Piano Trio No. 2; Clarinet Trio - Kalichstein/Laredo/Robinson; Leister/Boettcher/Bognar

PIANO TRIO No. 2 in C major Op. 87
1. Allegro
2. Andante con moto
3. Scherzo, presto
4. Finale, allegro
CLARINET TRIO in Aminor Op. 114
5. Allergo
6. Adagio
7. Andante grazioso
8. Allegro

22. Viola Sonatas; Piano Trio Op. Posth. Nobuko Imai/Harris Goldsmith; Leonardo Trio

SONATA for viola & piano in F minor Op. 120 No. 1
1. Allegro appassionato
2. Andante un poco adagio
3. Allegretto grazioso
4. Vivace
SONATA for viola & piano in E flat major Op. 120 No. 2
5. Allegro amabile
6. Allegro appassionato
7. Andante con moto-allegro
Robert Schumann - PIANO TRIO No.2, F-Dur, Op. 80
8. Moderato
9. Vivace
10. Lento
11. Presto

23. Sonata for Two Pianos - Duo Uriarte/Mrongovius

SONATA FOR TWO PIANOS in F minor Op. 34b
1. Allegro non troppo
2. Andante, un poco adagio
3. Scherzo, allegro
4. Finale: poco sostenuto-allegro non troppo-presto non troppo

24. Haydn Variations; SchumannVariations; Waltzes; piano 4-hands Eden/Tamir, piano 4-hands

1. Variations on a theme by Joseph Haydn “St. Antoni Chorale”, Op. 56b for two pianos.
2. 16 Waltzes Op. 39 for piano 4-hands Op. 39
3. Variations on a theme of Robert Schumann for piano 4-hands Op. 23

25. Hungarian Dances, piano 4-hands Moreno/Capelli, piano 4-hands

1. In G minor, allegro molto
2. In D minor, allegro non assai
3. In F major, allegretto
4. In F minor, poco sostenuto
5. In F sharp minor,allegro
6. In D flat major, vivace
7. In A major, allegretto
8. In A minor, presto
9. In E minor, allegro non troppo
10. In E major, presto
11. In A minor, poco andante
12. In D minor, presto
13. In D major, andantino grazioso
14. In D minor, un poco andante
15. In B flat major, allegretto grazioso
16. In F minor, con moto
17. In F sharp minor, andantino
18. In D major, molto vivace
19. In B minor, allegretto
20. In E minor, poco allegretto
21. In E minor, vivace
22. Academic Festival Overture Op. 80 (arr. piano 4-hands)

26. Piano Sonata No. 1; Scherzo Op. 4 Kamerhan Turan, piano

PIANO SONATA No. 1, in C major, Op. 1 (1852-53)
1. Allegro
2. Andante (nach einem altdeutschen Minneliede)
3. Scherzo: Allegro molto e con fuoco-Più mosso-Tempo I
4. Finale: Allegro con fuoco-Presto non troppo ed agitato
5. SCHERZO in E flat minor, Op. 4 (1851)
Rasch und Feurig-Trio I-Da capo-Trio II: Molto espressivo-Da capo-Coda: Più mosso-Più sostenuto

27. Piano Sonatas Nos. 2 & 3 Alan Weiss, piano

PIANO SONATA No. 2 in F sharp minor Op. 2
1. Allegro ma non troppo, ma energico
2. Andante con espressione
3. Scherzo, allegro
4. Finale: Introduzione-allegro non troppo e rubato
PIANO SONATA No. 3 in F minor Op. 5
5. Allegro maestoso
6. Andante espressivo
7. Scherzo, allegro energico
8. Intermezzo, andante molto
9. Finale, allegro moderato ma rubato

28. Paganini Variations; Handel Variations - Wolfram Schmitt-Leonardy, piano

VARIATIONS ON A THEME OF PAGANINI in Aminor Studies Op 35, Book I (1862-63)
1. Thema’ Non troppo presto
2. Var I
3. Var II
4. Var III
5. Var IV
6. Var V: Espressivo/Molto leggiero
7. Var VI: Molto leggiero
8. Var VII
9. Var VIII: Staccato
10. Var IX: Legato
11. Var X: Sotto voce
12. Var XI: Andante, molto legato e dolce, espressivo
13. Var XII: Molto dolce
14. Var XIII: Vivace e scherzando
15. Var XIV: Ben marcato, con fuoco-Presto, ma non troppo
VARIATIONS ON A THEME OF PAGANINI in Aminor Studies Op 35, Book II (1862-63)
16. Thema’ Non troppo presto
17. Var I
18. Var II’: Poco animato, poco forte espressivo, legato
19. Var III: Leggiero, espressivo
20. Var IV: Poco Allegretto, con grazia
21. Var V: Dolce
22. Var VI: Poco più vivace, leggiero
23. Var VII: Leggiero e ben marcato
24. Var VIII: Allegro, leggiero, quasi pizzicato
25. Var IX
26. Var X: Feroce, energico
27. Var XI: Vivace, non legato e scherzando
28. Var XII: Un poco Andante, dolce espressivo
29. Var XIII: Un poco più Andante, poco espressivo
30. Var XIV: Presto, ma non troppo, scherzando
VARIATIONS AND FUGUE ON A THEME OF HANDEL in B flat major, Op 24 (1861)
31. Aria: Rhythmisch, mit Humor
32. Var I: L‚istesso tempo
33. Var II: Con espressione
34. Var III: Grazioso
35. Var IV: Risoluto, con fuoco, staccato
36. Var V: Affetuoso, espressivo
37. Var VI: Sordo, e legato
38. Var VII: Con vivacita
39. Var VIII: Martellato/Distinto, non legato
40. Var IX: Poco sostenuto, legato
41. Var X: Energico
42. Var XI: Lusingando, con tenerezza, dolce, legato
43. Var XII: L‚istesso tempo, semplice, soave, legato
44. Var XIII: Largamente, ma non più, espressivo
45. Var XIV: Vivace, sciolto
46. Var XV: L‚istesso tempo
47. Var XVI: Scherzando
48. Var XVII: Più mosso, semplice
49. Var XVIII: Grazioso
50. Var XIX: Leggiero e vivace, alla Siciliana
51. Var XX: Andante espressivo, legato
52. Var XXI: Allegretto vivace, dolce/leggiero
53. Var XXII: Alla Musette
54. Var XXIII: Vivace, sospetto, vivace e staccato
55. Var XXIV: L‚istesso tempo, tumultuoso, feroce
56. Var XXV: Poco più lento, festivo, fieramente, con tutta forza
57. Fuga: Allegro sostenuto e fermo

29. Variations Op. 9 & 21 - Wolfram Schmitt-Leonardy, piano

VARIATIONS ON AN ORIGINAL THEME in D major Op 21 No 1 (1856-57)
1. Thema: Poco larghetto, poco forte, molto espressivo e legato
2. Var I: Molto piano e legato
3. Var II: Più moto, espressivo
4. Var III: Dolce
5. Var IV: [Poco più lento] Dolce
6. Var V: Tempo di tema, Canone in moto contrario, molto dolce, teneramente
7. Var VI: Più moto, espressivo, legato
8. Var VII: Andante con moto, dolce
9. Var VIII: Allegro non troppo
10. Var IX
11. Var X: Espressivo agitato
12. Var XI: Tempo di tema, poco più lento, dolce
VARIATIONS ON A HUNGARIAN SONG in D major Op 21 No 2 (? 1853-54)
13. Allegro
14. Var I
15. Var II
16. Var III
17. Var IV
18. Var V: Con espressione
19. Var VI
20. Var VII: Poco più lento, dolce espressivo/quasi pizzicato
21. Var VIII: [Ancora un poco più lento] Espressivo, dolce
22. Var IX: Dolce
23. Var X: Legato, dolce
24. Var XI: Dolce
25. Var XII: Espressivo
26. Var XIII: Con forza-Allegro (il doppio Movimento)-Tempo I più animato
VARIATIONS ON A THEME OF ROBERT SCHUMANN in F sharp minor, Op 9 (1854)
27. Thema: Ziemlich langsam
28. Var I
29. Var II: Poco più moto, espressivo/staccato e leggiero
30. Var III: Tempo di tema
31. Var IV: Poco più moto, espressivo/leggiero
32. Var V: Allegro capriccioso
33. Var VI: Allegro
34. Var VII: Andante
35. Var VIII: Andante (non troppo lento), espressivo
36. Var IX: Schnell
37. Var X: Poco Adagio, espressivo dolce
38. Var XI: Un poco più animato, sempre pianissimo dolcissimo
39. Var XII: Allegretto, poco scherzando, staccato e leggiero
40. Var XIII: Non troppo Presto, molto leggiero
41. Var XIV: Andante, expressivo/staccato e leggiero
42. Var XV: Poco Adagio, espressivo
43. Var XVI: Adagio

30. Ballades, Rhapsodies, Klavierstucke Op. 76 Hakon Austbo, piano

BALLADES Op. 10
1. No. 1 in D minor: Andante “Edward”
2. No. 2 in D major: Andante
3. No. 3 in B minor: Intermezzo, allegro
4. No. 4 in B major: Andante con moto
RHAPSODIES Op. 79
5. No. 1 in B minor: Agitato
6. No. 2 in G minor: Molto passionato
KLAVIERSTÜCKE Op. 76
7. Capriccio in F sharp minor: Un poco agitato
8. Capriccio in B minor: Allegretto non troppo
9. Intermezzo in A flat major: Grazioso
10. Intermezzo in B flat major: Allegretto grazioso
11. Capriccio in C sharp minor: Agitato, ma non troppo presto
12. Intermezzo in A major: Andante con moto
13. Intermezzo in A minor: Moderato semplice
14. Capriccio in C major: Grazioso ed un poco vivace

31. Klavierstucke Op. 116-119 Hakon Austbo, piano

FANTASIEN Op. 116
1. Capriccio in D minor: Presto energico
2. Intermezzo in A minor: Andante
3. Capriccio in G minor: Allegro passionato
4. Intermezzo in E major: Adagio
5. Intermezzo in E minor: Andante con grazia ed intimissimo sentimento
6. Intermezzo in E major: Andantino teneramente
7. Capriccio in D minor: Allegro agitato
INTERMEZZI Op. 117
8. No. 1 in E flat major: Andante moderato
9. No. 2 in B flat minor: Andante non troppo
10. No. 3 in C sharp minor: Andante con moto
KLAVIERSTÜCKE Op. 118
11. Intermezzo in A minor: Allegro non assai
12. Intermezzo in A major: Andante teneramente
13. Ballade in G minor: Allegro energico
14. Intermezzo in F minor: Allegretto un poco agitato
15. Romanze in F major: Andante
16. Intermezzo in E flat minor: Andante, largo e mesto
KLAVIERSTÜCKE Op. 119
17. Intermezzo in B minor: Adagio
18. Intermezzo in E minor: Andantino un poco agitato
19. Intermezzo in C major: Grazioso e giocoso
20. Rhapsodie in E flat major: Allegro risoluto

32. Miscellaneous Piano Pieces I Louis Demetrius Alvanis, piano

Hungarian Dances for piano solo
1. No. 1 in G minor
2. No. 2 in D minor
3. No. 3 in F major
4. No. 4 in F sharp minor
5. No. 5 in F sharp minor
6. No. 6 in D flat major
7. No. 7 in F major
8. No. 8 in A minor
9. No. 9 in E minor
10. No. 10 in E major
5 Piano Studies
11. After an Study by Chopin (Op. 25 No. 2 in F minor)
12. After a Rondo by von Weber (Finale of Piano Sonata in C major)
13. After a Presto by J.S. Bach, first version (Finale of Solo Violin Sonata BWV 1001)
14. After a Presto by J.S. Bach, second version (Finale of Solo Violin Sonata BWV 1001)
15. After Chaconne by J.S. Bach, for the left hand (from Violin Partita No. 2 in D minor, BWV 1016)

33. Miscellaneous Piano Pieces II Louis Demetrius Alvanis, piano

Hungarian Dances for piano solo
1. No. 11 in D minor
2. No. 12 in D minor
3. No. 13 in D major
4. No. 14 in D minor
5. No. 15 in B flat major
6. No. 16 in F minor
7. No. 17 in F sharp minor
8. No. 18 in D major
9. No. 19 in B minor
10. No. 20 in E minor
11. No. 21 in E minor
12. Sarabande No. 1 in A minor
13. Sarabande No. 2 in B minor
14. Gavotte No. 1 in A minor
15. Gavotte No. 2 in A major
16. Gigue No. 1 in A minor
17. Gigue No. 2 in B minor
18. Transcription of a Gavotte by Gluck
19. Study after an Impromptu by Schubert Op. 90 No. 2
20. Theme & Variations in D minor (arrangement of slow movement from String Sextet Op. 18)

34. Ein deutsches Requiem Tomova-Sintov/Leib; Rundfunk Sinfonieorchester Berlin, Koch

1. Selig sind, die da Leid tragen (chorus)
2. Denn alles Fleisch, es ist wie Gras (chorus)
3. Herr, lehre doch mich (baritone, chorus)
4. Wie lieblich sind deine Wohnungen (chorus)
5. Ihr habt nun Traurigkeit (soprano, chorus)
6. Denn wir haben hier keine bleibende Statt (baritone, chorus)
7. Selig sind die Toten (chorus)

35. Triumphlied, Ave Maria, Schicksalslied, Nänie, Begräbnisgesang Bo Skovhus; Danish National Choir & Symphony Orchestra, Gerd Albrecht

Triumphlied, Op. 55 For 8-part Chorus & Orchestra
1. Lebhaft und feierlich-animato
2. Mässig belebt-Lebhaft-Ziemlich langsam, doch nicht schleppend
3. Lebhaft-Etwas lebhafter-Feierlich
4. Ave Maria, Op. 12 (Andante)
5. Schicksalslied, Op. 54: Langsam und sehnsuchtsvoll-Allegro-Adagio
6. Nänie Op. 82: Andante-Piu sostenuto-Tempo I
7. Begräbnisgesang Op. 13

36. Gesang der Parzen, Alto Rhapsody, Rinaldo Anna Larsson; Danish National Choir & Symphony Orchestra, Gerd Albrecht

1. Gesang der Parzen, Op. 89
2. Rhapsody for Contralto, Male Chorus & Orchestra, Op. 53
Rinaldo, Cantata for Tenor Solo, Male Chorus & Orchestra, Op. 50
3. Allegro
4. Poco adagio
5. Allegretto non troppo
6. Andante con moto e poco rubato
7. Allegro

37. Works for Choir a Cappella Chamber Choir of Europe, Nicol Matt

Liebeslieder-Walzer Op. 52
1 1. Rede Mädchen, allzu liebes
2 2. Am Gesteine rauscht die Flut
3 3. O die Frauen
4 4. Wie des Abends schöne Röte
5 5. Die grüne Hopfenranke
6 6. Ein kleiner, hübscher Vogel
7 7. Wohl schön bewandt war es
8 8. Wenn so lind dein Auge mir
9 9. Am Donaustrande
10 10. O wie sanft die Quelle
11 11. Nein, es ist nicht auszukommen
12 12. Schlosser auf und mache Schlösser
13 13. Vögelein durchrauscht die Luft
14 14. Sieh, wie ist die Welle klar
15 15. Nachtigall, sie singt so schön
16 16. Ein dunkeler Schacht ist Liebe
17 17. Nicht wandle, mein Licht
18 18. Es bebet das Gesträuche
Neue Liebeslieder Op. 65
19 1. Verzicht, o Herz, auf Rettung
20 2. Finstere Schatten der Nacht
21 3. An jeder Hand die Finger
22 4. Ihr schwarzen Augen
23 5. Wahre, wahre deinen Sohn
24 6. Rosen steckt mir an die Mutter
25 7. Vom Gebirge Well auf Well
26 8. Weiche Gräser im Revier
27 9. Nagen am Herzen fühl ich
28 10. Ich kose süß mit der und der
29 11. Alles, alles in den Wind
30 12. Schwarzer Wald, dein Schatten
31 13. Nein, Geliebter, setze dich
32 14. Flammenauge, dunkles Haar
33 15. Zum Schluss: Nun, ihr Musen, genug

38. Works for Choir a Cappella Chamber Choir of Europe, Nicol Matt

Drei Quartette Op. 31 (1864)
1 1. Wechsellied zum Tanze
2 2. Neckereien
3 3. Gang zum Liebchen
Drei Quartette Op. 64 (1874)
4 1. An die Heimat
5 2. Der Abend
6 3. Fragen
Vier Quartette Op. 92 (1889)
7 1. O schöne Nacht
8 2. Spätherbst
9 3. Abendlied
10 4. Warum
Zwei Quartette Op. 112a (1891)
11 1. Sehnsucht
12 2. Nächtens

39. Works for Choir a Cappella Chamber Choir of Europe, Nicol Matt

Weltliche a-cappella-Gesänge/Secular a-cappella choral works Op. 42
1 1. Abenständchen
2 2. Vineta
3 3. Darthulas Grabgesang
Sieben Lieder Op. 62
4 1. Rosmarin
5 2. Von alten Liebesliedern
6 3. Waldesnacht
7 4. Dein Herzlein mild
8 5. All meine Herzgedanken
9 6. Es geht ein Wehen
10 7. Vergangen ist mir Glück und Heil
Sechs Lieder und Romanzen Op. 93a
11 1. Der bucklichte Fiedler
12 2. Das Mädchen
13 3. O süßer Mai
14 4. Fahr wohl
15 5. Der Falke
16 6. Beherzigung
Fünf Gesänge Op. 104
17 1. Nachtwache I
18 2. Nachtwache II
19 3. Letztes Glück
20 4. Verlorene Jugend
21 5. Im Herbst

40. Works for Choir a Cappella Chamber Choir of Europe, Nicol Matt

Vierzehn Volkslieder/14 Folk Songs, WoO 34
1 1. Von edler Art
2 2. Mit Lust tät ich ausreiten
3 3. Bei nächtlicher Weil
4 4. Vom heiligen Mätyrer Emmerano
5 5. Täublein weiß
6 6. Ach lieber Herre Jesu Christ
7 7. St. Raphael
8 8. In stiller Nacht
9 9. Abschiedslied
10 10. Der tote Knabe
11 11. Die Wollust im Maien
12 12. Morgengesang
13 13. Schnitter Tod
14 14. Der englische Jäger
Zwölf deutsche Volkslieder/12 German Folk Songs, WoO 35
15 1. Scheiden
16 2. Wach auf!
17 3. Erlaube mir
18 4. Der Fiedler
19 5. Da unten im Tale
20 6. Des Abends
21 7. Wach auf! (2. Bearbeitung)
22 8. Dort in den Weiden
23 9. Altes Volkslied
24 10. Der Ritter und die Fein
25 11. Der Zimmergesell
26 12. Altdeutsches Kampflied

41. Works for Choir a Cappella Chamber Choir of Europe, Nicol Matt

Zigeunerlieder/Gypsy Songs Op. 103
1 1. He, Zigeuner
2 2. Hochgetürmte Rimaflut
3 3. Wisst ihr, wann mein Kindchen
4 4. Lieber Gott, du weißt
5 5. Brauner Bursche
6 6. Röslein dreie in der Reihe
7 7. Kommt dir manchmal in Sinn
8 8. Horch, der Wind klagt in den Zweigen
9 9. Weit und breit schaut niemand mich an
10 10. Mond verhüllt sein Angesicht
11 11. Rote Abendwolken ziehn
Zigeunerlieder/Gypsy Songs Op. 112b (Nr. 3-6)
12 3. Himmel strahlt so helle und klar
13 4. Rote Rosenknospen künden
14 5. Brennessel steht an Weges Rand
15 6. Liebe Schwalbe, kleine Schwalbe
Sieben Volkslieder für Vorsänger, Chor und Klavier/Seven folk songs for soloists, choir & piano, WoO 33
16 1. Es stunden drei Rosen
17 2. Dem Himmel will ich klagen
18 3. Es saß ein schneeweiß Vögelein
19 4. Es war einmal ein Zimmergesell
20 5. Es ging sich unsre Fraue
21 6. Nachtigall, sag
22 7. Verstohlen geht der Mond auf
23 Tafellied/Table song Op. 93b
24 Kleine Hochzeitskantate/Little Wedding Cantata
25 Dem dunkeln Schoß der Erde

42. Works for Choir a Cappella Chamber Choir of Europe, Nicol Matt

Zwei Motetten/Two Motets Op. 29
1 1. Es ist das Heil uns kommen her
2 2. Schaffe in mir, Gott
3 Geistliches Lied op. 30
Zwei Motetten/Two Motets Op. 74
4 1. Warum ist das Licht gegeben
5 2. O Heiland, reiß die Himmel auf
Drei Motetten/Three Motets Op. 110
6 1. Ich aber bin elend
7 2. Ach arme Welt, du trügest mich
8 3. Wenn wir in höchsten Nöten sein
Missa canonica WoO 18
9 1. Kyrie
10 2. Sanctus
11 3. Benedictus
12 4. Agnus Dei

43. Works for Choir a Cappella Chamber Choir of Europe, Nicol Matt

Marienlieder Op. 22
1 1. Der englische Gruß
2 2. Marias Kirchgang
3 3. Marias Wallfahrt
4 4. Der Jäger
5 5. Ruf zur Maria
6 6. Magdalena
7 7. Marias Lob
Fest- und Gedenksprüche Op. 109
8 1. Unsere Väter hofften auf dich
9 2. Wenn ein starker Gewappneter
10 3. Wo ist ein so herrlich Volk
Fünf Lieder Op. 41 für Männerchor
11 1. Ich schwing mein Horn
12 2. Freiwillige her!
13 3. Geleit
14 4. Marschieren
15 5. Gebt Acht!
12 Lieder und Romanzen Op. 44
für Frauenchor

16 1. Minnelied
17 2. Der Bräutigam
18 3. Barcarole
19 4. Fragen
20 5. Die Müllerin
21 6. Die Nonne
Vier Lieder aus dem „Jungbrunnen“ (7.-10.)
22 7. Nun stehen die Rosen in Blüte
23 8. Die Berge sind spitz
24 9. Am Wildbach die Weiden
25 10. Und gehst du über den Kirchhof
26 11. Die Braut
27 12. Märznacht

44. Works for Choir a Cappella Chamber Choir of Europe, Nicol Matt

1 Ave Maria op. 12
2 Der 13. Psalm „Herr, wie lange“ Op. 27
Drei geistliche Chöre/3 sacred choruses, Op. 37
3 1. O bone Jesu
4 2. Adoramus te
5 3. Regina coeli
Gesänge für Frauenchor, 2 Hörner und Harfe/Choruses for female voices, 2 horns & harp, Op. 17
6 1. Es tönt ein voller Harfenklang
7 2. Lied
8 3. Der Gärtner
9 4. Gesang aus Ossians „Fingal“
10-22 13 Kanons Op. 113

45. Songs & Duets Christian Elsner, tenor; Ingeborg Danz, alto Michael Volle, baritone; Stephanie Iranyi, mezzo-soprano; Robert Morvai, tenor Lenneke Ruiten, soprano; Michael Nagy, baritone Rebekka Stöhr, mezzo-soprano Antonia Bourvé.

1. Op. 43 No. 1: Von ewiger Liebe (Wenzig)
2. Op. 72 No. 1: Alte Liebe (Candidus)
3. Op. 63 No. 8: Heimweh II (Groth)
4. Op. 86 No. 4: Über die Heide (Storm)
5. Op. 96 No. 1: Der Tod, das ist die kühle Nacht (Heine)
6. Op. 72 No. 4: Verzagen (Lemcke)
7. No. 3: O kühler Wald (Brentano)
8. Op. 32 No. 6: Du sprichst, daß ich mich täuschte
9. Op. 105 No. 4: Auf dem Kirchhofe (Liliencron)
10. Op. 43 No. 2: Die Mainacht (Hölty)
11. Op. 105 No. 1: Wie Melodien zieht es mir (Groth)
12. Op .86 No. 2: Feldeinsamkeit (Allmers)
13. Op. 97 No. 5: Komm bald
14. Op. 47 No. 3: Sonntag (Uhland)
15. Op. 103 No. 1: Zigeunerlieder He, Zigeuner
16. No. 2: Hochgetürmte Rimaflut
17. No. 3: Wisst ihr, wann mein Kindchen
18. No. 4: Lieber Gott, du weißt
19. No. 5: Brauner Bursche
20. No. 6: Röslein dreie in der Reihe
21. No. 7: Kommt dir manchmal in Sinn
22. No. 8: Horch, der Wind klagt in den Zweigen

46. Songs & Duets Christian Elsner, tenor; Ingeborg Danz, alto Michael Volle, baritone; Stephanie Iranyi, mezzo-soprano; Robert Morvai, tenor Lenneke Ruiten, soprano; Michael Nagy, baritone Rebekka Stöhr, mezzo-soprano Antonia Bourvé.

1. Op.84 No. 4: Vergebliches Ständchen Nold, Elsner
2. WoO 33 No. 38:Des Abends kann ich nicht schlafen gehn Nold, Elsner
3. WoO 33 No. 2: Erlaube mir, feins Mädchen Elsner
4. WoO 33 No. 31:Dort in den Weiden steht ein Haus Nold
5. WoO 33 No. 40:Ich weiß mir'n Maidlein Elsner
6. WoO 33 No. 12: Feinsliebchen Nold, Elsner
7. WoO 33 No. 25:Mein Mädel hat einen Rosenmund Elsner
8. WoO 33 No. 11: Jungfräulein, soll ich mit euch gehn Nold, Elsner
9. WoO 33 No. 30:All mein Gedanken Nold
10. WoO 33 No. 16:Wach auf mein Herzensschöne Elsner
11. WoO 33 No. 34:Wie komm ich denn zur Tür herein Nold, Elsner
12. WoO 33 No. 18:So wünsch ich ihr ein gute Nacht Nold, Elsner
13. WoO 33 No. 35:Soll sich der Mond nicht heller scheinen Nold, Elsner
14. WoO 33 No. 5: Die Sonne scheint nicht mehr Nold
15. WoO 33 No. 15:Schwesterlein Nold, Elsner
16. Op. 48 No. 1: Der Gang zum Liebchen (Volksweise) Elsner
17. WoO 33No. 41:Es steht ein Lind Nold
18. WoO 33 No. 6: Da unten im Tale Nold, Elsner
19. WoO 33 No. 21:Es ging ein Maidlein zarte Nold
20. Op. 14 No. 2: Vom verwundeten Knaben Nold, Elsner
21. WoO 33 No. 17:Ach, Gott, wie weh tut Scheiden Nold, Elsner
22. WoO 33 No. 42:In stiller Nacht Elsner

47. Songs & Duets Christian Elsner, tenor; Ingeborg Danz, alto Michael Volle, baritone; Stephanie Iranyi, mezzo-soprano; Robert Morvai, tenor Lenneke Ruiten, soprano; Michael Nagy, baritone Rebekka Stöhr, mezzo-soprano Antonia Bourvé.

1. Op. 3 No. 1: Liebestreu
2. Op. 14 No. 1: Vor dem Fenster
3. Op. 19 No. 4: Der Schmied
4. Op. 32 No. 8: So stehn wir, ich und meine Weide
5. Op. 46 No. 4: An die Nachtigall
WoO 22 Fünf Ophelia Lieder
6. No. 1: Wie erkenn ich Dein Treulieb
7. No. 2: Sein Leichenhemd
8. No. 3: Auf morgen ist Sankt Valentinstag
9. No. 4: Sie trugen ihn auf der Bahre bloß
10. No. 5: Und kommt er nicht mehr zurück
11. Op. 59 No. 2: Auf dem See
12. No. 5: Agnes
13. No. 8: Dein blaues Auge
14. Op. 63 No. 5: Junge Lieder I
15. Op. 86 No. 1: Therese
16. Op. 91 No. 1: Gestillte Sehnsucht (Viola)
17. No. 2: Geistliches Wiegenlied (Viola)
18. Op. 94 No. 4: Sapphische Ode
19. WoO 23 Regentropfen aus den Bäumen
20. Op. 95 No. 4: Der Jäger
21. Op. 105 No. 2: Immer leiser wird mein Schlummer
22. Op. 107 No. 2: Salamander
23. No. 3. Das Mädchen spricht
24. No. 5. Mädchenlied
25. Op. 49 No. 4: Wiegenlied

48. Songs & Duets Christian Elsner, tenor; Ingeborg Danz, alto Michael Volle, baritone; Stephanie Iranyi, mezzo-soprano; Robert Morvai, tenor Lenneke Ruiten, soprano; Michael Nagy, baritone Rebekka Stöhr, mezzo-soprano Antonia Bourvé.

1. Op. 32 No. 2: Nicht mehr zu dir zu gehen
2. No. 9: Wie bist du, meine Königin
3. Op. 47 No. 1: Botschaft
4. No. 2: Liebesglut
5. Op. 57 No. 1: Von waldbekränzter Höhe
6. No. 2: Wenn du nur zuweilen lächelst
7. No. 3: Es träumte mir
8. No. 4: Ach, wende diesen Blick
9. No. 5: In meiner Nächte Sehnen
10. No. 6: Strahlt zuweilen auch ein mildes Licht
11. No. 7: Die Schnur, die Perl an Perle
12. No. 8: Unbewegte laue Luft
13. Op. 59 No. 6: Eine gute, gute Nacht
14. Op. 95 No. 7: Schön war, das ich dir weihte
15. Op. 96 No. 2: Wir wandelten 3
Vier ernste Gesänge Op. 121
16. No. 1: Denn es gehet dem Menschen
17. No. 2: Ich wandte mich und sahe an alle
18. No. 3: O Tod, o Tod, wie bitter bist du
19. No. 4: Wenn ich mit Menschen- und mit Engelszungen redete

49. Songs & Duets Christian Elsner, tenor; Ingeborg Danz, alto Michael Volle, baritone; Stephanie Iranyi, mezzo-soprano; Robert Morvai, tenor Lenneke Ruiten, soprano; Michael Nagy, baritone Rebekka Stöhr, mezzo-soprano Antonia Bourvé.

1. Op. 69 No. 1: Klage
2. No. 2: Klage
3. No. 3: Abschied
4. No. 4: Des Liebsten Schwur
5. No. 5: Tambourliedchen
6. No. 6: Vom Strande
7. No. 7: Über die See
8. No. 8: Salome
9. No. 9: Mädchenfluch
10. Op. 19 No. 5: An ein Äolsharfe
11. Op. 48 No. 7: Herbstgefühl
12. Op. 49 No. 5: Abenddämmerung
13. Op. 59 No. 1: Dämmrung senkte sich von oben
14. No. 7: Mein wundes Herz
15. Op. 7 No. 1: Treue Liebe
16. No. 2: Parole
17. No. 3: Anklänge
18. No. 4: Volkslied
19. No. 5: Die Trauernde
20. No. 6: Heimkehr
21. WoO 21 Mondnacht
22. Op. 70 No. 2: Lerchengesang
23. Op. 71 No. 3: Geheimnis
24. Op. 85 No. 6: In Waldeseinsamkeit
25. Op. 96 No. 4: Meerfahrt
26. Op. 106 No. 1: Ständchen

50. Songs & Duets Christian Elsner, tenor; Ingeborg Danz, alto Michael Volle, baritone; Stephanie Iranyi, mezzo-soprano; Robert Morvai, tenor Lenneke Ruiten, soprano; Michael Nagy, baritone Rebekka Stöhr, mezzo-soprano Antonia Bourvé.

1. Op. 28 No. 1: Die Nonne und der Ritter Irányi, Volle
2. No. 2: Vor der Tür Irányi, Volle
3. No. 3: Es rauschet das Wasser Irányi, Volle
4. No. 4: Der Jäger und sein Liebchen Irányi, Volle
5. WoO 33 No. 1: Sagt mir, o schönste Schäf'rin mein Irányi, Volle
6. No. 3: Gar lieblich hat sich gesellet Volle
7. No. 4: Guten Abend, mein tausiger Schatz Irányi, Volle
8. No. 7: Gunhilde Irányi
9. No. 8: Ach, englische Schäferin Irányi, Volle
10. No. 9: Es war eine schöne Jüdin Irányi, Volle
11. No. 10: Es ritt ein Ritter Irányi, Volle
12. No. 13: Wach auf, mein Hort Irányi, Volle
13. No. 14: Maria ging aus wandern Irányi
14. No. 19: Nur ein Gesicht auf Erden lebt Volle
15. No. 20: Schönster Schatz, mein Engel Volle
16. No. 22: Wo gehst du hin, du Stolze? Volle
17. No. 23: Der Reiter Irányi, Volle
18. No. 24: Mir ist ein schöns brauns Maidelein Volle
19. No. 26: Ach könnt ich diesen Abend Irányi, Volle
20. No. 27: Ich stand auf hohem Berge Irányi, Volle
21. No. 28: Es reit ein Herr und auch sein Knecht Irányi, Volle
22. No. 29: Es war ein Markgraf überm Rhein Irányi
23. No. 32: So will ich frisch und fröhlich sein Volle
24. No. 33: Och Moder, ich well ein Ding han Irányi
25. No. 36: Es wohnet ein Fiedler Irányi
26. No. 37: Du mein einzig Licht Volle
27. No. 39: Schöner Augen schöne Strahlen Volle

51. Songs & Duets Christian Elsner, tenor; Ingeborg Danz, alto Michael Volle, baritone; Stephanie Iranyi, mezzo-soprano; Robert Morvai, tenor Lenneke Ruiten, soprano; Michael Nagy, baritone Rebekka Stöhr, mezzo-soprano Antonia Bourvé.

1. Op .20 No. 1:Weg der Liebe
2. No. 2:Weg der Liebe
3. No. 3:Die Meere
4. Op. 61 No. 1:Die Schwestern
5. No. 2:Klosterfräulein
6. No. 3:Phänomen
7. No. 4:Die Boten der Liebe
8. Op. 66 No. 1:Klänge
9. No. 2:Klänge
10. No. 3:Am Strande
11. No. 4: Jägerlied
12. Op. 84 No. 1:Sommerabend
13. No. 2:Der Kranz
14. No. 3: In den Beeren
15. No. 4:Vergebliches Ständchen
16. No. 5:Spannung
17. Op. 75 No. 4:Walpurgisnacht
18. No. 2:Guter Rat
19. Op. 66 No. 5:Hüt du dich!

52. Songs & Duets Christian Elsner, tenor; Ingeborg Danz, alto Michael Volle, baritone; Stephanie Iranyi, mezzo-soprano; Robert Morvai, tenor Lenneke Ruiten, soprano; Michael Nagy, baritone Rebekka Stöhr, mezzo-soprano Antonia Bourvé.

15 Romances from Tieck's Liebesgeschichte der schönen Magelone Op. 33
(Solo Voice, Piano)
1. Text: In der Provence...
2. Musik: Keinen hat es noch gereut
3. Text: Der junge Mann...
4. Musik: Traun! Bogen und Pfeil sind gut für den Feind
5. Text: Er kam nach vielen Tagereisen...
6. Musik: Sind es Schmerzen, sind es Freuden
7. Text: In derselben Nacht...
8. Musik: Liebe kam aus fernen Landen
9. Text : "Daß du dich einem Fremden...
10. Musik: So willst du des Armen
11. Text: Der Ritter befand sich...
12. Musik: Wie soll ich die Freude, die Wonne denn tragen?
13. Text: Jetzt war die Stunde gekommen...
14. Musik: War es dir, dem diese Lippen bebten
15. Text: Peter hatte seine Geliebte...
16. Musik: Wir müssen uns trennen
17. Text: Die Nacht war gekommen. ...
18. Musik: Ruhe, Süßliebchen
19. Text: Peter war durch seinen Gesang...
20. Musik: Verzweiflung - "So tönet denn, schäumende Wellen"
21. Text: Magelone erwachte. ...
22. Musik: Wie schnell verschwindet so iLicht als Glanz
23. Text: Peter auf seinem Kahn...
24. Musik: Muss es ein Trennung geben
25. Text: Peter war nun schon lange...
26. Musik: Sulima - "Geliebter, wo zaudert"
27. Text: Peter ruderte stärker...
28. Musik: Wie froh und frisch
29. Text: Die Fahrt war glücklich...
30. Musik: Treue Liebe dauert lange

53. Songs & Duets Christian Elsner, tenor; Ingeborg Danz, alto Michael Volle, baritone; Stephanie Iranyi, mezzo-soprano; Robert Morvai, tenor Lenneke Ruiten, soprano; Michael Nagy, baritone Rebekka Stöhr, mezzo-soprano Antonia Bourvé.

1. Op. 49 No. 2: An ein Veilchen
2. Op. 6 No. 2: Der Frühling
3. Op. 14 No. 8: Sehnsucht
4. Op. 85 No. 1: Sommerabend
5. No. 2: Mondenschein
6. Op. 19 No. 1: Der Kuß
7. Op. 14 No. 6: Gang zur Liebsten
8. No. 5: Trennung
9. Op. 19 No. 2: Scheiden und Meiden
10. No. 3: In der Ferne
11. Op. 97 No. 3: Entführung
12. Op. 47 No. 4: O liebliche Wangen
13. Op. 71 No. 1: Es liebt sich so lieblich im Lenze
14. Op. 106 No. 3: Es hing der Reif
15. Op. 95 No. 2: Bei dir sind meine Gedanken
16. Op. 70 No. 4: Abendregen
17. Op. 43 No. 4: Das Lied vom Herrn von Falkenstein
18. Op. 70 No. 1: Im Garten am Seegestade
19. Op. 97 No. 2: Auf dem Schiffe
20. Op. 106 No. 4: Meine Lieder
21. Op. 32 No. 3: Ich schleich umher
22. Op. 6 No. 5: Wie die Wolke nach der Sonne
23. Op. 48 No. 5: Trost in Tränen
24. Op. 106 No. 2: Auf dem See
25. Op. 3 No. 6: Lied
26. Op. 49 No. 3: Sehnsucht
27. Op. 6 No. 3: Nachwirkung
28. Op. 86 No. 6: Todessehnen

54. Songs & Duets Christian Elsner, tenor; Ingeborg Danz, alto Michael Volle, baritone; Stephanie Iranyi, mezzo-soprano; Robert Morvai, tenor Lenneke Ruiten, soprano; Michael Nagy, baritone Rebekka Stöhr, mezzo-soprano Antonia Bourvé.

1. Op. 85 No. 5: Frühlingslied
2. Op. 70 No. 3: Serenade
3. Op. 96 No. 3: Es schauen die Blumen
4. Op. 59 No. 3: Regenlied
5. No. 4: Nachklang
6. Op. 48 No. 3: Liebesklage des Mädchens
7. No. 4: Gold überwiegt die Liebe
8. Op. 14 No. 4: Ein Sonett
9. No. 7: Ständchen
10. No. 8: Sehnsucht
11. Op. 32 No. 7: Bitteres zu sagen denkst du
12. Op. 63 No. 1: Frühlingstrost
13. No. 2: Erinnerung
14. No. 6: Junge Lieder II
15. No. 7: Heimweh I
16. Op. 97 No. 1: Nachtigall
17. No. 4: Dort in den Weiden
18. No. 6: Trennung
19. Op. 6 No. 1: Spanisches Lied
20. No. 4: Juchhe!
21. No. 6: Nachtigallen schwingen lustig
22. Op. 49 No. 1: Am Sonntag Morgen
23. Op. 95 No. 1: Das Mädchen
24. No. 3: Beim Abschied
25. No. 5: Vorschneller Schwur
26. No. 6: Mädchenlied
27. Op. 107 No. 4: Maienkätzchen

55. Songs & Duets Christian Elsner, tenor; Ingeborg Danz, alto Michael Volle, baritone; Stephanie Iranyi, mezzo-soprano; Robert Morvai, tenor Lenneke Ruiten, soprano; Michael Nagy, baritone Rebekka Stöhr, mezzo-soprano Antonia Bourvé.

28 deutsche Volkslieder WoO 32
1. Die Schnürbrust
2. Der Jäger
3. Drei Vögelein
4. Auf, gebet uns das Pfingstei
5. Des Markgrafen Töchterlein
6. Der Reiter
7. Die heilige Elisabeth
8. Der englische Gruß
9. Ich stund an einem Morgen
10. Gunhilde
11. Der tote Gast
12. Tageweis vor einer schönen Frauen
13. Schifferlied
14. Nachtgesang
15. Die beiden Königskinder
16. Scheiden
17. Altes Minnelied
18. Der getreue Eckart
19. Die Versuchung
20. Der Tochter Wunsch
21. Schnitter Tod
22. Marias Wallfahrt
23. Das Mädchen und der Tod
24. Es ritt ein Ritter
25. Liebeslied
26. Guten Abend, mein tausiger Schatz
27. Die Wollust in den Maien
28. Es reit ein Herr und auch sein Knecht

56. Songs & Duets Christian Elsner, tenor; Ingeborg Danz, alto Michael Volle, baritone; Stephanie Iranyi, mezzo-soprano; Robert Morvai, tenor Lenneke Ruiten, soprano; Michael Nagy, baritone Rebekka Stöhr, mezzo-soprano Antonia Bourvé.

1. Op. 3 No. 4: Lied Antonia Bourvé
2. Op. 32 No. 5: Wehe, so willst du mich wieder Rebekka Stöhr
3. Op. 47 No. 5: Die Liebende schreibt Antonia Bourvé
4. Op. 58 No. 1: Blinde Kuh Rebekka Stöhr
5. No. 2: Während des Regens Antonia Bourvé
6. No. 3: Die Spröde Rebekka Stöhr
7. No. 4: O komme, holde Sommernacht Antonia Bourvé
8. No. 5: Schwermut Rebekka Stöhr
9. No. 6: In der Gasse Rebekka Stöhr
10. No. 7: Vorüber Antonia Bourvé
11. No. 8: Serenade Antonia Bourvé
12. Op. 72 No. 2: Sommerfäden Rebekka Stöhr
13. Op. 75 No. 1: Edward Rebekka Stöhr, Daniel Sans
14. No. 3: So lass uns wandern Rebekka Stöhr, Daniel Sans
15. Op. 85 No. 3: Mädchenlied Antonia Bourvé
16. No. 4: Ade! Antonia Bourvé
17. Op. 105 No. 3: Klage Rebekka Stöhr
WoO 31 Volks-Kinderlieder
18. No. 1: Dornröschen Rebekka Stöhr
19. No. 2: Die Nachtigall Antonia Bourvé
20. No. 3: Die Henne Rebekka Stöhr
21. No. 4: Sandmännchen Antonia Bourvé
22. No. 5: Der Mann Rebekka Stöhr
23. No. 6: Heidenröslein Antonia Bourvé
24. No. 7: Das Schlaraffenland Rebekka Stöhr
25. No. 8: Beim Ritt auf dem Knie Rebekka Stöhr
26. No. 9: Der Jäger in dem Walde Rebekka Stöhr
27. No. 10: Das Mädchen und die Hasel Antonia Bourvé
28. No. 11: Wiegenlied Antonia Bourvé
29. No. 12: Weihnachten Bourvé/Stöhr
30. No. 13: Marienwürmchen Antonia Bourvé
31. No. 14: Dem Schutzengel Antonia Bourvé

57. Songs & Duets Christian Elsner, tenor; Ingeborg Danz, alto Michael Volle, baritone; Stephanie Iranyi, mezzo-soprano; Robert Morvai, tenor Lenneke Ruiten, soprano; Michael Nagy, baritone Rebekka Stöhr, mezzo-soprano Antonia Bourvé.

1. Op. 46 No. 1: Die Kränze
2. No. 2: Magyarisch
3. No. 3: Die Schale der Vergessenheit
4. Op. 85 No. 5: Frühlingslied
5. Op. 3 No. 2: Liebe und Frühling I
6. No. 3: Liebe und Frühling II
7. No. 5: In der Fremde
8. Op. 94 No. 1: Mit vierzig Jahren ist der Berg
9. No. 2: Steig auf, geliebter Schatten
10. No. 3: Mein Herz ist schwer
11. No. 5: Kein Haus, keine Heimat
12. Op. 43 No. 3: Ich schell mein Horn ins Jammertal
13. Op. 32 No. 1: Wie rafft ich mich auf in der Nacht
14. No. 4: Der Strom, der neben mir verrauschte
15. Op. 106 No. 5: Ein Wanderer
16. Op. 48 No. 6: Vergangen ist mir Glück und Heil
17. Op. 72 No. 5: Unüberwindlich
18. Op. 14 No. 3: Murrays Ermordung
19. Op. 105 No. 5: Verrat
20. Op. 86 No. 3: Nachtwandler
21. No. 5: Versunken
22. Op. 71 No. 2: An den Mond
23. No. 4: Willst du, daß ich gehe?
24. No. 5: Minnelied
25. Op. 107 No. 1: An die Stolze

58. Female Choruses Chamber Choir of Europe, Nicol Matt

Volkslieder für 3-4 stimmigen Frauenchor
1. WoO 19 Dein Herzlein mild
2. WoO 36 Nr. 1: Totenklage
3. Nr. 2: Altes Lied
4. Nr. 3: Der todte Gast
5. Nr. 4: Ich hab die Nacht geträumet
6. Nr. 5: Altes Liebeslied
7. Nr. 6: Es waren zwei Königskinder
8. Nr. 7: Spannung
9. Nr. 8: Mit Lust tät ich ausreiten
10. WoO 37 Nr. 1: Schwesterlein, Schwesterlein
11. Nr. 2: Ich hört ein Sichlein rauschen
12. Nr. 3: Es stunden drei Rosen
13. Nr. 4: Ich stand auf hohem Berge
14. WoO 37 Nr. 5: Gunhilde
15. Nr. 6: Der bucklichte Fiedler
16. Nr. 7: Die Versuchung
17. Nr. 8: Altes Minnelied
18. Nr. 9: Die Wollust in den Maien
19. Nr. 10:Da unten im Tale
20. Nr. 11: Der Jäger
21. Nr. 12: Scheiden
22. Nr. 13: Zu Straßburg auf der Schanz
23. Nr. 14:Wach auf, mein Hort
24. Nr. 15:Der Ritter
25. Nr. 16: Ständchen

59. Female Choruses Chamber Choir of Europe, Nicol Matt

Volkslieder für 3-4 stimmigen Frauenchor
1. WoO 38 No. 1: Die Entführung
2. No. 2: Gang zur Liebsten
3. No. 3: Schifferlied
4. No. 4 : Erlaube mir, feins Mädchen
5. No. 5: Schnitter Tod
6. No. 6: Die Bernauerin
7. No. 7: Der eifersüchtige Knabe
8. No. 8: Der Baum im Odenwald
9. No. 9: Des Markgrafen Töchterlein
10. No. 10:Die stolze Jüdin
11. No. 11:Der Zimmergesell
12. WoO 38 No. 12:Liebeslied
13. No. 13:Heimliche Liebe
14. No. 15:Dauernde Liebe
15. No. 16:Während der Trennung
16. No. 17: Morgen muß ich fort von hier
17. No. 18:Scheiden
18. No. 19:Vor dem Fenster
19. No. 20: Ständchen

60. Organ Works Nicholas Danby, Christian Schmitt

Choralvorspiel und Fuge über “O Traurigkeit, o Herzeleid” WoO 7
1. Choralvorspiel
2. Fuge
3. Fugue in A flat minorWoO 8
Präludium & Fuge in G minor WoO 10
4. Präludium
5. Fuge
Choralvorspiele/Chorale Preludes Op. 122
6. Mein Jesu, der du mich
7. Herzliebster Jesu
8. O Welt, ich muss dich lassen
9. Herzlich tut mich erfeuen
10. Schmücke dich, O liebe Seele
11. O wie selig seid ihr doch, ihr Frommen
12. O Gott, du frommer Gott
13. Es ist ein Ros’entsprungen
14. Herzlich tut mich verlangen
15. Herzlich tut mich verlangen
16. O Welt, ich muss dich lassen

Logcd1

Exact Audio Copy V0.99 prebeta 4 from 23. January 2008
EAC extraction logfile from 29. September 2008, 16:51
Johannes Brahms / Complete Works 01of60
Used drive : PLEXTOR DVDR PX-800A Adapter: 0 ID: 1
Read mode : Secure
Utilize accurate stream : Yes
Defeat audio cache : No
Make use of C2 pointers : Yes
Read offset correction : 48
Overread into Lead-In and Lead-Out : No
Fill up missing offset samples with silence : Yes
Delete leading and trailing silent blocks : No
Null samples used in CRC calculations : No
Used interface : Native Win32 interface for Win NT & 2000
Gap handling : Not detected, thus appended to previous track
Used output format : Internal WAV Routines
Sample format : 44.100 Hz; 16 Bit; Stereo
TOC of the extracted CD
Track | Start | Length | Start sector | End sector
---------------------------------------------------------
1 | 0:00.00 | 12:34.71 | 0 | 56620
2 | 12:34.71 | 8:33.04 | 56621 | 95099
3 | 21:08.00 | 4:47.32 | 95100 | 116656
4 | 25:55.32 | 17:13.22 | 116657 | 194153
Track 1
Filename C:\rip\wave\01 Symphony No.1 in C,Op.68-Un poco sostenuto-Allegro-Meno allegro.wav
Peak level 90.8 %
Track quality 100.0 %
Copy CRC 205C57FB
Cannot be verified as accurate (confidence 4) [30EEE22F], AccurateRip returned [D58846E5]
Copy OK
Track 2
Filename C:\rip\wave\02 Symphony No.1 in C,Op.68-Andante sostenuto.wav
Peak level 60.4 %
Track quality 100.0 %
Copy CRC 8408586E
Cannot be verified as accurate (confidence 4) [7EDD5AD4], AccurateRip returned [BEBC4C5E]
Copy OK
Track 3
Filename C:\rip\wave\03 Symphony No.1 in C,Op.68-Un poco allegretto e grazioso.wav
Peak level 82.0 %
Track quality 100.0 %
Copy CRC 08C6DC40
Cannot be verified as accurate (confidence 4) [AF00C9A4], AccurateRip returned [61DCB683]
Copy OK
Track 4
Filename C:\rip\wave\04 Symphony No.1 in C,Op.68-Adagio-Piu andante-Allegro non troppo ma con brio-Piu allegro.wav
Peak level 97.6 %
Track quality 100.0 %
Copy CRC C8DC18D8
Cannot be verified as accurate (confidence 4) [A31E50CC], AccurateRip returned [5BB3D3DD]
Copy OK
No tracks could be verified as accurate
You may have a different pressing from the one(s) in the database
No errors occurred
End of status report

cd2

Exact Audio Copy V0.99 prebeta 4 from 23. January 2008
EAC extraction logfile from 30. September 2008, 11:06
00 Johannes Brahms Edition / Complete Works 02of60
Used drive : PLEXTOR DVDR PX-800A Adapter: 0 ID: 1
Read mode : Secure
Utilize accurate stream : Yes
Defeat audio cache : No
Make use of C2 pointers : Yes
Read offset correction : 48
Overread into Lead-In and Lead-Out : No
Fill up missing offset samples with silence : Yes
Delete leading and trailing silent blocks : No
Null samples used in CRC calculations : No
Used interface : Native Win32 interface for Win NT & 2000
Gap handling : Not detected, thus appended to previous track
Used output format : Internal WAV Routines
Sample format : 44.100 Hz; 16 Bit; Stereo
TOC of the extracted CD
Track | Start | Length | Start sector | End sector
---------------------------------------------------------
1 | 0:00.00 | 21:05.00 | 0 | 94874
2 | 21:05.00 | 9:54.34 | 94875 | 139458
3 | 30:59.34 | 5:32.30 | 139459 | 164388
4 | 36:31.64 | 9:35.43 | 164389 | 207556
Track 1
Filename C:\rip\wave\01 Symphony No.2 in D,Op.73-Allegro non troppo.wav
Peak level 93.4 %
Track quality 100.0 %
Copy CRC 4E551C9A
Cannot be verified as accurate (confidence 3) [C66C95BA], AccurateRip returned [0FBE645A]
Copy OK
Track 2
Filename C:\rip\wave\02 Symphony No.2 in D,Op.73-Adagio non troppo.wav
Peak level 93.9 %
Track quality 99.9 %
Copy CRC CE3D073C
Cannot be verified as accurate (confidence 3) [E1A0722C], AccurateRip returned [23906AD4]
Copy OK
Track 3
Filename C:\rip\wave\03 Symphony No.2 in D,Op.73-Allegretto grazioso.wav
Peak level 43.2 %
Track quality 100.0 %
Copy CRC B8EE2A03
Cannot be verified as accurate (confidence 3) [3A64FE18], AccurateRip returned [333E8110]
Copy OK
Track 4
Filename C:\rip\wave\04 Symphony No.2 in D,Op.73-Allegro con spirito.wav
Peak level 98.8 %
Track quality 100.0 %
Copy CRC 09CCA5F4
Cannot be verified as accurate (confidence 3) [34D0A307], AccurateRip returned [A8D6D247]
Copy OK
No tracks could be verified as accurate
You may have a different pressing from the one(s) in the database
No errors occurred
End of status report

cd3

Exact Audio Copy V0.99 prebeta 4 from 23. January 2008
EAC extraction logfile from 30. September 2008, 11:20
00 Johannes Brahms Edition / Complete Works 03of60
Used drive : PLEXTOR DVDR PX-800A Adapter: 0 ID: 1
Read mode : Secure
Utilize accurate stream : Yes
Defeat audio cache : No
Make use of C2 pointers : Yes
Read offset correction : 48
Overread into Lead-In and Lead-Out : No
Fill up missing offset samples with silence : Yes
Delete leading and trailing silent blocks : No
Null samples used in CRC calculations : No
Used interface : Native Win32 interface for Win NT & 2000
Gap handling : Not detected, thus appended to previous track
Used output format : Internal WAV Routines
Sample format : 44.100 Hz; 16 Bit; Stereo
TOC of the extracted CD
Track | Start | Length | Start sector | End sector
---------------------------------------------------------
1 | 0:00.00 | 9:54.14 | 0 | 44563
2 | 9:54.14 | 8:26.28 | 44564 | 82541
3 | 18:20.42 | 5:59.56 | 82542 | 109522
4 | 24:20.23 | 9:07.06 | 109523 | 150553
5 | 33:27.29 | 12:36.18 | 150554 | 207271
6 | 46:03.47 | 10:42.73 | 207272 | 255494
7 | 56:46.45 | 6:05.60 | 255495 | 282929
8 | 62:52.30 | 9:28.05 | 282930 | 325534
Track 1
Filename C:\rip\wave\01 Symphony No.3 in F,Op.90-Allegro con brio-Un poco sostenuto-Tempo I.wav
Peak level 86.8 %
Track quality 100.0 %
Copy CRC FC30DF7D
Cannot be verified as accurate (confidence 6) [97D07847], AccurateRip returned [A2F35282]
Copy OK
Track 2
Filename C:\rip\wave\02 Symphony No.3 in F,Op.90-Andante.wav
Peak level 61.7 %
Track quality 100.0 %
Copy CRC 5A2A7159
Cannot be verified as accurate (confidence 6) [C2AE46F9], AccurateRip returned [AE77C31F]
Copy OK
Track 3
Filename C:\rip\wave\03 Symphony No.3 in F,Op.90-Poco allegretto.wav
Peak level 52.7 %
Track quality 100.0 %
Copy CRC 705E315C
Cannot be verified as accurate (confidence 6) [76757629], AccurateRip returned [C8B0C0CD]
Copy OK
Track 4
Filename C:\rip\wave\04 Symphony No.3 in F,Op.90-Allegro-Un poco sostenuto.wav
Peak level 93.5 %
Track quality 100.0 %
Copy CRC C37F2D4B
Cannot be verified as accurate (confidence 6) [8D2DC78C], AccurateRip returned [205EA14C]
Copy OK
Track 5
Filename C:\rip\wave\05 Symphony No.4 in Em,Op.98-Allegro non troppo.wav
Peak level 81.8 %
Track quality 100.0 %
Copy CRC A303132F
Cannot be verified as accurate (confidence 6) [A4396C50], AccurateRip returned [9C12D48C]
Copy OK
Track 6
Filename C:\rip\wave\06 Symphony No.4 in Em,Op.98-Andante moderato.wav
Peak level 69.0 %
Track quality 100.0 %
Copy CRC 194A5977
Cannot be verified as accurate (confidence 6) [04C51DFE], AccurateRip returned [4F27C7E8]
Copy OK
Track 7
Filename C:\rip\wave\07 Symphony No.4 in Em,Op.98-Allegro giocoso.wav
Peak level 93.6 %
Track quality 100.0 %
Copy CRC 392F15F6
Cannot be verified as accurate (confidence 6) [5374EE60], AccurateRip returned [8A684633]
Copy OK
Track 8
Filename C:\rip\wave\08 Symphony No.4 in Em,Op.98-Allegro energico e passionato-Piu allegro.wav
Peak level 97.7 %
Track quality 100.0 %
Copy CRC E1A21AB1
Cannot be verified as accurate (confidence 6) [1E216A41], AccurateRip returned [FD9163FE]
Copy OK
No tracks could be verified as accurate
You may have a different pressing from the one(s) in the database
No errors occurred
End of status report

cd4

Exact Audio Copy V0.99 prebeta 4 from 23. January 2008
EAC extraction logfile from 30. September 2008, 12:04
00 Johannes Brahms Edition / Complete Works 04of60
Used drive : PLEXTOR DVDR PX-800A Adapter: 0 ID: 1
Read mode : Secure
Utilize accurate stream : Yes
Defeat audio cache : No
Make use of C2 pointers : Yes
Read offset correction : 48
Overread into Lead-In and Lead-Out : No
Fill up missing offset samples with silence : Yes
Delete leading and trailing silent blocks : No
Null samples used in CRC calculations : No
Used interface : Native Win32 interface for Win NT & 2000
Gap handling : Not detected, thus appended to previous track
Used output format : Internal WAV Routines
Sample format : 44.100 Hz; 16 Bit; Stereo
TOC of the extracted CD
Track | Start | Length | Start sector | End sector
---------------------------------------------------------
1 | 0:00.00 | 9:50.69 | 0 | 44318
2 | 9:50.69 | 12:37.58 | 44319 | 101151
3 | 22:28.52 | 1:56.27 | 101152 | 109878
4 | 24:25.04 | 1:18.54 | 109879 | 115782
5 | 25:43.58 | 1:04.67 | 115783 | 120649
6 | 26:48.50 | 1:53.01 | 120650 | 129125
7 | 28:41.51 | 2:05.62 | 129126 | 138562
8 | 30:47.38 | 0:54.49 | 138563 | 142661
9 | 31:42.12 | 1:18.71 | 142662 | 148582
10 | 33:01.08 | 2:45.49 | 148583 | 161006
11 | 35:46.57 | 1:21.37 | 161007 | 167118
12 | 37:08.19 | 3:32.57 | 167119 | 183075
13 | 40:41.01 | 8:58.53 | 183076 | 223478
14 | 49:39.54 | 2:24.27 | 223479 | 234305
15 | 52:04.06 | 4:42.44 | 234306 | 255499
16 | 56:46.50 | 4:11.39 | 255500 | 274363
17 | 60:58.14 | 5:22.33 | 274364 | 298546
Track 1
Filename C:\rip\wave\01 01 - Ouverture du festival academique Op 80.wav
Peak level 95.5 %
Track quality 99.9 %
Copy CRC 1D24BE67
Track not present in AccurateRip database
Copy OK
Track 2
Filename C:\rip\wave\02 02 - Ouverture Tragique Op 81.wav
Peak level 78.5 %
Track quality 100.0 %
Copy CRC 1BB22EAC
Track not present in AccurateRip database
Copy OK
Track 3
Filename C:\rip\wave\03 03 - Variation sur un thиme de J Haydn (St Antoine) Op 56a - Choral de St Antoine - andante.wav
Peak level 36.3 %
Track quality 100.0 %
Copy CRC A5CDF19F
Track not present in AccurateRip database
Copy OK
Track 4
Filename C:\rip\wave\04 04 - Variation sur un thиme de J Haydn (St Antoine) Op 56a - Variation 1 poco piu animato.wav
Peak level 44.1 %
Track quality 99.7 %
Copy CRC 3626A4FD
Track not present in AccurateRip database
Copy OK
Track 5
Filename C:\rip\wave\05 05 - Variation sur un thиme de J Haydn (St Antoine) Op 56a - Variation 2 piu vivace.wav
Peak level 48.5 %
Track quality 100.0 %
Copy CRC 29E60C27
Track not present in AccurateRip database
Copy OK
Track 6
Filename C:\rip\wave\06 06 - Variation sur un thиme de J Haydn (St Antoine) Op 56a - Variation 3 con moto.wav
Peak level 22.6 %
Track quality 100.0 %
Copy CRC 729DFD00
Track not present in AccurateRip database
Copy OK
Track 7
Filename C:\rip\wave\07 07 - Variation sur un thиme de J Haydn (St Antoine) Op 56a - Variation 4 andante con moto.wav
Peak level 28.1 %
Track quality 100.0 %
Copy CRC 74F8292E
Track not present in AccurateRip database
Copy OK
Track 8
Filename C:\rip\wave\08 08 - Variation sur un thиme de J Haydn (St Antoine) Op 56a - Variation 5 vivace.wav
Peak level 34.5 %
Track quality 100.0 %
Copy CRC 5F7BBCEA
Track not present in AccurateRip database
Copy OK
Track 9
Filename C:\rip\wave\09 09 - Variation sur un thиme de J Haydn (St Antoine) Op 56a - Variation 6 vivace.wav
Peak level 91.1 %
Track quality 100.0 %
Copy CRC 6D16788E
Track not present in AccurateRip database
Copy OK
Track 10
Filename C:\rip\wave\10 10 - Variation sur un thиme de J Haydn (St Antoine) Op 56a - Variation 7 grazioso.wav
Peak level 35.1 %
Track quality 100.0 %
Copy CRC BBCF1BAA
Track not present in AccurateRip database
Copy OK
Track 11
Filename C:\rip\wave\11 11 - Variation sur un thиme de J Haydn (St Antoine) Op 56a - Variation 8 presto con moto.wav
Peak level 14.4 %
Track quality 100.0 %
Copy CRC 759C6F91
Track not present in AccurateRip database
Copy OK
Track 12
Filename C:\rip\wave\12 12 - Variation sur un thиme de J Haydn (St Antoine) Op 56a - Finale - andante.wav
Peak level 91.2 %
Track quality 100.0 %
Copy CRC 32F902D6
Track not present in AccurateRip database
Copy OK
Track 13
Filename C:\rip\wave\13 13 - serenade n°2 en la majeur Op 16 - 1 allegro moderato.wav
Peak level 45.3 %
Track quality 100.0 %
Copy CRC 67711B1E
Track not present in AccurateRip database
Copy OK
Track 14
Filename C:\rip\wave\14 14 - serenade n°2 en la majeur Op 16 - 2 scherzo vivace.wav
Peak level 55.6 %
Track quality 100.0 %
Copy CRC C6D27A0E
Track not present in AccurateRip database
Copy OK
Track 15
Filename C:\rip\wave\15 15 - serenade n°2 en la majeur Op 16 - 3 adagio non troppo.wav
Peak level 56.9 %
Track quality 100.0 %
Copy CRC 0C11B845
Track not present in AccurateRip database
Copy OK
Track 16
Filename C:\rip\wave\16 16 - serenade n°2 en la majeur Op 16 - 4 quasi menuetto.wav
Peak level 38.8 %
Track quality 100.0 %
Copy CRC 46E9D08F
Track not present in AccurateRip database
Copy OK
Track 17
Filename C:\rip\wave\17 17 - serenade n°2 en la majeur Op 16 - 5 rondo allegro.wav
Peak level 89.1 %
Track quality 100.0 %
Copy CRC 17CC0079
Track not present in AccurateRip database
Copy OK
None of the tracks are present in the AccurateRip database
No errors occurred
End of status report

cd5

Exact Audio Copy V0.99 prebeta 4 from 23. January 2008
EAC extraction logfile from 2. October 2008, 22:34
00 Johannes Brahms Edition / Complete Works 05of60
Used drive : PLEXTOR DVDR PX-800A Adapter: 0 ID: 1
Read mode : Secure
Utilize accurate stream : Yes
Defeat audio cache : No
Make use of C2 pointers : Yes
Read offset correction : 48
Overread into Lead-In and Lead-Out : No
Fill up missing offset samples with silence : Yes
Delete leading and trailing silent blocks : No
Null samples used in CRC calculations : No
Used interface : Native Win32 interface for Win NT & 2000
Gap handling : Not detected, thus appended to previous track
Used output format : Internal WAV Routines
Sample format : 44.100 Hz; 16 Bit; Stereo
TOC of the extracted CD
Track | Start | Length | Start sector | End sector
---------------------------------------------------------
1 | 0:00.00 | 13:12.71 | 0 | 59470
2 | 13:12.71 | 8:22.28 | 59471 | 97148
3 | 21:35.24 | 13:11.69 | 97149 | 156542
4 | 34:47.18 | 3:36.07 | 156543 | 172749
5 | 38:23.25 | 2:51.38 | 172750 | 185612
6 | 41:14.63 | 4:55.66 | 185613 | 207803
Track 1
Filename C:\rip\wave\01 Serenade no1 en rй majeur Op 11, 1 allegro molto.wav
Peak level 94.0 %
Track quality 100.0 %
Copy CRC 08609E04
Track not present in AccurateRip database
Copy OK
Track 2
Filename C:\rip\wave\02 Serenade no1 en rй majeur Op 11, 2 scherzo allegro non troppo.wav
Peak level 69.3 %
Track quality 100.0 %
Copy CRC 0B774BDA
Track not present in AccurateRip database
Copy OK
Track 3
Filename C:\rip\wave\03 Serenade no1 en rй majeur Op 11, 3 adagio non troppo.wav
Peak level 32.5 %
Track quality 100.0 %
Copy CRC AFF19484
Track not present in AccurateRip database
Copy OK
Track 4
Filename C:\rip\wave\04 Serenade no1 en rй majeur Op 11, 4 menuetto 1 et 2.wav
Peak level 15.5 %
Track quality 99.9 %
Copy CRC 21E37808
Track not present in AccurateRip database
Copy OK
Track 5
Filename C:\rip\wave\05 Serenade no1 en rй majeur Op 11, 5 scherzo allegro.wav
Peak level 71.4 %
Track quality 100.0 %
Copy CRC 0E290E9B
Track not present in AccurateRip database
Copy OK
Track 6
Filename C:\rip\wave\06 Serenade no1 en rй majeur Op 11, 6 rondo allegro.wav
Peak level 88.7 %
Track quality 100.0 %
Copy CRC 34263175
Track not present in AccurateRip database
Copy OK
None of the tracks are present in the AccurateRip database
No errors occurred
End of status report

cd6

Exact Audio Copy V0.99 prebeta 4 from 23. January 2008
EAC extraction logfile from 2. October 2008, 22:50
00 Johannes Brahms Edition / Complete Works 06of60
Used drive : PLEXTOR DVDR PX-800A Adapter: 0 ID: 1
Read mode : Secure
Utilize accurate stream : Yes
Defeat audio cache : No
Make use of C2 pointers : Yes
Read offset correction : 48
Overread into Lead-In and Lead-Out : No
Fill up missing offset samples with silence : Yes
Delete leading and trailing silent blocks : No
Null samples used in CRC calculations : No
Used interface : Native Win32 interface for Win NT & 2000
Gap handling : Not detected, thus appended to previous track
Used output format : Internal WAV Routines
Sample format : 44.100 Hz; 16 Bit; Stereo
TOC of the extracted CD
Track | Start | Length | Start sector | End sector
---------------------------------------------------------
1 | 0:00.00 | 3:09.13 | 0 | 14187
2 | 3:09.13 | 3:13.50 | 14188 | 28712
3 | 6:22.63 | 2:22.12 | 28713 | 39374
4 | 8:45.00 | 5:17.25 | 39375 | 63174
5 | 14:02.25 | 2:53.50 | 63175 | 76199
6 | 16:56.00 | 4:13.63 | 76200 | 95237
7 | 21:09.63 | 2:10.00 | 95238 | 104987
8 | 23:19.63 | 2:53.25 | 104988 | 117987
9 | 26:13.13 | 2:13.25 | 117988 | 127987
10 | 28:26.38 | 1:52.37 | 127988 | 136424
11 | 30:19.00 | 2:51.50 | 136425 | 149299
12 | 33:10.50 | 2:46.63 | 149300 | 161812
13 | 35:57.38 | 1:32.12 | 161813 | 168724
14 | 37:29.50 | 1:36.38 | 168725 | 175962
15 | 39:06.13 | 3:07.25 | 175963 | 190012
16 | 42:13.38 | 2:23.37 | 190013 | 200774
17 | 44:37.00 | 3:29.38 | 200775 | 216487
18 | 48:06.38 | 1:38.62 | 216488 | 223899
19 | 49:45.25 | 2:21.13 | 223900 | 234487
20 | 52:06.38 | 3:02.50 | 234488 | 248187
21 | 55:09.13 | 1:37.62 | 248188 | 255524
Track 1
Filename C:\rip\wave\01 01 - Danse hongroise n°1 en sol mineur - Allegro molto.wav
Peak level 82.4 %
Track quality 100.0 %
Copy CRC 23F46E82
Track not present in AccurateRip database
Copy OK
Track 2
Filename C:\rip\wave\02 02 - Danse hongroise n°2 en rй mineur - Allegro non assai.wav
Peak level 95.5 %
Track quality 100.0 %
Copy CRC 89BD39A4
Track not present in AccurateRip database
Copy OK
Track 3
Filename C:\rip\wave\03 03 - Danse hongroise n°3 en fa majeur mineur - Allegretto.wav
Peak level 83.1 %
Track quality 99.8 %
Copy CRC 85A683D7
Track not present in AccurateRip database
Copy OK
Track 4
Filename C:\rip\wave\04 04 - Danse hongroise n°4 en fa diиse mineur - Poco Sustenuto.wav
Peak level 72.8 %
Track quality 100.0 %
Copy CRC 1453249E
Track not present in AccurateRip database
Copy OK
Track 5
Filename C:\rip\wave\05 05 - Danse hongroise n°5 en sol mineur - Allegro.wav
Peak level 95.4 %
Track quality 100.0 %
Copy CRC 3200DD58
Track not present in AccurateRip database
Copy OK
Track 6
Filename C:\rip\wave\06 06 - Danse hongroise n°6 en rй mineur - Vivace.wav
Peak level 68.9 %
Track quality 100.0 %
Copy CRC A3CA7BBC
Track not present in AccurateRip database
Copy OK
Track 7
Filename C:\rip\wave\07 07 - Danse hongroise n°7 en fa majeur - Allegretto.wav
Peak level 95.4 %
Track quality 100.0 %
Copy CRC F650E4DE
Track not present in AccurateRip database
Copy OK
Track 8
Filename C:\rip\wave\08 08 - Danse hongroise n°8 en la mineur - Presto.wav
Peak level 95.5 %
Track quality 100.0 %
Copy CRC A335FF11
Track not present in AccurateRip database
Copy OK
Track 9
Filename C:\rip\wave\09 09 - Danse hongroise n°9 en mi mineur - Allegro ma non troppo.wav
Peak level 48.5 %
Track quality 100.0 %
Copy CRC 31C11375
Track not present in AccurateRip database
Copy OK
Track 10
Filename C:\rip\wave\10 10 - Danse hongroise n°10 en fa majeur - Presto.wav
Peak level 83.4 %
Track quality 100.0 %
Copy CRC 4752E778
Track not present in AccurateRip database
Copy OK
Track 11
Filename C:\rip\wave\11 11 - Danse hongroise n°11 en rй mineur - Poco andante.wav
Peak level 41.9 %
Track quality 100.0 %
Copy CRC 6E0D48AE
Track not present in AccurateRip database
Copy OK
Track 12
Filename C:\rip\wave\12 12 - Danse hongroise n°12 en rй mineur - Presto.wav
Peak level 68.5 %
Track quality 100.0 %
Copy CRC 214986E5
Track not present in AccurateRip database
Copy OK
Track 13
Filename C:\rip\wave\13 13 - Danse hongroise n°13 en rй majeur - Andantino grazioso.wav
Peak level 73.2 %
Track quality 100.0 %
Copy CRC F3EA5464
Track not present in AccurateRip database
Copy OK
Track 14
Filename C:\rip\wave\14 14 - Danse hongroise n°14 en rй mineur - Un poco andante.wav
Peak level 76.6 %
Track quality 100.0 %
Copy CRC 23B53B16
Track not present in AccurateRip database
Copy OK
Track 15
Filename C:\rip\wave\15 15 - Danse hongroise n°15 en si bйmol majeur - Allegretto grazioso.wav
Peak level 77.8 %
Track quality 100.0 %
Copy CRC D0EBF1B3
Track not present in AccurateRip database
Copy OK
Track 16
Filename C:\rip\wave\16 16 - Danse hongroise n°16 en fa mineur - Con moto.wav
Peak level 86.3 %
Track quality 100.0 %
Copy CRC F29755BC
Track not present in AccurateRip database
Copy OK
Track 17
Filename C:\rip\wave\17 17 - Danse hongroise n°17 en fa diese mineur - Andantino.wav
Peak level 95.5 %
Track quality 100.0 %
Copy CRC 66BD12B3
Track not present in AccurateRip database
Copy OK
Track 18
Filename C:\rip\wave\18 18 - Danse hongroise n°18 en rй majeur - Molto vivace.wav
Peak level 95.5 %
Track quality 99.7 %
Copy CRC C27CEC66
Track not present in AccurateRip database
Copy OK
Track 19
Filename C:\rip\wave\19 19 - Danse hongroise n°19 en si mineur - Allegretto.wav
Peak level 95.4 %
Track quality 99.8 %
Copy CRC 998EB929
Track not present in AccurateRip database
Copy OK
Track 20
Filename C:\rip\wave\20 20 - Danse hongroise n°20 en mi mineur - Poco Allegretto.wav
Peak level 95.4 %
Track quality 100.0 %
Copy CRC 29A159EC
Track not present in AccurateRip database
Copy OK
Track 21
Filename C:\rip\wave\21 21 - Danse hongroise n°21 en mi mineur - Vivace.wav
Peak level 95.4 %
Track quality 100.0 %
Copy CRC 3452FA05
Track not present in AccurateRip database
Copy OK
None of the tracks are present in the AccurateRip database
No errors occurred
End of status report

cd7

Exact Audio Copy V0.99 prebeta 4 from 23. January 2008
EAC extraction logfile from 2. October 2008, 23:14
00 Johannes Brahms Edition / Complete Works 07of60
Used drive : PLEXTOR DVDR PX-800A Adapter: 0 ID: 1
Read mode : Secure
Utilize accurate stream : Yes
Defeat audio cache : No
Make use of C2 pointers : Yes
Read offset correction : 48
Overread into Lead-In and Lead-Out : No
Fill up missing offset samples with silence : Yes
Delete leading and trailing silent blocks : No
Null samples used in CRC calculations : No
Used interface : Native Win32 interface for Win NT & 2000
Gap handling : Not detected, thus appended to previous track
Used output format : Internal WAV Routines
Sample format : 44.100 Hz; 16 Bit; Stereo
TOC of the extracted CD
Track | Start | Length | Start sector | End sector
---------------------------------------------------------
1 | 0:00.00 | 23:09.50 | 0 | 104224
2 | 23:09.50 | 14:30.57 | 104225 | 169531
3 | 37:40.32 | 12:26.43 | 169532 | 225524
4 | 50:07.00 | 0:55.22 | 225525 | 229671
5 | 51:02.22 | 1:29.63 | 229672 | 236409
6 | 52:32.10 | 0:58.72 | 236410 | 240831
7 | 53:31.07 | 1:16.40 | 240832 | 246571
8 | 54:47.47 | 1:21.43 | 246572 | 252689
9 | 56:09.15 | 1:02.02 | 252690 | 257341
10 | 57:11.17 | 2:12.15 | 257342 | 267256
11 | 59:23.32 | 1:35.00 | 267257 | 274381
12 | 60:58.32 | 1:24.55 | 274382 | 280736
13 | 62:23.12 | 0:35.70 | 280737 | 283431
14 | 62:59.07 | 1:46.18 | 283432 | 291399
15 | 64:45.25 | 1:35.15 | 291400 | 298539
16 | 66:20.40 | 0:42.27 | 298540 | 301716
17 | 67:02.67 | 1:21.25 | 301717 | 307816
18 | 68:24.17 | 1:35.38 | 307817 | 314979
19 | 69:59.55 | 1:21.02 | 314980 | 321056
Track 1
Filename C:\rip\wave\01 Piano Concerto No.1 in Dm,Op.15-Maestoso.wav
Peak level 95.5 %
Track quality 99.9 %
Copy CRC 164231D2
Cannot be verified as accurate (confidence 3) [334FEEF5], AccurateRip returned [6F2CB037]
Copy OK
Track 2
Filename C:\rip\wave\02 Piano Concerto No.1 in Dm,Op.15-Adagio.wav
Peak level 78.1 %
Track quality 99.9 %
Copy CRC 9C7DD995
Cannot be verified as accurate (confidence 3) [7546BC5C], AccurateRip returned [BD332BF9]
Copy OK
Track 3
Filename C:\rip\wave\03 Piano Concerto No.1 in Dm,Op.15-Rondo,allegro non troppo.wav
Peak level 76.5 %
Track quality 100.0 %
Copy CRC 166E0779
Cannot be verified as accurate (confidence 3) [38C3A429], AccurateRip returned [299F6D2C]
Copy OK
Track 4
Filename C:\rip\wave\04 16 Waltzes,Op.39-No.01 in B.wav
Peak level 82.2 %
Track quality 100.0 %
Copy CRC 25B479AD
Cannot be verified as accurate (confidence 3) [F210CDC7], AccurateRip returned [6B93B6A3]
Copy OK
Track 5
Filename C:\rip\wave\05 16 Waltzes,Op.39-No.02 in E.wav
Peak level 40.5 %
Track quality 100.0 %
Copy CRC 358FFAE3
Cannot be verified as accurate (confidence 3) [3F10D281], AccurateRip returned [A813BA37]
Copy OK
Track 6
Filename C:\rip\wave\06 16 Waltzes,Op.39-No.03 in G#m.wav
Peak level 36.7 %
Track quality 99.6 %
Copy CRC 4061910B
Cannot be verified as accurate (confidence 3) [7684D70C], AccurateRip returned [33DDD8DC]
Copy OK
Track 7
Filename C:\rip\wave\07 16 Waltzes,Op.39-No.04 in Em.wav
Peak level 86.0 %
Track quality 100.0 %
Copy CRC CF57409A
Cannot be verified as accurate (confidence 3) [09582A11], AccurateRip returned [131B187F]
Copy OK
Track 8
Filename C:\rip\wave\08 16 Waltzes,Op.39-No.05 in E.wav
Peak level 49.3 %
Track quality 99.7 %
Copy CRC 1656945C
Cannot be verified as accurate (confidence 3) [47EF5358], AccurateRip returned [5F07E30F]
Copy OK
Track 9
Filename C:\rip\wave\09 16 Waltzes,Op.39-No.06 in C#.wav
Peak level 46.9 %
Track quality 100.0 %
Copy CRC BF9046C2
Cannot be verified as accurate (confidence 3) [1CC94C37], AccurateRip returned [727F5844]
Copy OK
Track 10
Filename C:\rip\wave\10 16 Waltzes,Op.39-No.07 in C#m.wav
Peak level 56.4 %
Track quality 100.0 %
Copy CRC 29D012B3
Cannot be verified as accurate (confidence 3) [D38F32F3], AccurateRip returned [1A662BCA]
Copy OK
Track 11
Filename C:\rip\wave\11 16 Waltzes,Op.39-No.08 in Bb.wav
Peak level 30.3 %
Track quality 100.0 %
Copy CRC 945E97E7
Cannot be verified as accurate (confidence 3) [5372F2A7], AccurateRip returned [D4CD22C9]
Copy OK
Track 12
Filename C:\rip\wave\12 16 Waltzes,Op.39-No.09 in Dm.wav
Peak level 26.3 %
Track quality 100.0 %
Copy CRC E1C1E584
Cannot be verified as accurate (confidence 3) [C6C8DE69], AccurateRip returned [6C284DCD]
Copy OK
Track 13
Filename C:\rip\wave\13 16 Waltzes,Op.39-No.10 in G.wav
Peak level 52.8 %
Track quality 100.0 %
Copy CRC FBF7CCED
Cannot be verified as accurate (confidence 3) [606673C4], AccurateRip returned [94524607]
Copy OK
Track 14
Filename C:\rip\wave\14 16 Waltzes,Op.39-No.11 in Bm.wav
Peak level 74.0 %
Track quality 99.6 %
Copy CRC ACF88757
Cannot be verified as accurate (confidence 3) [84557BEF], AccurateRip returned [24B049E7]
Copy OK
Track 15
Filename C:\rip\wave\15 16 Waltzes,Op.39-No.12 in E.wav
Peak level 74.2 %
Track quality 100.0 %
Copy CRC 5EB5D5C6
Cannot be verified as accurate (confidence 3) [C57079A3], AccurateRip returned [6691C260]
Copy OK
Track 16
Filename C:\rip\wave\16 16 Waltzes,Op.39-No.13 in B.wav
Peak level 93.9 %
Track quality 100.0 %
Copy CRC EA2A5410
Cannot be verified as accurate (confidence 3) [7D918308], AccurateRip returned [D40740B3]
Copy OK
Track 17
Filename C:\rip\wave\17 16 Waltzes,Op.39-No.14 in G#m.wav
Peak level 100.0 %
Track quality 100.0 %
Copy CRC 9EBA67CE
Cannot be verified as accurate (confidence 3) [8BE8FC43], AccurateRip returned [31AEEBE2]
Copy OK
Track 18
Filename C:\rip\wave\18 16 Waltzes,Op.39-No.15 in Ab.wav
Peak level 43.5 %
Track quality 100.0 %
Copy CRC 8FCD4DAF
Cannot be verified as accurate (confidence 3) [8BCCFB70], AccurateRip returned [904D8CFE]
Copy OK
Track 19
Filename C:\rip\wave\19 16 Waltzes,Op.39-No.16 in C#m.wav
Peak level 29.9 %
Track quality 100.0 %
Copy CRC 4E125BF7
Cannot be verified as accurate (confidence 3) [807E90A0], AccurateRip returned [460CEDF4]
Copy OK
No tracks could be verified as accurate
You may have a different pressing from the one(s) in the database
No errors occurred
End of status report

cd8

Exact Audio Copy V0.99 prebeta 4 from 23. January 2008
EAC extraction logfile from 2. October 2008, 23:35
00 Johannes Brahms Edition / Complete Works 08of60
Used drive : PLEXTOR DVDR PX-800A Adapter: 0 ID: 1
Read mode : Secure
Utilize accurate stream : Yes
Defeat audio cache : No
Make use of C2 pointers : Yes
Read offset correction : 48
Overread into Lead-In and Lead-Out : No
Fill up missing offset samples with silence : Yes
Delete leading and trailing silent blocks : No
Null samples used in CRC calculations : No
Used interface : Native Win32 interface for Win NT & 2000
Gap handling : Not detected, thus appended to previous track
Used output format : Internal WAV Routines
Sample format : 44.100 Hz; 16 Bit; Stereo
TOC of the extracted CD
Track | Start | Length | Start sector | End sector
---------------------------------------------------------
1 | 0:00.00 | 18:29.65 | 0 | 83239
2 | 18:29.65 | 9:08.18 | 83240 | 124357
3 | 27:38.08 | 12:07.15 | 124358 | 178897
4 | 39:45.23 | 9:19.12 | 178898 | 220834
5 | 49:04.35 | 4:26.70 | 220835 | 240854
6 | 53:31.30 | 4:49.18 | 240855 | 262547
7 | 58:20.48 | 1:42.35 | 262548 | 270232
8 | 60:03.08 | 5:07.02 | 270233 | 293259
Track 1
Filename C:\rip\wave\01 Piano Concerto No.2 in Bb,Op.83 , Allegro non troppo.wav
Peak level 86.0 %
Track quality 100.0 %
Copy CRC 1C9505EF
Accurately ripped (confidence 3) [6AEA559A]
Copy OK
Track 2
Filename C:\rip\wave\02 Piano Concerto No.2 in Bb,Op.83 , Allegro appassionato.wav
Peak level 97.4 %
Track quality 99.9 %
Copy CRC CCA898B6
Accurately ripped (confidence 3) [8D56F7D0]
Copy OK
Track 3
Filename C:\rip\wave\03 Piano Concerto No.2 in Bb,Op.83 , Andante.wav
Peak level 73.7 %
Track quality 100.0 %
Copy CRC D4DA244B
Accurately ripped (confidence 3) [A40B3305]
Copy OK
Track 4
Filename C:\rip\wave\04 Piano Concerto No.2 in Bb,Op.83 , Allegretto grazioso.wav
Peak level 85.6 %
Track quality 100.0 %
Copy CRC D2C71235
Accurately ripped (confidence 3) [26F881A1]
Copy OK
Track 5
Filename C:\rip\wave\05 4 Klavierstьcke,Op.119-Intermezzo in Bm , Adagio.wav
Peak level 43.9 %
Track quality 100.0 %
Copy CRC 7A7AAA6A
Accurately ripped (confidence 3) [2F2B4DE9]
Copy OK
Track 6
Filename C:\rip\wave\06 4 Klavierstьcke,Op.119-Intermezzo in Em , Andantino un poco agitato.wav
Peak level 59.0 %
Track quality 100.0 %
Copy CRC 3BD6DECB
Accurately ripped (confidence 3) [E04AF241]
Copy OK
Track 7
Filename C:\rip\wave\07 4 Klavierstьcke,Op.119-Intermezzo in C , Grazioso e giocoso.wav
Peak level 88.6 %
Track quality 100.0 %
Copy CRC 2E3B93E6
Accurately ripped (confidence 3) [07B54D8C]
Copy OK
Track 8
Filename C:\rip\wave\08 4 Klavierstьcke,Op.119-Rhapsody in Eb , Allegro risoluto.wav
Peak level 96.6 %
Track quality 100.0 %
Copy CRC 79090340
Accurately ripped (confidence 3) [6BF85348]
Copy OK
All tracks accurately ripped
No errors occurred
End of status report

cd9

Exact Audio Copy V0.99 prebeta 4 from 23. January 2008
EAC extraction logfile from 2. October 2008, 23:52
00 Johannes Brahms Edition / Complete Works 09of60
Used drive : PLEXTOR DVDR PX-800A Adapter: 0 ID: 1
Read mode : Secure
Utilize accurate stream : Yes
Defeat audio cache : No
Make use of C2 pointers : Yes
Read offset correction : 48
Overread into Lead-In and Lead-Out : No
Fill up missing offset samples with silence : Yes
Delete leading and trailing silent blocks : No
Null samples used in CRC calculations : No
Used interface : Native Win32 interface for Win NT & 2000
Gap handling : Not detected, thus appended to previous track
Used output format : Internal WAV Routines
Sample format : 44.100 Hz; 16 Bit; Stereo
TOC of the extracted CD
Track | Start | Length | Start sector | End sector
---------------------------------------------------------
1 | 0:01.00 | 23:53.60 | 75 | 107609
2 | 23:54.60 | 9:43.21 | 107610 | 151355
3 | 33:38.06 | 8:54.46 | 151356 | 191451
4 | 42:32.52 | 17:19.53 | 191452 | 269429
5 | 59:52.30 | 8:25.04 | 269430 | 307308
6 | 68:17.34 | 8:52.34 | 307309 | 347242
Track 1
Filename C:\rip\wave\01 Violin Concerto in D,Op.77-Allegro ma non troppo.wav
Peak level 97.2 %
Track quality 100.0 %
Copy CRC 5C4EA5A1
Cannot be verified as accurate (confidence 3) [26955F56], AccurateRip returned [6ADD34A4]
Copy OK
Track 2
Filename C:\rip\wave\02 Violin Concerto in D,Op.77-Adagio.wav
Peak level 62.3 %
Track quality 99.9 %
Copy CRC BAAEF375
Cannot be verified as accurate (confidence 3) [A544E2AC], AccurateRip returned [9C71D38C]
Copy OK
Track 3
Filename C:\rip\wave\03 Violin Concerto in D,Op.77-Allegro giocoso.wav
Peak level 85.9 %
Track quality 100.0 %
Copy CRC AB2712FB
Cannot be verified as accurate (confidence 3) [38980A19], AccurateRip returned [D167575F]
Copy OK
Track 4
Filename C:\rip\wave\04 Concerto for violin,cello & orchestra in Am,Op.102-Allegro.wav
Peak level 98.5 %
Track quality 99.9 %
Copy CRC 5C37051E
Cannot be verified as accurate (confidence 3) [6005A807], AccurateRip returned [874BDEA3]
Copy OK
Track 5
Filename C:\rip\wave\05 Concerto for violin,cello & orchestra in Am,Op.102-Andante.wav
Peak level 65.0 %
Track quality 100.0 %
Copy CRC 77FA90CB
Cannot be verified as accurate (confidence 3) [EE4CCEEE], AccurateRip returned [B52F9A06]
Copy OK
Track 6
Filename C:\rip\wave\06 Concerto for violin,cello & orchestra in Am,Op.102-Vivace non troppo.wav
Peak level 98.6 %
Track quality 100.0 %
Copy CRC 5DAAC87D
Cannot be verified as accurate (confidence 3) [64ABDE2B], AccurateRip returned [F5F639BD]
Copy OK
No tracks could be verified as accurate
You may have a different pressing from the one(s) in the database
No errors occurred
End of status report

cd10

Exact Audio Copy V0.99 prebeta 4 from 23. January 2008
EAC extraction logfile from 6. October 2008, 2:21
00 Johannes Brahms Edition / Complete Works 10of60
Used drive : PLEXTOR DVDR PX-800A Adapter: 0 ID: 1
Read mode : Secure
Utilize accurate stream : Yes
Defeat audio cache : No
Make use of C2 pointers : Yes
Read offset correction : 48
Overread into Lead-In and Lead-Out : No
Fill up missing offset samples with silence : Yes
Delete leading and trailing silent blocks : No
Null samples used in CRC calculations : No
Used interface : Native Win32 interface for Win NT & 2000
Gap handling : Not detected, thus appended to previous track
Used output format : Internal WAV Routines
Sample format : 44.100 Hz; 16 Bit; Stereo
TOC of the extracted CD
Track | Start | Length | Start sector | End sector
---------------------------------------------------------
1 | 0:01.00 | 13:15.09 | 75 | 59708
2 | 13:16.09 | 8:11.18 | 59709 | 96551
3 | 21:27.27 | 9:10.64 | 96552 | 137865
4 | 30:38.16 | 8:09.15 | 137866 | 174555
5 | 38:47.31 | 10:22.14 | 174556 | 221219
6 | 49:09.45 | 4:05.69 | 221220 | 239663
7 | 53:15.39 | 8:37.02 | 239664 | 278440
8 | 61:52.41 | 10:04.10 | 278441 | 323750
Track 1
Filename C:\rip\wave\01 Piano Quartet No.1 in G minor, Op.25 - i - Allegro.wav
Peak level 74.1 %
Track quality 100.0 %
Copy CRC 23E2C215
Cannot be verified as accurate (confidence 9) [5F6750D8], AccurateRip returned [B0D0E158]
Copy OK
Track 2
Filename C:\rip\wave\02 Piano Quartet No.1 in G minor, Op.25 - ii - Intermezzo, allegro ma non troppo.wav
Peak level 50.9 %
Track quality 100.0 %
Copy CRC D17151D8
Cannot be verified as accurate (confidence 9) [4D1FA907], AccurateRip returned [42C5A60F]
Copy OK
Track 3
Filename C:\rip\wave\03 Piano Quartet No.1 in G minor, Op.25 - iii - Andante con moto.wav
Peak level 75.6 %
Track quality 100.0 %
Copy CRC 46AC5623
Cannot be verified as accurate (confidence 9) [E3F23B32], AccurateRip returned [1EB4E9EA]
Copy OK
Track 4
Filename C:\rip\wave\04 Piano Quartet No.1 in G minor, Op.25 - iv - Rondo alla Zingarese.wav
Peak level 76.2 %
Track quality 100.0 %
Copy CRC 67317122
Cannot be verified as accurate (confidence 9) [E2CF6CDF], AccurateRip returned [53AE8857]
Copy OK
Track 5
Filename C:\rip\wave\05 Piano Quartet No.3 in C minor, Op.60 - i - Allegro non troppo.wav
Peak level 76.3 %
Track quality 99.9 %
Copy CRC 756DFEAE
Cannot be verified as accurate (confidence 9) [B968CBC3], AccurateRip returned [B2F1B2D3]
Copy OK
Track 6
Filename C:\rip\wave\06 Piano Quartet No.3 in C minor, Op.60 - ii - Scherzo allegro.wav
Peak level 78.0 %
Track quality 100.0 %
Copy CRC C6513FC1
Cannot be verified as accurate (confidence 9) [B8B658DF], AccurateRip returned [7B8D147F]
Copy OK
Track 7
Filename C:\rip\wave\07 Piano Quartet No.3 in C minor, Op.60 - iii - Andante.wav
Peak level 51.6 %
Track quality 100.0 %
Copy CRC 773FA94D
Cannot be verified as accurate (confidence 8) [E40D541B], AccurateRip returned [C743E4BB]
Copy OK
Track 8
Filename C:\rip\wave\08 Piano Quartet No.3 in C minor, Op.60 - iv - Finale, allegro comodo.wav
Peak level 72.6 %
Track quality 100.0 %
Copy CRC 0A8FB0DB
Cannot be verified as accurate (confidence 7) [94E20A16], AccurateRip returned [579C1F46]
Copy OK
No tracks could be verified as accurate
You may have a different pressing from the one(s) in the database
No errors occurred
End of status report

cd11

Exact Audio Copy V0.99 prebeta 4 from 23. January 2008
EAC extraction logfile from 6. October 2008, 2:38
00 Johannes Brahms Edition / Complete Works 11of60
Used drive : PLEXTOR DVDR PX-800A Adapter: 0 ID: 1
Read mode : Secure
Utilize accurate stream : Yes
Defeat audio cache : No
Make use of C2 pointers : Yes
Read offset correction : 48
Overread into Lead-In and Lead-Out : No
Fill up missing offset samples with silence : Yes
Delete leading and trailing silent blocks : No
Null samples used in CRC calculations : No
Used interface : Native Win32 interface for Win NT & 2000
Gap handling : Not detected, thus appended to previous track
Used output format : Internal WAV Routines
Sample format : 44.100 Hz; 16 Bit; Stereo
TOC of the extracted CD
Track | Start | Length | Start sector | End sector
---------------------------------------------------------
1 | 0:01.00 | 15:11.14 | 75 | 68413
2 | 15:12.14 | 10:04.20 | 68414 | 113733
3 | 25:16.34 | 10:41.07 | 113734 | 161815
4 | 35:57.41 | 9:34.02 | 161816 | 204867
Track 1
Filename C:\rip\wave\01 Piano Quartet N°2 in A major Op.26 - I. Allegro non troppo.wav
Peak level 75.5 %
Track quality 100.0 %
Copy CRC 954DBAF3
Cannot be verified as accurate (confidence 9) [537A25E0], AccurateRip returned [48D3E488]
Copy OK
Track 2
Filename C:\rip\wave\02 Piano Quartet N°2 in A major Op.26 - II. Poco adagio.wav
Peak level 59.5 %
Track quality 100.0 %
Copy CRC FC6960D7
Cannot be verified as accurate (confidence 9) [708A12DB], AccurateRip returned [463FC76B]
Copy OK
Track 3
Filename C:\rip\wave\03 Piano Quartet N°2 in A major Op.26 - III. Scherzo, poco allegro.wav
Peak level 74.3 %
Track quality 100.0 %
Copy CRC A5F13BC5
Cannot be verified as accurate (confidence 9) [1BFBB089], AccurateRip returned [C5408381]
Copy OK
Track 4
Filename C:\rip\wave\04 Piano Quartet N°2 in A major Op.26 - IV. Finale allegro.wav
Peak level 76.1 %
Track quality 100.0 %
Copy CRC A651C9F9
Cannot be verified as accurate (confidence 9) [E185E97B], AccurateRip returned [AFFEEAFB]
Copy OK
No tracks could be verified as accurate
You may have a different pressing from the one(s) in the database
No errors occurred
End of status report

cd12

Exact Audio Copy V0.99 prebeta 4 from 23. January 2008
EAC extraction logfile from 6. October 2008, 2:55
00 Johannes Brahms Edition / Complete Works 12of60
Used drive : PLEXTOR DVDR PX-800A Adapter: 0 ID: 1
Read mode : Secure
Utilize accurate stream : Yes
Defeat audio cache : No
Make use of C2 pointers : Yes
Read offset correction : 48
Overread into Lead-In and Lead-Out : No
Fill up missing offset samples with silence : Yes
Delete leading and trailing silent blocks : No
Null samples used in CRC calculations : No
Used interface : Native Win32 interface for Win NT & 2000
Gap handling : Not detected, thus appended to previous track
Used output format : Internal WAV Routines
Sample format : 44.100 Hz; 16 Bit; Stereo
TOC of the extracted CD
Track | Start | Length | Start sector | End sector
---------------------------------------------------------
1 | 0:01.00 | 10:49.32 | 75 | 48781
2 | 10:50.32 | 12:30.38 | 48782 | 105069
3 | 23:20.70 | 5:08.48 | 105070 | 128217
4 | 28:29.43 | 13:21.35 | 128218 | 188327
5 | 41:51.03 | 6:33.42 | 188328 | 217844
6 | 48:24.45 | 5:12.28 | 217845 | 241272
7 | 53:36.73 | 5:07.08 | 241273 | 264305
Track 1
Filename C:\rip\wave\01 String Quintet N°1 in F major Op.88 - Allegro non troppo ma con brio.wav
Peak level 100.0 %
Track quality 100.0 %
Copy CRC 6A755EFF
Cannot be verified as accurate (confidence 8) [20B5D727], AccurateRip returned [A90AD4BF]
Copy OK
Track 2
Filename C:\rip\wave\02 String Quintet N°1 in F major Op.88 - Grave ed appassionato-allegretto vivace-tempo I-presto-tempo I.wav
Peak level 87.4 %
Track quality 100.0 %
Copy CRC 4C1279D9
Cannot be verified as accurate (confidence 9) [F269CCCD], AccurateRip returned [4E0AD045]
Copy OK
Track 3
Filename C:\rip\wave\03 String Quintet N°1 in F major Op.88 - Allegro energico.wav
Peak level 100.0 %
Track quality 100.0 %
Copy CRC B5178A96
Cannot be verified as accurate (confidence 9) [911F60C9], AccurateRip returned [8CB4B7B1]
Copy OK
Track 4
Filename C:\rip\wave\04 String Quintet N°2 in G major Op.111 - Allegro non troppo ma con brio.wav
Peak level 91.7 %
Track quality 100.0 %
Copy CRC 2F2046EB
Cannot be verified as accurate (confidence 9) [BB3F8A22], AccurateRip returned [5D21115A]
Copy OK
Track 5
Filename C:\rip\wave\05 String Quintet N°2 in G major Op.111 - Adagio.wav
Peak level 97.3 %
Track quality 100.0 %
Copy CRC EA50B066
Cannot be verified as accurate (confidence 9) [FEDCE94E], AccurateRip returned [B8DE2D4E]
Copy OK
Track 6
Filename C:\rip\wave\06 String Quintet N°2 in G major Op.111 - Un poco allegretto.wav
Peak level 74.3 %
Track quality 99.9 %
Copy CRC D07A2734
Cannot be verified as accurate (confidence 9) [90C383C1], AccurateRip returned [10252601]
Copy OK
Track 7
Filename C:\rip\wave\07 String Quintet N°2 in G major Op.111 - Vivace ma non troppo presto.wav
Peak level 100.0 %
Track quality 100.0 %
Copy CRC A3849D95
Cannot be verified as accurate (confidence 9) [8E9A0653], AccurateRip returned [D5BD66CB]
Copy OK
No tracks could be verified as accurate
You may have a different pressing from the one(s) in the database
No errors occurred
End of status report

cd13

Exact Audio Copy V0.99 prebeta 4 from 23. January 2008
EAC extraction logfile from 10. October 2008, 12:12
00 Johannes Brahms Edition / Complete Works 13of60
Used drive : PLEXTOR DVDR PX-800A Adapter: 0 ID: 1
Read mode : Secure
Utilize accurate stream : Yes
Defeat audio cache : No
Make use of C2 pointers : Yes
Read offset correction : 48
Overread into Lead-In and Lead-Out : No
Fill up missing offset samples with silence : Yes
Delete leading and trailing silent blocks : No
Null samples used in CRC calculations : No
Used interface : Native Win32 interface for Win NT & 2000
Gap handling : Not detected, thus appended to previous track
Used output format : Internal WAV Routines
Sample format : 44.100 Hz; 16 Bit; Stereo
TOC of the extracted CD
Track | Start | Length | Start sector | End sector
---------------------------------------------------------
1 | 0:01.00 | 8:21.11 | 75 | 37660
2 | 8:22.11 | 5:05.39 | 37661 | 60574
3 | 13:27.50 | 4:46.21 | 60575 | 82045
4 | 18:13.71 | 5:43.11 | 82046 | 107781
5 | 23:57.07 | 8:44.36 | 107782 | 147117
6 | 32:41.43 | 5:31.28 | 147118 | 171970
7 | 38:12.71 | 7:48.09 | 171971 | 207079
Track 1
Filename C:\rip\wave\01 Clarinet Sonata in F minor Op.120 No1 - Allegro appassionato.wav
Peak level 100.0 %
Track quality 100.0 %
Copy CRC F23D961F
Cannot be verified as accurate (confidence 8) [5361C37E], AccurateRip returned [B6D74D18]
Copy OK
Track 2
Filename C:\rip\wave\02 Clarinet Sonata in F minor Op.120 No1 - Andante un poco adagio.wav
Peak level 35.7 %
Track quality 100.0 %
Copy CRC 5A0902B5
Cannot be verified as accurate (confidence 8) [D183E8F9], AccurateRip returned [BBA7952F]
Copy OK
Track 3
Filename C:\rip\wave\03 Clarinet Sonata in F minor Op.120 No1 - Allegretto grazioso.wav
Peak level 50.0 %
Track quality 100.0 %
Copy CRC 05630E6F
Cannot be verified as accurate (confidence 8) [02A8C546], AccurateRip returned [46246E9A]
Copy OK
Track 4
Filename C:\rip\wave\04 Clarinet Sonata in F minor Op.120 No1 - Vivace.wav
Peak level 92.7 %
Track quality 100.0 %
Copy CRC 96F1D60A
Cannot be verified as accurate (confidence 8) [717BED71], AccurateRip returned [2C14AA1D]
Copy OK
Track 5
Filename C:\rip\wave\05 Clarinet Sonata in E flat major Op.120 No2 - Allegro amabile.wav
Peak level 100.0 %
Track quality 100.0 %
Copy CRC 41FF829E
Cannot be verified as accurate (confidence 8) [2977C234], AccurateRip returned [FE716CF8]
Copy OK
Track 6
Filename C:\rip\wave\06 Clarinet Sonata in E flat major Op.120 No2 - Allegro appassionato.wav
Peak level 100.0 %
Track quality 100.0 %
Copy CRC 39EFD9D6
Cannot be verified as accurate (confidence 8) [9DD2237E], AccurateRip returned [C33FF8C6]
Copy OK
Track 7
Filename C:\rip\wave\07 Clarinet Sonata in E flat major Op.120 No2 - Andante con moto-allegro.wav
Peak level 100.0 %
Track quality 100.0 %
Copy CRC 20341985
Cannot be verified as accurate (confidence 8) [8EC24219], AccurateRip returned [F67774FF]
Copy OK
No tracks could be verified as accurate
You may have a different pressing from the one(s) in the database
No errors occurred
End of status report

cd14

Exact Audio Copy V0.99 prebeta 4 from 23. January 2008
EAC extraction logfile from 10. October 2008, 12:26
Brahms / Clarinet Quintet & String Quartet N°2
Used drive : PLEXTOR DVDR PX-800A Adapter: 0 ID: 1
Read mode : Secure
Utilize accurate stream : Yes
Defeat audio cache : No
Make use of C2 pointers : Yes
Read offset correction : 48
Overread into Lead-In and Lead-Out : No
Fill up missing offset samples with silence : Yes
Delete leading and trailing silent blocks : No
Null samples used in CRC calculations : No
Used interface : Native Win32 interface for Win NT & 2000
Gap handling : Not detected, thus appended to previous track
Used output format : Internal WAV Routines
Sample format : 44.100 Hz; 16 Bit; Stereo
TOC of the extracted CD
Track | Start | Length | Start sector | End sector
---------------------------------------------------------
1 | 0:01.00 | 13:00.00 | 75 | 58574
2 | 13:01.00 | 11:48.47 | 58575 | 111721
3 | 24:49.47 | 4:36.74 | 111722 | 132495
4 | 29:26.46 | 8:46.62 | 132496 | 172007
5 | 38:13.33 | 9:21.31 | 172008 | 214113
6 | 47:34.64 | 9:07.61 | 214114 | 255199
7 | 56:42.50 | 5:07.60 | 255200 | 278284
8 | 61:50.35 | 7:03.69 | 278285 | 310078
Track 1
Filename C:\rip\wave\01 Clarinet Quintet in B minor Op.115 - Allegro (Brandis Quartett).wav
Peak level 100.0 %
Track quality 100.0 %
Copy CRC 7C83CDC5
Cannot be verified as accurate (confidence 8) [8EEAC62C], AccurateRip returned [D0C6BAFC]
Copy OK
Track 2
Filename C:\rip\wave\02 Clarinet Quintet in B minor Op.115 - Adagio-piu lento.wav
Peak level 71.2 %
Track quality 100.0 %
Copy CRC CE84E33C
Cannot be verified as accurate (confidence 8) [EC86B8DD], AccurateRip returned [DD1214BD]
Copy OK
Track 3
Filename C:\rip\wave\03 Clarinet Quintet in B minor Op.115 - Andantino-presto non assai, ma con sentimento.wav
Peak level 89.8 %
Track quality 99.9 %
Copy CRC 357BEFE0
Cannot be verified as accurate (confidence 8) [E7626BC3], AccurateRip returned [E7832A83]
Copy OK
Track 4
Filename C:\rip\wave\04 Clarinet Quintet in B minor Op.115 - Con moto.wav
Peak level 86.7 %
Track quality 100.0 %
Copy CRC 112FEED4
Cannot be verified as accurate (confidence 8) [E4E51FB6], AccurateRip returned [87CDCDA6]
Copy OK
Track 5
Filename C:\rip\wave\05 String Quartet N°2 in A minor Op.51 no2 - Allegro non troppo (Tokyo Quartet).wav
Peak level 54.3 %
Track quality 100.0 %
Copy CRC 91E5524B
Cannot be verified as accurate (confidence 8) [1392798E], AccurateRip returned [C52E76DE]
Copy OK
Track 6
Filename C:\rip\wave\06 String Quartet N°2 in A minor Op.51 no2 - Andante moderato.wav
Peak level 39.8 %
Track quality 100.0 %
Copy CRC 5B15C146
Cannot be verified as accurate (confidence 8) [8147967B], AccurateRip returned [CB1D9DA3]
Copy OK
Track 7
Filename C:\rip\wave\07 String Quartet N°2 in A minor Op.51 no2 - Quasi minuetto.wav
Peak level 37.4 %
Track quality 100.0 %
Copy CRC DAF7B094
Cannot be verified as accurate (confidence 9) [2C1C9644], AccurateRip returned [39354564]
Copy OK
Track 8
Filename C:\rip\wave\08 String Quartet N°2 in A minor Op.51 no2 - Allegro non assai.wav
Peak level 48.7 %
Track quality 99.9 %
Copy CRC 5C3E81D9
Cannot be verified as accurate (confidence 9) [4513660C], AccurateRip returned [8797B6D4]
Copy OK
No tracks could be verified as accurate
You may have a different pressing from the one(s) in the database
No errors occurred
End of status report

cd15

Exact Audio Copy V0.99 prebeta 4 from 23. January 2008
EAC extraction logfile from 10. October 2008, 13:03
00 Johannes Brahms Edition / Complete Works 15of60
Used drive : PLEXTOR DVDR PX-800A Adapter: 0 ID: 1
Read mode : Secure
Utilize accurate stream : Yes
Defeat audio cache : No
Make use of C2 pointers : Yes
Read offset correction : 48
Overread into Lead-In and Lead-Out : No
Fill up missing offset samples with silence : Yes
Delete leading and trailing silent blocks : No
Null samples used in CRC calculations : No
Used interface : Native Win32 interface for Win NT & 2000
Gap handling : Not detected, thus appended to previous track
Used output format : Internal WAV Routines
Sample format : 44.100 Hz; 16 Bit; Stereo
TOC of the extracted CD
Track | Start | Length | Start sector | End sector
---------------------------------------------------------
1 | 0:00.00 | 8:10.50 | 0 | 36799
2 | 8:10.50 | 7:47.42 | 36800 | 71866
3 | 15:58.17 | 8:56.43 | 71867 | 112109
4 | 24:54.60 | 6:12.70 | 112110 | 140079
5 | 31:07.55 | 7:42.32 | 140080 | 174761
6 | 38:50.12 | 7:26.03 | 174762 | 208214
7 | 46:16.15 | 7:57.45 | 208215 | 244034
8 | 54:13.60 | 10:18.55 | 244035 | 290439
Track 1
Filename C:\rip\wave\01 String Quartet No1 in C minor Op.51, Allegro.wav
Peak level 38.9 %
Track quality 100.0 %
Copy CRC 67DB21F6
Cannot be verified as accurate (confidence 9) [7206B585], AccurateRip returned [4CD57687]
Copy OK
Track 2
Filename C:\rip\wave\02 String Quartet No1 in C minor Op.51, Romanze, poco adagio.wav
Peak level 30.9 %
Track quality 100.0 %
Copy CRC C8753FD4
Cannot be verified as accurate (confidence 9) [9B0DE48E], AccurateRip returned [200DFCA6]
Copy OK
Track 3
Filename C:\rip\wave\03 String Quartet No1 in C minor Op.51, Allegro molto moderato e comodo.wav
Peak level 44.1 %
Track quality 100.0 %
Copy CRC 744446CE
Cannot be verified as accurate (confidence 9) [0F4D8A19], AccurateRip returned [620D4B0F]
Copy OK
Track 4
Filename C:\rip\wave\04 String Quartet No1 in C minor Op.51, Allegro.wav
Peak level 54.3 %
Track quality 99.9 %
Copy CRC 3D804910
Cannot be verified as accurate (confidence 9) [DE7EF62E], AccurateRip returned [31063DEA]
Copy OK
Track 5
Filename C:\rip\wave\05 String Quartet No3 in B flat major Op.67, Vivace.wav
Peak level 44.6 %
Track quality 100.0 %
Copy CRC 687975E7
Cannot be verified as accurate (confidence 9) [5BBF3A71], AccurateRip returned [9F2905BE]
Copy OK
Track 6
Filename C:\rip\wave\06 String Quartet No3 in B flat major Op.67, Andante.wav
Peak level 40.5 %
Track quality 100.0 %
Copy CRC D86CC275
Cannot be verified as accurate (confidence 9) [8D5E1196], AccurateRip returned [8A3C7174]
Copy OK
Track 7
Filename C:\rip\wave\07 String Quartet No3 in B flat major Op.67, Agitato-allegretto non troppo.wav
Peak level 51.1 %
Track quality 100.0 %
Copy CRC 7D126E09
Cannot be verified as accurate (confidence 9) [3000253E], AccurateRip returned [028D4E2A]
Copy OK
Track 8
Filename C:\rip\wave\08 String Quartet No3 in B flat major Op.67, Poco allegretto con variazioni.wav
Peak level 53.1 %
Track quality 100.0 %
Copy CRC 27610530
Cannot be verified as accurate (confidence 8) [6B9D45C7], AccurateRip returned [A3C96BB6]
Copy OK
No tracks could be verified as accurate
You may have a different pressing from the one(s) in the database
No errors occurred
End of status report

cd16

Exact Audio Copy V0.99 prebeta 4 from 23. January 2008
EAC extraction logfile from 10. October 2008, 13:20
00 Johannes Brahms Edition / Complete Works 16of60
Used drive : PLEXTOR DVDR PX-800A Adapter: 0 ID: 1
Read mode : Secure
Utilize accurate stream : Yes
Defeat audio cache : No
Make use of C2 pointers : Yes
Read offset correction : 48
Overread into Lead-In and Lead-Out : No
Fill up missing offset samples with silence : Yes
Delete leading and trailing silent blocks : No
Null samples used in CRC calculations : No
Used interface : Native Win32 interface for Win NT & 2000
Gap handling : Not detected, thus appended to previous track
Used output format : Internal WAV Routines
Sample format : 44.100 Hz; 16 Bit; Stereo
TOC of the extracted CD
Track | Start | Length | Start sector | End sector
---------------------------------------------------------
1 | 0:00.00 | 8:13.48 | 0 | 37022
2 | 8:13.48 | 7:25.50 | 37023 | 70447
3 | 15:39.23 | 7:35.45 | 70448 | 104617
4 | 23:14.68 | 6:30.07 | 104618 | 133874
5 | 29:45.00 | 15:51.18 | 133875 | 205217
6 | 45:36.18 | 8:52.50 | 205218 | 245167
7 | 54:28.68 | 7:49.60 | 245168 | 280402
8 | 62:18.53 | 10:15.30 | 280403 | 326557
Track 1
Filename C:\rip\wave\01 Horn Trio in E flat major Op.40 - I. Andante-poco piu animato.wav
Peak level 70.9 %
Track quality 100.0 %
Copy CRC 11372821
Cannot be verified as accurate (confidence 8) [11A8B1E6], AccurateRip returned [E759DAE0]
Copy OK
Track 2
Filename C:\rip\wave\02 Horn Trio in E flat major Op.40 - II. Scherzo & Trio [Allegro].wav
Peak level 72.3 %
Track quality 100.0 %
Copy CRC 6EBFF72B
Cannot be verified as accurate (confidence 8) [C6185D5F], AccurateRip returned [4CAA68E1]
Copy OK
Track 3
Filename C:\rip\wave\03 Horn Trio in E flat major Op.40 - III. Adagio mesto.wav
Peak level 81.9 %
Track quality 100.0 %
Copy CRC F749E262
Cannot be verified as accurate (confidence 8) [C603DE96], AccurateRip returned [F72D3058]
Copy OK
Track 4
Filename C:\rip\wave\04 Horn Trio in E flat major Op.40 - IV. Allegro con brio.wav
Peak level 99.8 %
Track quality 100.0 %
Copy CRC 15E1C724
Cannot be verified as accurate (confidence 7) [3D450BFF], AccurateRip returned [3E61F8E1]
Copy OK
Track 5
Filename C:\rip\wave\05 Piano Quintet in F minor Op.34 - I. Allegro non troppo.wav
Peak level 89.1 %
Track quality 100.0 %
Copy CRC 2241637D
Cannot be verified as accurate (confidence 6) [CD9AB664], AccurateRip returned [FD15F825]
Copy OK
Track 6
Filename C:\rip\wave\06 Piano Quintet in F minor Op.34 - II. Andante, un poco adagio.wav
Peak level 53.0 %
Track quality 100.0 %
Copy CRC D5479761
Cannot be verified as accurate (confidence 7) [A77A18FC], AccurateRip returned [C9D40A96]
Copy OK
Track 7
Filename C:\rip\wave\07 Piano Quintet in F minor Op.34 - III. Scherzo & Trio [Allegro].wav
Peak level 99.6 %
Track quality 99.9 %
Copy CRC 62A805A4
Cannot be verified as accurate (confidence 8) [6D7B3968], AccurateRip returned [99441C55]
Copy OK
Track 8
Filename C:\rip\wave\08 Piano Quintet in F minor Op.34 - IV. Poco sostenuto-allegro non troppo.wav
Peak level 94.5 %
Track quality 100.0 %
Copy CRC 24123F33
Cannot be verified as accurate (confidence 8) [2BE7661B], AccurateRip returned [E698BE83]
Copy OK
No tracks could be verified as accurate
You may have a different pressing from the one(s) in the database
No errors occurred
End of status report
Доп. информация: Последний диск образ iso - На нем полная информация о содержимом сете и биография композитора.

cd61

[teatrix.ru].t9780.torrent 
Торрент: Зарегистрирован [ 2015-10-23 17:26 ] · 5049E8E72EC0356B146EE48663BE63CA78AC0A80

Скачать .torrent

Скачать

177 KB

Статус: проверено
Скачан: 0 раз
Размер: 13.65 GB
terms.php



Быстрый ответ

Имя:

      
Для отправки сообщений необходимо включить JavaScript
Показать сообщения:    

Текущее время: 09-Дек 18:27

Часовой пояс: UTC + 3


Вы можете начинать темы
Вы можете отвечать на сообщения
Вы не можете редактировать свои сообщения
Вы не можете удалять свои сообщения
Вы не можете голосовать в опросах
Вы не можете прикреплять файлы к сообщениям
Вы можете скачивать файлы