(Classical/Quarter-tone Music) Alois Haba - Centenary(Works for String Quartet, Solo Instruments and Orchestra), 3 CD - 1993, FLAC (image+.cue), lossless


Статистика раздачи [Обновить пиров]
Размер:  952 MB   |    Зарегистрирован:  1 год 3 месяца   |    Скачан:  0 раз

Полного источника не было: Никогда

Личеров:  1  [  0 KB/s  ]   Подробная статистика пиров
 
   
 
 
 

[Цитировать]

Alois Haba - Centenary(Works for String Quartet, Solo Instruments and Orchestra), 3 CD
Жанр: Classical/Quarter-tone Music
Год выпуска диска: 1993
Производитель диска: Czech Republic (Supraphon)
Аудио кодек: FLAC
Тип рипа: image+.cue
Битрейт аудио: lossless
Продолжительность: 220:02
Источник: свой диск
CD 1
String Quartet No. 11 in Sixth-tone System
String Quartet No. 12 in Quarter-tone System
String Quartet No. 15 op 95
String Quartet No. 16 in Fifth-tone System
NOVAK QUARTET
Antonin Novak, Dusan Pandula - vlns, Josef Podjukl - vla, Jaroslav Hovanec - cello
Quartet for 4 Bassoons Op 74
F. Herman, J. Seidl, M. Masier, L. Vanek - bassoons
Suite for 4 rombones in Quarter-tone System Op 72
Z. Pulek, R. Suk, B. Bydzovsky, K. Kucera - trombones
Fantasy for Nonet in Twelve-note Sytem Op 40
CZECH NONET
CD 2
Suite for Cello Solo Op81
Jaroslav Chovanec - cello
Partita for Alto Saxophone Solo Op99
Sigurd M. Rascher - alto saxophone
Suite for Quarter-tone Clarinet and Quarter-tone Piano No. 1 Op 24
Milan Etlik - quarter-tone clarinet
Suite for Bass Clarinet and Piano Op 100
DUE BOHEMI DI PRAGA
J. Horak - bass clarinet, E. Kovarnova - piano
Suite for Quarter-tone Piano No. 6 Op 88
Sonata for Quarter-tone Piano Op 62
Vladimir Koula - quarter- tone piano
Suite for Dulcimer Op 91
Katerina Zlatnikova - dulcimer
CD 3
Symphonic Fantasy for Piano and Orchestra Op 8
The New Land, Overture to the Opera Op 47
The Way of Life, Symphonic Fantasy Op 46
Vladimir Koula - piano
FILM SYMPHONY ORCHESTRA
Stepan Konicek conductor
Доп Информация: отсканировано

Треклист

CD 1
String Quartet No. 11 in Sixth-tone System
01 1 - Allegro energico
02 2 - Andante misterioso
03 3 - Allegro agitato
String Quartet No. 12 in Quarter-tone System
04 1 - Allegro energico
05 2 - Andante cantabile
06 3 - Allegro risoluto
String Quartet No. 15 op 95
07 1 - Allegretto leggiero
08 2 - Andante cantabile
09 3 - Allegro vivace
10 4 - Adagio
11 5 - Allegro risoluto
String Quartet No. 16 in Fifth-tone System
12 1 - Andante cantabile
13 2 - Allegro vivace
14 3 - Allegro moderato
15 4 - Allegretto
16 5 - Vivacissimo
17 6 - Andante cantabile
18 7 - Allegro energico
19 8 - Allegretto
Quartet for 4 Bassoons Op 74
20 1 - Allegro risoluto
21 2 - Andante cantabile
22 3 - Allegro scherzando
Suite for 4 rombones in Quarter-tone System Op 72
23 1 - Maestoso
24 2 - Andante cantabile
25 3 - Allegretto scherzando
26 4 - Moderato cantabile
27 5 - Allegro risoluto
28 Fantasy for Nonet in Twelve-note Sytem Op 40
CD 2
Suite for Cello Solo Op81
01 1 - Allegro energico
02 2 - Moderato cantabile
03 3 - Allegro agitato
Partita for Alto Saxophone Solo Op99
04 1 - Allegro leggiero
05 2 - Andante cantabile
06 3 - Allegro scherzando
07 4 - Moderato
Suite for Quarter-tone Clarinet and Quarter-tone Piano No. 1 Op 24
08 1 - Moderato
09 2 - Presto
Suite for Bass Clarinet and Piano Op 100
10 1 - Allegretto animato
11 2 - Allegro agitato
12 3 - Andante cantabile
13 4 - Allegro animato
Suite for Quarter-tone Piano No. 6 Op 88
14 1 - Allegro
15 2 - Moderato
16 3 - Tempo di polka
17 4 - Allegretto
18 5 - Allegro energico
Sonata for Quarter-tone Piano Op 62
19 1 - Allegro agitato
20 2 - Andante cantabile
21 3 - Allegro risoluto
Suite for Dulcimer Op 91
22 1 - Allegro moderato
23 2 - Andante cantabile
24 3 - Allegro energico
CD 3
01 Symphonic Fantasy for Piano and Orchestra Op 8
02 The New Land, Overture to the Opera Op 47
03 The Way of Life, Symphonic Fantasy Op 46
NOVAK QUARTET
Antonin Novak, Dusan Pandula - vlns, Josef Podjukl - vla, Jaroslav Hovanec - cello /CD 1 (1-19)
F. Herman, J. Seidl, M. Masier, L. Vanek - bassoons /CD 1 (20-22)
B. Bydzovsky, K. Kucera - trombones /CD 1 (23-27)
Czech Nonet /CD 1 (28)
Jaroslav Chovanec - cello /CD 2 (1-3)
Sigurd M. Rascher - alto saxophone /CD 2 (4-7)
Milan Etlik - quarter-tone clarinet /CD 2 (8&9)
Vladimir Koula - quarter- tone piano /CD 2 (8&9, 14-21)
DUE BOHEMI DI PRAGA /CD 2 (10-13)
J. Horak - bass clarinet, E. Kovarnova - piano
Katerina Zlatnikova - dulcimer /CDE 2 (22-24)
FILM SYMPHONY ORCHESTRA
Stepan Konicek conductor

отчёт ЕАСДиск 1

Exact Audio Copy V0.99 prebeta 5 from 4. May 2009
EAC extraction logfile from 24. April 2010, 20:29
Hбba, Alois / Centenary - Supraphon (CD1)
Used drive : Optiarc DVD RW AD-5200S Adapter: 1 ID: 0
Read mode : Secure
Utilize accurate stream : Yes
Defeat audio cache : Yes
Make use of C2 pointers : No
Read offset correction : 48
Overread into Lead-In and Lead-Out : No
Fill up missing offset samples with silence : Yes
Delete leading and trailing silent blocks : No
Null samples used in CRC calculations : Yes
Used interface : Installed external ASPI interface
Used output format : User Defined Encoder
Selected bitrate : 192 kBit/s
Quality : High
Add ID3 tag : No
Command line compressor : C:\Program Files\Burrrn\flac.exe
Additional command line options : -T "DATE=%y" -T "GENRE=%m" -8 -V %s
TOC of the extracted CD
Track | Start | Length | Start sector | End sector
---------------------------------------------------------
1 | 0:00.32 | 2:47.50 | 32 | 12606
2 | 2:48.07 | 5:25.43 | 12607 | 37024
3 | 8:13.50 | 3:50.07 | 37025 | 54281
4 | 12:03.57 | 4:58.50 | 54282 | 76681
5 | 17:02.32 | 5:33.43 | 76682 | 101699
6 | 22:36.00 | 5:25.57 | 101700 | 126131
7 | 28:01.57 | 1:19.53 | 126132 | 132109
8 | 29:21.35 | 0:43.47 | 132110 | 135381
9 | 30:05.07 | 1:16.00 | 135382 | 141081
10 | 31:21.07 | 1:27.18 | 141082 | 147624
11 | 32:48.25 | 1:09.32 | 147625 | 152831
12 | 33:57.57 | 2:37.28 | 152832 | 164634
13 | 36:35.10 | 0:42.47 | 164635 | 167831
14 | 37:17.57 | 1:48.13 | 167832 | 175944
15 | 39:05.70 | 0:46.50 | 175945 | 179444
16 | 39:52.45 | 1:00.67 | 179445 | 184011
17 | 40:53.37 | 3:36.23 | 184012 | 200234
18 | 44:29.60 | 0:55.00 | 200235 | 204359
19 | 45:24.60 | 1:05.72 | 204360 | 209306
20 | 46:30.57 | 4:16.30 | 209307 | 228536
21 | 50:47.12 | 5:29.23 | 228537 | 253234
22 | 56:16.35 | 3:01.22 | 253235 | 266831
23 | 59:17.57 | 0:41.50 | 266832 | 269956
24 | 59:59.32 | 1:13.63 | 269957 | 275494
25 | 61:13.20 | 1:06.52 | 275495 | 280496
26 | 62:19.72 | 0:56.18 | 280497 | 284714
27 | 63:16.15 | 0:54.42 | 284715 | 288806
28 | 64:10.57 | 10:03.43 | 288807 | 334074
Range status and errors
Selected range
Filename F:\EAC\haba\Hбba, Alois - Centenary - Supraphon (CD1).wav
Peak level 87.5 %
Range quality 99.9 %
Copy CRC 36FDABA4
Copy OK
No errors occurred
AccurateRip summary
Track 1 not present in database
Track 2 not present in database
Track 3 not present in database
Track 4 not present in database
Track 5 not present in database
Track 6 not present in database
Track 7 not present in database
Track 8 not present in database
Track 9 not present in database
Track 10 not present in database
Track 11 not present in database
Track 12 not present in database
Track 13 not present in database
Track 14 not present in database
Track 15 not present in database
Track 16 not present in database
Track 17 not present in database
Track 18 not present in database
Track 19 not present in database
Track 20 not present in database
Track 21 not present in database
Track 22 not present in database
Track 23 not present in database
Track 24 not present in database
Track 25 not present in database
Track 26 not present in database
Track 27 not present in database
Track 28 not present in database
None of the tracks are present in the AccurateRip database
End of status report

Диск 2

Exact Audio Copy V0.99 prebeta 5 from 4. May 2009
EAC extraction logfile from 24. April 2010, 21:07
Hбba, Alois / Centenary - Supraphon (CD2)
Used drive : Optiarc DVD RW AD-5200S Adapter: 1 ID: 0
Read mode : Secure
Utilize accurate stream : Yes
Defeat audio cache : Yes
Make use of C2 pointers : No
Read offset correction : 48
Overread into Lead-In and Lead-Out : No
Fill up missing offset samples with silence : Yes
Delete leading and trailing silent blocks : No
Null samples used in CRC calculations : Yes
Used interface : Installed external ASPI interface
Used output format : User Defined Encoder
Selected bitrate : 192 kBit/s
Quality : High
Add ID3 tag : No
Command line compressor : C:\Program Files\Burrrn\flac.exe
Additional command line options : -T "DATE=%y" -T "GENRE=%m" -8 -V %s
TOC of the extracted CD
Track | Start | Length | Start sector | End sector
---------------------------------------------------------
1 | 0:00.32 | 2:15.08 | 32 | 10164
2 | 2:15.40 | 4:26.02 | 10165 | 30116
3 | 6:41.42 | 3:26.15 | 30117 | 45581
4 | 10:07.57 | 1:48.63 | 45582 | 53744
5 | 11:56.45 | 4:38.72 | 53745 | 74666
6 | 16:35.42 | 2:07.48 | 74667 | 84239
7 | 18:43.15 | 2:44.42 | 84240 | 96581
8 | 21:27.57 | 1:53.15 | 96582 | 105071
9 | 23:20.72 | 2:10.60 | 105072 | 114881
10 | 25:31.57 | 1:31.13 | 114882 | 121719
11 | 27:02.70 | 1:35.22 | 121720 | 128866
12 | 28:38.17 | 4:37.70 | 128867 | 149711
13 | 33:16.12 | 1:09.45 | 149712 | 154931
14 | 34:25.57 | 1:48.63 | 154932 | 163094
15 | 36:14.45 | 2:16.57 | 163095 | 173351
16 | 38:31.27 | 1:14.55 | 173352 | 178956
17 | 39:46.07 | 4:31.25 | 178957 | 199306
18 | 44:17.32 | 2:24.25 | 199307 | 210131
19 | 46:41.57 | 5:41.13 | 210132 | 235719
20 | 52:22.70 | 9:20.72 | 235720 | 277791
21 | 61:43.67 | 5:05.65 | 277792 | 300731
22 | 66:49.57 | 2:36.25 | 300732 | 312456
23 | 69:26.07 | 3:39.18 | 312457 | 328899
24 | 73:05.25 | 3:08.05 | 328900 | 343004
Range status and errors
Selected range
Filename F:\EAC\haba\d2\Hбba, Alois - Centenary - Supraphon (CD2).wav
Peak level 80.0 %
Range quality 100.0 %
Copy CRC 3B026DFA
Copy OK
No errors occurred
AccurateRip summary
Track 1 not present in database
Track 2 not present in database
Track 3 not present in database
Track 4 not present in database
Track 5 not present in database
Track 6 not present in database
Track 7 not present in database
Track 8 not present in database
Track 9 not present in database
Track 10 not present in database
Track 11 not present in database
Track 12 not present in database
Track 13 not present in database
Track 14 not present in database
Track 15 not present in database
Track 16 not present in database
Track 17 not present in database
Track 18 not present in database
Track 19 not present in database
Track 20 not present in database
Track 21 not present in database
Track 22 not present in database
Track 23 not present in database
Track 24 not present in database
None of the tracks are present in the AccurateRip database
End of status report

Диск 3

Exact Audio Copy V0.99 prebeta 5 from 4. May 2009
EAC extraction logfile from 24. April 2010, 21:45
Hбba, Alois / Centenary - Supraphon (CD3)
Used drive : Optiarc DVD RW AD-5200S Adapter: 1 ID: 0
Read mode : Secure
Utilize accurate stream : Yes
Defeat audio cache : Yes
Make use of C2 pointers : No
Read offset correction : 48
Overread into Lead-In and Lead-Out : No
Fill up missing offset samples with silence : Yes
Delete leading and trailing silent blocks : No
Null samples used in CRC calculations : Yes
Used interface : Installed external ASPI interface
Used output format : User Defined Encoder
Selected bitrate : 192 kBit/s
Quality : High
Add ID3 tag : No
Command line compressor : C:\Program Files\Burrrn\flac.exe
Additional command line options : -T "DATE=%y" -T "GENRE=%m" -8 -V %s
TOC of the extracted CD
Track | Start | Length | Start sector | End sector
---------------------------------------------------------
1 | 0:00.32 | 35:10.25 | 32 | 158306
2 | 35:10.57 | 6:41.00 | 158307 | 188381
3 | 41:51.57 | 27:40.30 | 188382 | 312911
Range status and errors
Selected range
Filename F:\EAC\haba\d3\Hбba, Alois - Centenary - Supraphon (CD3).wav
Peak level 91.3 %
Range quality 100.0 %
Copy CRC 5E0680CE
Copy OK
No errors occurred
AccurateRip summary
Track 1 not present in database
Track 2 not present in database
Track 3 not present in database
None of the tracks are present in the AccurateRip database
End of status report
[teatrix.ru].t9781.torrent 
Торрент: Зарегистрирован [ 2015-10-23 17:26 ] · 7EE93596169368A993050F00C33E6B3FB8C341F6

Скачать .torrent

Скачать

20 KB

Статус: проверено
Скачан: 0 раз
Размер: 952 MB
terms.php



Быстрый ответ

Имя:

      
Для отправки сообщений необходимо включить JavaScript
Показать сообщения:    

Текущее время: 24-Янв 00:01

Часовой пояс: UTC + 3


Вы можете начинать темы
Вы можете отвечать на сообщения
Вы не можете редактировать свои сообщения
Вы не можете удалять свои сообщения
Вы не можете голосовать в опросах
Вы не можете прикреплять файлы к сообщениям
Вы можете скачивать файлы