(Classical, piano) The art of Emil Gilels/ Искусство Эмиля Гилельса 5CD - 2005, APE (image+.cue), lossless


Статистика раздачи [Обновить пиров]
Размер:  1.32 GB   |    Зарегистрирован:  1 год 1 месяц   |    Скачан:  0 раз

Полного источника не было: Никогда

Личеров:  1  [  0 KB/s  ]   Подробная статистика пиров
 
   
 
 
 

[Цитировать]

The art of Emil Gilels/ Искусство Эмиля Гилельса 5CD
Жанр: Classical, piano
Аудио кодек: APE
Тип рипа: image+.cue
Битрейт аудио: lossless
Год выпуска диска: 2005
Производитель диска: "Мелодия"
Продолжительность: 66'35+78'31+74'26+55'19+68'07
Трэклист:

CD1

Доменико Скарлатти (1685— 1757)
Cонаты для фортепиано
1. Sonata (Toccata) In D Minor, L. 422 Presto
2. Sonata In F Major, L. 116 Allegro
3. Sonata (Aria) In D Minor, L. 423 Moderato
4. Sonata In F Minor, L. 118 Allegro Moderato
5. Sonata In A Major, L. 395 Andante
6. Sonata In В Minor, L. 449 Allegro
7. Sonata In G Major, L. 487 Vivo
Карл Филипп Эммануил Бах (1714— 1788)
Соната ля мажор (1779)
8. Allegro Assai (Sonata In A Major)
9. Poco Adagio (Sonata In A Major)
10. Allegro (Sonata In A Major)
Йозеф Гайдн (1732— 1809)
Соната до минор, Hob. XVI: 20 (1771)
11. Moderato (Sonata In С Minor, Hob. XVI: 20)
12. Andante Con Moto (Sonata In С Minor, Hob. XVI: 20)
13. Finale. Allegro (Sonata In С Minor, Hob. XVI: 20)
Запись с концерта 26.12.60

CD2

Франц Лист (1811— 1886)
1. Соната си минор (1853)
Фредерик Шопен (1810— 1849)
Соната № 2 си бемоль минор, соч. 35 (1839)
2. 1. Grave. Doppio movimento
3. 2. Scherzo
4. 3. Marche funebre. Lento
5. 4. Finale. Presto
Роберт Шуман (1810— 1856)
Соната № 1 фа диез минор, соч. 11 (1835)
6. 1. Un poco adagio. Allegro vivace
7. 2. Aria
8. 3. Scherzo ed intermezzo
9. 4. Finale. Allegro un poco maestoso
Запись с концерта 10.10.61

CD3

Людвиг ван Бетховен (1770— 1827)
Соната № 28 ля мажор, соч. 101 (1816)
1. 1. Etwas lebhaft und der mit innigsten Empfindung
2. 2. Lebhaft. Marschmabig
3. 3. Langsam und sehnsuchtsvoll
4. 4. Geschwinde, doch nicht zu sehr, und mit
Entschlossenheit
Роберт Шуман (1810— 1856)
5. Presto passionatо соль минор, соч. 22 bis (1835)
«Ночные пьесы», соч.23 (1839)
6. 1. Mehr langsam oft zuruckhaltend
7. 2. Markiert und lebhaft
8. 3. Mit grober lebhaftkeit
9. 4. Ad libitum
Сергей Прокофьев (1891— 1953)
Соната № 8 си бемоль мажор, соч. 84 (1944)
10. 1. Andante dolce
11. 2. Andante sognando.
12. 3. Vivace
Запись с концерта 26.01.67

CD4

Александр Глазунов (1865— 1936)
Соната № 2 ми минор, соч. 75 (1901)
1. 1. Moderato
2. 2. Scherzo. Allegretto
3. 3. Finale. Allegro moderato
Сергей Прокофьев (1891— 1953)
Соната № 2 ре минор, соч. 14 (1912)
4. 1. Allegro ma non troppo
5. 2. Allegro marcato
6. 3. Andante
7. 4. Vivace
Милий Балакирев (1837— 1910)
8. «Исламей», восточная фантазия (1869)
Сергей Рахманинов (1873— 1943)
9. Музыкальный момент ре бемоль мажор, соч. 16 № 5
(1896)
10. «Полишинель», соч. 3 № 4 (1892)
Запись с концерта 03.03.50

CD5

The art of Emil Gilels (1916-1985). Vol. 5
Johann Sebastian Bach (1685-1750) - Alexander Siloti (1863-1945)
1. Prelude in В minor (arr. of Prelude in E minor,
from the «Well-Tempered Clavier», vol.1) 3.15
Jean-Philippe Rameau (1683-1764)
2. «La Villageoise» 1.59
3. «Tambourin» 1.34
Muzio Clementi (1752-1832)
Sonata in С major
4. 1. Allegro con spirito 7.30
5. 2. Un poco andante quasi allegretto 6.13
6. 3. Allegro 4.17
Maurice Ravel (1875-1937)
7. «Alborada del grazioso» (from the «Miroirs», №4; 1905) 6.16
Claude Debussy (1862-1918)
Suite «Pour le piano» (1901)
8. 1. Prelude 3.28
9. 2. Saraband 3.53
10. 3. Toccata 3.50
11. Etude № 11 «Pour les arpeges composes»
(from the «Etudes», book II; 1913) 4.21
Isaac Albeniz (1860-1909)
12. «Navarra» (Op. posth.) 4.42
Francis Poulenc (1899-1963)
13. «Pastourelle» (1928) 2.29
Manuel de Falla (1876-1946)
14. «Danza ritual del fuego»
(Fire Dance) from the ballet «Amor Brujo» (1914) 3.12
Alexander Scriabin (1872-1915)
15. Etude in C sharp minor, Op. 2 №1 (1887) 3.32
Igor Stravinsky (1882-1971)
16. Adagio from the ballet «Apollon Musagete» (1928) 3.22
Sergei Rachmaninov (1873-1943)
17. Prelude in G minor, Op. 23 №5 (1903) 4.04
Total playing time: 68.07
Archive recordings from the concerts (live): 10.10.1961 (1, 7, 16);
26.12.1960 (2-6); 06.01.1954 (8-14); 26.01.1967 (15, 17)
Доп. информация:

отчет EAC CD1

Exact Audio Copy V0.99 prebeta 5 from 4. May 2009
Отчёт EAC об извлечении, выполненном 5. апреля 2010, 23:15
- / The Art of Emil Gilels Vol.1
Дисковод: Optiarc DVD RW AD-7203S Adapter: 2 ID: 1
Режим чтения : Достоверность
Использование точного потока : Да
Отключение кэша аудио : Да
Использование указателей C2 : Нет
Коррекция смещения при чтении : 48
Способность читать области Lead-in и Lead-out : Нет
Заполнение пропущенных сэмплов тишиной : Да
Удаление блоков с тишиной в начале и конце : Нет
При вычислениях CRC использовались нулевые сэмплы : Да
Интерфейс : Встроенный Win32-интерфейс для Win NT/2000
Выходной формат : Внутренние WAV-операции
Формат сэмплов : 44.100 Гц; 16 бит; стерео
TOC извлечённого CD
Трек | Старт | Длительность | Начальный сектор | Конечный сектор
---------------------------------------------------------------------
1 | 0:00.00 | 4:33.38 | 0 | 20512
2 | 4:33.38 | 4:30.51 | 20513 | 40813
3 | 9:04.14 | 2:15.03 | 40814 | 50941
4 | 11:19.17 | 3:59.67 | 50942 | 68933
5 | 15:19.09 | 2:49.11 | 68934 | 81619
6 | 18:08.20 | 4:17.66 | 81620 | 100960
7 | 22:26.11 | 2:26.05 | 100961 | 111915
8 | 24:52.16 | 9:17.46 | 111916 | 153736
9 | 34:09.62 | 5:15.44 | 153737 | 177405
10 | 39:25.31 | 4:40.28 | 177406 | 198433
11 | 44:05.59 | 10:09.37 | 198434 | 244145
12 | 54:15.21 | 7:39.08 | 244146 | 278578
13 | 61:54.29 | 4:41.36 | 278579 | 299689
Характеристики диапазона извлечения и сообщения об ошибках
Выбранный диапазон
Имя файла C:\Documents and Settings\Admin\Мои документы\Моя музыка\The Art of Emil Gilels Vol.1.wav
Пиковый уровень 57.5 %
Качество диапазона 99.9 %
CRC копии 3D94B6C2
Копирование... OK
Ошибок не произошло
Конец отчёта

отчет EAC CD2

Exact Audio Copy V0.99 prebeta 5 from 4. May 2009
Отчёт EAC об извлечении, выполненном 5. апреля 2010, 23:45
- / The Art of Emil Gilels Vol.2
Дисковод: Optiarc DVD RW AD-7203S Adapter: 2 ID: 1
Режим чтения : Достоверность
Использование точного потока : Да
Отключение кэша аудио : Да
Использование указателей C2 : Нет
Коррекция смещения при чтении : 48
Способность читать области Lead-in и Lead-out : Нет
Заполнение пропущенных сэмплов тишиной : Да
Удаление блоков с тишиной в начале и конце : Нет
При вычислениях CRC использовались нулевые сэмплы : Да
Интерфейс : Встроенный Win32-интерфейс для Win NT/2000
Выходной формат : Внутренние WAV-операции
Формат сэмплов : 44.100 Гц; 16 бит; стерео
TOC извлечённого CD
Трек | Старт | Длительность | Начальный сектор | Конечный сектор
---------------------------------------------------------------------
1 | 0:00.00 | 29:09.02 | 0 | 131176
2 | 29:09.02 | 5:31.06 | 131177 | 156007
3 | 34:40.08 | 6:51.57 | 156008 | 186889
4 | 41:31.65 | 7:30.05 | 186890 | 220644
5 | 49:01.70 | 1:38.58 | 220645 | 228052
6 | 50:40.53 | 9:12.54 | 228053 | 269506
7 | 59:53.32 | 2:51.31 | 269507 | 282362
8 | 62:44.63 | 4:12.39 | 282363 | 301301
9 | 66:57.27 | 11:34.22 | 301302 | 353373
Характеристики диапазона извлечения и сообщения об ошибках
Выбранный диапазон
Имя файла C:\Documents and Settings\Admin\Мои документы\Моя музыка\The Art of Emil Gilels Vol.2.wav
Пиковый уровень 69.2 %
Качество диапазона 99.9 %
CRC копии 0282B987
Копирование... OK
Ошибок не произошло
Конец отчёта

отчет EAC CD3

Exact Audio Copy V0.99 prebeta 5 from 4. May 2009
Отчёт EAC об извлечении, выполненном 6. апреля 2010, 0:23
- / The Art of Emil Gilels Vol.3
Дисковод: Optiarc DVD RW AD-7203S Adapter: 2 ID: 1
Режим чтения : Достоверность
Использование точного потока : Да
Отключение кэша аудио : Да
Использование указателей C2 : Нет
Коррекция смещения при чтении : 48
Способность читать области Lead-in и Lead-out : Нет
Заполнение пропущенных сэмплов тишиной : Да
Удаление блоков с тишиной в начале и конце : Нет
При вычислениях CRC использовались нулевые сэмплы : Да
Интерфейс : Встроенный Win32-интерфейс для Win NT/2000
Выходной формат : Внутренние WAV-операции
Формат сэмплов : 44.100 Гц; 16 бит; стерео
TOC извлечённого CD
Трек | Старт | Длительность | Начальный сектор | Конечный сектор
---------------------------------------------------------------------
1 | 0:00.00 | 4:00.46 | 0 | 18045
2 | 4:00.46 | 5:48.02 | 18046 | 44147
3 | 9:48.48 | 3:01.40 | 44148 | 57762
4 | 12:50.13 | 7:05.59 | 57763 | 89696
5 | 19:55.72 | 6:03.69 | 89697 | 116990
6 | 25:59.66 | 4:17.03 | 116991 | 136268
7 | 30:16.69 | 7:11.07 | 136269 | 168600
8 | 37:28.01 | 3:38.18 | 168601 | 184968
9 | 41:06.19 | 3:53.43 | 184969 | 202486
10 | 44:59.62 | 15:34.23 | 202487 | 272559
11 | 60:34.10 | 4:07.10 | 272560 | 291094
12 | 64:41.20 | 9:45.48 | 291095 | 335017
Характеристики диапазона извлечения и сообщения об ошибках
Выбранный диапазон
Имя файла C:\Documents and Settings\Admin\Мои документы\Моя музыка\The Art of Emil Gilels Vol.3.wav
Пиковый уровень 100.0 %
Качество диапазона 99.9 %
CRC копии 0A889592
Копирование... OK
Ошибок не произошло
Конец отчёта

отчет EAC CD4

Exact Audio Copy V0.99 prebeta 5 from 4. May 2009
Отчёт EAC об извлечении, выполненном 6. апреля 2010, 0:43
- / The Art Of Emil Gilels Vol.4
Дисковод: Optiarc DVD RW AD-7203S Adapter: 2 ID: 1
Режим чтения : Достоверность
Использование точного потока : Да
Отключение кэша аудио : Да
Использование указателей C2 : Нет
Коррекция смещения при чтении : 48
Способность читать области Lead-in и Lead-out : Нет
Заполнение пропущенных сэмплов тишиной : Да
Удаление блоков с тишиной в начале и конце : Нет
При вычислениях CRC использовались нулевые сэмплы : Да
Интерфейс : Встроенный Win32-интерфейс для Win NT/2000
Выходной формат : Внутренние WAV-операции
Формат сэмплов : 44.100 Гц; 16 бит; стерео
TOC извлечённого CD
Трек | Старт | Длительность | Начальный сектор | Конечный сектор
---------------------------------------------------------------------
1 | 0:00.00 | 8:22.36 | 0 | 37685
2 | 8:22.36 | 5:57.31 | 37686 | 64491
3 | 14:19.67 | 8:45.27 | 64492 | 103893
4 | 23:05.19 | 6:10.00 | 103894 | 131643
5 | 29:15.19 | 1:47.10 | 131644 | 139678
6 | 31:02.29 | 4:58.03 | 139679 | 162031
7 | 36:00.32 | 4:44.72 | 162032 | 183403
8 | 40:45.29 | 7:42.69 | 183404 | 218122
9 | 48:28.23 | 3:28.36 | 218123 | 233758
10 | 51:56.59 | 3:22.42 | 233759 | 248950
Характеристики диапазона извлечения и сообщения об ошибках
Выбранный диапазон
Имя файла C:\Documents and Settings\Admin\Мои документы\Моя музыка\The Art Of Emil Gilels Vol.4.wav
Пиковый уровень 58.7 %
Качество диапазона 100.0 %
CRC копии BFB49783
Копирование... OK
Ошибок не произошло
Конец отчёта

отчет EAC CD5

Exact Audio Copy V0.99 prebeta 5 from 4. May 2009
Отчёт EAC об извлечении, выполненном 6. апреля 2010, 1:05
- / The Art of Emil Gilels Vol.5
Дисковод: Optiarc DVD RW AD-7203S Adapter: 2 ID: 1
Режим чтения : Достоверность
Использование точного потока : Да
Отключение кэша аудио : Да
Использование указателей C2 : Нет
Коррекция смещения при чтении : 48
Способность читать области Lead-in и Lead-out : Нет
Заполнение пропущенных сэмплов тишиной : Да
Удаление блоков с тишиной в начале и конце : Нет
При вычислениях CRC использовались нулевые сэмплы : Да
Интерфейс : Встроенный Win32-интерфейс для Win NT/2000
Выходной формат : Внутренние WAV-операции
Формат сэмплов : 44.100 Гц; 16 бит; стерео
TOC извлечённого CD
Трек | Старт | Длительность | Начальный сектор | Конечный сектор
---------------------------------------------------------------------
1 | 0:00.00 | 3:15.29 | 0 | 14653
2 | 3:15.29 | 1:59.55 | 14654 | 23633
3 | 5:15.09 | 1:34.00 | 23634 | 30683
4 | 6:49.09 | 7:30.11 | 30684 | 64444
5 | 14:19.20 | 6:14.00 | 64445 | 92494
6 | 20:33.20 | 4:17.32 | 92495 | 111801
7 | 24:50.52 | 6:16.43 | 111802 | 140044
8 | 31:07.20 | 3:28.22 | 140045 | 155666
9 | 34:35.42 | 3:53.13 | 155667 | 173154
10 | 38:28.55 | 3:50.60 | 173155 | 190464
11 | 42:19.40 | 4:21.15 | 190465 | 210054
12 | 46:40.55 | 4:42.07 | 210055 | 231211
13 | 51:22.62 | 2:29.19 | 231212 | 242405
14 | 53:52.06 | 3:12.71 | 242406 | 256876
15 | 57:05.02 | 3:32.60 | 256877 | 272836
16 | 60:37.62 | 3:22.63 | 272837 | 288049
17 | 64:00.50 | 4:04.42 | 288050 | 306391
Характеристики диапазона извлечения и сообщения об ошибках
Выбранный диапазон
Имя файла C:\Documents and Settings\Admin\Мои документы\Моя музыка\The Art of Emil Gilels Vol.5.wav
Пиковый уровень 81.5 %
Качество диапазона 100.0 %
CRC копии EF76EF64
Копирование... OK
Ошибок не произошло
Конец отчёта
[teatrix.ru].t9782.torrent 
Торрент: Зарегистрирован [ 2015-10-23 17:26 ] · A751D94CCDFE27142355359B16CCCAB20CAE69AC

Скачать .torrent

Скачать

30 KB

Статус: проверено
Скачан: 0 раз
Размер: 1.32 GB
terms.php



Быстрый ответ

Имя:

      
Для отправки сообщений необходимо включить JavaScript
Показать сообщения:    

Текущее время: 11-Дек 16:50

Часовой пояс: UTC + 3


Вы можете начинать темы
Вы можете отвечать на сообщения
Вы не можете редактировать свои сообщения
Вы не можете удалять свои сообщения
Вы не можете голосовать в опросах
Вы не можете прикреплять файлы к сообщениям
Вы можете скачивать файлы