(Classical) Kronos Quartet: 25 Years (Arvo Part, Astor Piazzolla, Philip Glass, Steve Reich, Terry Riley, Альфред Шнитке, etc.), 10-дисковый бокс-сет, 1998, FLAC (tracks+.cue), lossless


Статистика раздачи [Обновить пиров]
Размер:  2.44 GB   |    Зарегистрирован:  1 год 1 месяц   |    Скачан:  0 раз
Сидов:  3  [  0 KB/s  ]   Личеров:  1  [  0 KB/s  ]   Подробная статистика пиров
 
   
 
 

[Цитировать]

Kronos Quartet: 25 Years-- --Genre: contemporary chamber classical
Year: 1998
Country: USA
Audio codec: FLAC
Tipe of rip: tracks+.cue
Bitrate: lossless
Total time: 10:32:57
Source: what.cd-
-

Content:Disc 1 -- John Adams, Arvo Pärt

John Adams
John's Book of Alleged Dances
01.Judah to Ocean [2:36]
02. Toot Nipple [1:16]
03. Dogjam [2:35]
04. Pavane: She's So Fine [6:34]
05. Rag the Bone [3:04]
06. Habanera [4:49]
07. Stubble Crotchet [2:44]
08. Hammer & Chisel [1:16]
09. Alligator Escalator [3:55]
10. Ständchen: The Little Serenade [4:59]
11. Judah to Ocean (Reprise) [2:42]--Arvo Pärt
12. Fratres [9:32]-13. Psalom [2:08]-Missa Syllabica
14. Summa [5:21]
15. Kyrie [2:09]
16. Gloria [2:48]
17. Credo [4:28]
18. Sanctus [0:58]
19. Agnus Dei [1:49]
20. Ite, Missa Est [0:27]
with Neal Rogers, Suzanne Elder, Paul Hillier, Ellen L. Hargis--Total Time = 01:06:10-
-

Отчёт EAC

Exact Audio Copy V0.99 prebeta 5 from 4. May 2009
EAC extraction logfile from 2. January 2010, 23:16
Kronos Quartet / 25 Years (Disc 1) (John Adams, Arvo Pдrt)
Used drive : HL-DT-STDVDRAM GSA-U20N Adapter: 0 ID: 1
Read mode : SecureUtilize accurate stream : YesDefeat audio cache : YesMake use of C2 pointers : No
Read offset correction : 667Overread into Lead-In and Lead-Out : NoFill up missing offset samples with silence : YesDelete leading and trailing silent blocks : NoNull samples used in CRC calculations : YesUsed interface : Native Win32 interface for Win NT & 2000Gap handling : Appended to previous track
Used output format : User Defined EncoderSelected bitrate : 192 kBit/sQuality : HighAdd ID3 tag : NoCommand line compressor : C:\Program Files\Exact Audio Copy\Flac\flac.exeAdditional command line options : -V -8 -T "artist=%a" -T "title=%t" -T "album=%g" -T "date=%y" -T "tracknumber=%n" -T "genre=%m" %s
TOC of the extracted CD
Track | Start | Length | Start sector | End sector --------------------------------------------------------- 1 | 0:00.32 | 2:35.63 | 32 | 11719 2 | 2:36.20 | 1:15.47 | 11720 | 17391 3 | 3:51.67 | 2:34.55 | 17392 | 28996 4 | 6:26.47 | 6:34.10 | 28997 | 58556 5 | 13:00.57 | 3:04.10 | 58557 | 72366 6 | 16:04.67 | 4:49.13 | 72367 | 94054 7 | 20:54.05 | 2:44.05 | 94055 | 106359 8 | 23:38.10 | 1:16.20 | 106360 | 112079 9 | 24:54.30 | 3:54.65 | 112080 | 129694 10 | 28:49.20 | 4:58.47 | 129695 | 152091 11 | 33:47.67 | 2:42.18 | 152092 | 164259 12 | 36:30.10 | 9:31.57 | 164260 | 207141 13 | 46:01.67 | 2:08.05 | 207142 | 216746 14 | 48:09.72 | 5:20.73 | 216747 | 240819 15 | 53:30.70 | 2:09.15 | 240820 | 250509 16 | 55:40.10 | 2:47.47 | 250510 | 263081 17 | 58:27.57 | 4:28.35 | 263082 | 283216 18 | 62:56.17 | 0:58.30 | 283217 | 287596 19 | 63:54.47 | 1:49.20 | 287597 | 295791 20 | 65:43.67 | 0:27.20 | 295792 | 297836
Track 1
Filename C:\Rips\Kronos Quartet - 1998 - 25 Years (Disc 1) (John Adams, Arvo Pдrt) [FLAC]\01 - John Adams , John's Book of Alleged Dances - Judah to Ocean.wav
Pre-gap length 0:00:02.42
Peak level 97.6 % Track quality 100.0 % Test CRC F52CAA05 Copy CRC F52CAA05 Accurately ripped (confidence 8) [C420AEB6] Copy OK
Track 2
Filename C:\Rips\Kronos Quartet - 1998 - 25 Years (Disc 1) (John Adams, Arvo Pдrt) [FLAC]\02 - John Adams , John's Book of Alleged Dances - Toot Nipple.wav
Pre-gap length 0:00:03.86
Peak level 82.9 % Track quality 100.0 % Test CRC DBB10002 Copy CRC DBB10002 Accurately ripped (confidence 8) [180DE569] Copy OK
Track 3
Filename C:\Rips\Kronos Quartet - 1998 - 25 Years (Disc 1) (John Adams, Arvo Pдrt) [FLAC]\03 - John Adams , John's Book of Alleged Dances - Dogjam.wav
Pre-gap length 0:00:02.73
Peak level 81.4 % Track quality 99.9 % Test CRC C047D2C8 Copy CRC C047D2C8 Accurately ripped (confidence 8) [07647DBC] Copy OK
Track 4
Filename C:\Rips\Kronos Quartet - 1998 - 25 Years (Disc 1) (John Adams, Arvo Pдrt) [FLAC]\04 - John Adams , John's Book of Alleged Dances - Pavane- She's So Fine.wav
Pre-gap length 0:00:04.02
Peak level 62.5 % Track quality 99.9 % Test CRC 555EB559 Copy CRC 555EB559 Accurately ripped (confidence 8) [544FB85D] Copy OK
Track 5
Filename C:\Rips\Kronos Quartet - 1998 - 25 Years (Disc 1) (John Adams, Arvo Pдrt) [FLAC]\05 - John Adams , John's Book of Alleged Dances - Rag the Bone.wav
Pre-gap length 0:00:03.16
Peak level 95.3 % Track quality 100.0 % Test CRC 18AE23FF Copy CRC 18AE23FF Accurately ripped (confidence 8) [CC988E75] Copy OK
Track 6
Filename C:\Rips\Kronos Quartet - 1998 - 25 Years (Disc 1) (John Adams, Arvo Pдrt) [FLAC]\06 - John Adams , John's Book of Alleged Dances - Habanera.wav
Pre-gap length 0:00:04.96
Peak level 47.6 % Track quality 100.0 % Test CRC BB7AC49F Copy CRC BB7AC49F Accurately ripped (confidence 8) [AA64CA77] Copy OK
Track 7
Filename C:\Rips\Kronos Quartet - 1998 - 25 Years (Disc 1) (John Adams, Arvo Pдrt) [FLAC]\07 - John Adams , John's Book of Alleged Dances - Stubble Crotchet.wav
Pre-gap length 0:00:03.17
Peak level 76.2 % Track quality 100.0 % Test CRC 1B80FBFE Copy CRC 1B80FBFE Accurately ripped (confidence 8) [31D47FD4] Copy OK
Track 8
Filename C:\Rips\Kronos Quartet - 1998 - 25 Years (Disc 1) (John Adams, Arvo Pдrt) [FLAC]\08 - John Adams , John's Book of Alleged Dances - Hammer & Chisel.wav
Pre-gap length 0:00:04.86
Peak level 81.1 % Track quality 100.0 % Test CRC 7D30F1BA Copy CRC 7D30F1BA Accurately ripped (confidence 8) [14439051] Copy OK
Track 9
Filename C:\Rips\Kronos Quartet - 1998 - 25 Years (Disc 1) (John Adams, Arvo Pдrt) [FLAC]\09 - John Adams , John's Book of Alleged Dances - Alligator Escalator.wav
Pre-gap length 0:00:05.20
Peak level 87.0 % Track quality 100.0 % Test CRC D21CD44E Copy CRC D21CD44E Accurately ripped (confidence 8) [F0729527] Copy OK
Track 10
Filename C:\Rips\Kronos Quartet - 1998 - 25 Years (Disc 1) (John Adams, Arvo Pдrt) [FLAC]\10 - John Adams , John's Book of Alleged Dances - Stдndchen- The Little Serenade.wav
Pre-gap length 0:00:05.50
Peak level 64.6 % Track quality 100.0 % Test CRC 50903494 Copy CRC 50903494 Accurately ripped (confidence 8) [1FD09C0C] Copy OK
Track 11
Filename C:\Rips\Kronos Quartet - 1998 - 25 Years (Disc 1) (John Adams, Arvo Pдrt) [FLAC]\11 - John Adams , John's Book of Alleged Dances - Judah to Ocean (Reprise).wav
Pre-gap length 0:00:06.66
Peak level 74.0 % Track quality 100.0 % Test CRC B8E6CB92 Copy CRC B8E6CB92 Accurately ripped (confidence 8) [1AB9497F] Copy OK
Track 12
Filename C:\Rips\Kronos Quartet - 1998 - 25 Years (Disc 1) (John Adams, Arvo Pдrt) [FLAC]\12 - Arvo Pдrt , Fratres.wav
Pre-gap length 0:00:10.84
Peak level 46.1 % Track quality 100.0 % Test CRC A5EED2AB Copy CRC A5EED2AB Accurately ripped (confidence 8) [1D65479E] Copy OK
Track 13
Filename C:\Rips\Kronos Quartet - 1998 - 25 Years (Disc 1) (John Adams, Arvo Pдrt) [FLAC]\13 - Arvo Pдrt , Psalom.wav
Pre-gap length 0:00:06.93
Peak level 28.7 % Track quality 100.0 % Test CRC C6DE5EB7 Copy CRC C6DE5EB7 Accurately ripped (confidence 8) [47A83A8F] Copy OK
Track 14
Filename C:\Rips\Kronos Quartet - 1998 - 25 Years (Disc 1) (John Adams, Arvo Pдrt) [FLAC]\14 - Arvo Pдrt , Missa Syllabica - Summa.wav
Pre-gap length 0:00:08.02
Peak level 21.6 % Track quality 100.0 % Test CRC 62048C1D Copy CRC 62048C1D Accurately ripped (confidence 8) [4F180C53] Copy OK
Track 15
Filename C:\Rips\Kronos Quartet - 1998 - 25 Years (Disc 1) (John Adams, Arvo Pдrt) [FLAC]\15 - Arvo Pдrt , Missa Syllabica - Kyrie.wav
Pre-gap length 0:00:07.86
Peak level 10.3 % Track quality 100.0 % Test CRC 183BD169 Copy CRC 183BD169 Accurately ripped (confidence 8) [0FBCFC75] Copy OK
Track 16
Filename C:\Rips\Kronos Quartet - 1998 - 25 Years (Disc 1) (John Adams, Arvo Pдrt) [FLAC]\16 - Arvo Pдrt , Missa Syllabica - Gloria.wav
Pre-gap length 0:00:01.60
Peak level 58.6 % Track quality 100.0 % Test CRC E5485394 Copy CRC E5485394 Accurately ripped (confidence 8) [C9B25D98] Copy OK
Track 17
Filename C:\Rips\Kronos Quartet - 1998 - 25 Years (Disc 1) (John Adams, Arvo Pдrt) [FLAC]\17 - Arvo Pдrt , Missa Syllabica - Credo.wav
Pre-gap length 0:00:02.66
Peak level 71.7 % Track quality 100.0 % Test CRC D0FD9603 Copy CRC D0FD9603 Accurately ripped (confidence 8) [74100D79] Copy OK
Track 18
Filename C:\Rips\Kronos Quartet - 1998 - 25 Years (Disc 1) (John Adams, Arvo Pдrt) [FLAC]\18 - Arvo Pдrt , Missa Syllabica - Sanctus.wav
Pre-gap length 0:00:01.56
Peak level 99.3 % Track quality 100.0 % Test CRC CAE894A1 Copy CRC CAE894A1 Accurately ripped (confidence 8) [385FD77B] Copy OK
Track 19
Filename C:\Rips\Kronos Quartet - 1998 - 25 Years (Disc 1) (John Adams, Arvo Pдrt) [FLAC]\19 - Arvo Pдrt , Missa Syllabica - Agnus Dei.wav
Pre-gap length 0:00:02.56
Peak level 16.2 % Track quality 99.9 % Test CRC E54BDCD6 Copy CRC E54BDCD6 Accurately ripped (confidence 8) [0777E8DF] Copy OK
Track 20
Filename C:\Rips\Kronos Quartet - 1998 - 25 Years (Disc 1) (John Adams, Arvo Pдrt) [FLAC]\20 - Arvo Pдrt , Missa Syllabica - Ite, Missa Est.wav
Pre-gap length 0:00:01.96
Peak level 98.8 % Track quality 99.6 % Test CRC E4A18886 Copy CRC E4A18886 Accurately ripped (confidence 7) [C98A1690] Copy OK
All tracks accurately ripped
No errors occurred
End of status report

.Cue

REM GENRE ClassicalREM DATE 1998REM DISCID 2F0F8314REM COMMENT "ExactAudioCopy v0.99pb5"FILE "01 - John Adams , John's Book of Alleged Dances - Judah to Ocean.wav" WAVE TRACK 01 AUDIO TITLE "John Adams , John's Book of Alleged Dances - Judah to Ocean" PERFORMER "Kronos Quartet" PREGAP 00:00:32 INDEX 01 00:00:00 TRACK 02 AUDIO TITLE "John Adams , John's Book of Alleged Dances - Toot Nipple" PERFORMER "Kronos Quartet" INDEX 00 02:31:73FILE "02 - John Adams , John's Book of Alleged Dances - Toot Nipple.wav" WAVE INDEX 01 00:00:00 TRACK 03 AUDIO TITLE "John Adams , John's Book of Alleged Dances - Dogjam" PERFORMER "Kronos Quartet" INDEX 00 01:12:67FILE "03 - John Adams , John's Book of Alleged Dances - Dogjam.wav" WAVE INDEX 01 00:00:00 TRACK 04 AUDIO TITLE "John Adams , John's Book of Alleged Dances - Pavane- She's So Fine" PERFORMER "Kronos Quartet" INDEX 00 02:30:53FILE "04 - John Adams , John's Book of Alleged Dances - Pavane- She's So Fine.wav" WAVE INDEX 01 00:00:00 TRACK 05 AUDIO TITLE "John Adams , John's Book of Alleged Dances - Rag the Bone" PERFORMER "Kronos Quartet" INDEX 00 06:30:73FILE "05 - John Adams , John's Book of Alleged Dances - Rag the Bone.wav" WAVE INDEX 01 00:00:00 TRACK 06 AUDIO TITLE "John Adams , John's Book of Alleged Dances - Habanera" PERFORMER "Kronos Quartet" INDEX 00 02:59:13FILE "06 - John Adams , John's Book of Alleged Dances - Habanera.wav" WAVE INDEX 01 00:00:00 TRACK 07 AUDIO TITLE "John Adams , John's Book of Alleged Dances - Stubble Crotchet" PERFORMER "Kronos Quartet" INDEX 00 04:46:00FILE "07 - John Adams , John's Book of Alleged Dances - Stubble Crotchet.wav" WAVE INDEX 01 00:00:00 TRACK 08 AUDIO TITLE "John Adams , John's Book of Alleged Dances - Hammer & Chisel" PERFORMER "Kronos Quartet" INDEX 00 02:39:15FILE "08 - John Adams , John's Book of Alleged Dances - Hammer & Chisel.wav" WAVE INDEX 01 00:00:00 TRACK 09 AUDIO TITLE "John Adams , John's Book of Alleged Dances - Alligator Escalator" PERFORMER "Kronos Quartet" INDEX 00 01:11:05FILE "09 - John Adams , John's Book of Alleged Dances - Alligator Escalator.wav" WAVE INDEX 01 00:00:00 TRACK 10 AUDIO TITLE "John Adams , John's Book of Alleged Dances - Stдndchen- The Little Serenade" PERFORMER "Kronos Quartet" INDEX 00 03:49:27FILE "10 - John Adams , John's Book of Alleged Dances - Stдndchen- The Little Serenade.wav" WAVE INDEX 01 00:00:00 TRACK 11 AUDIO TITLE "John Adams , John's Book of Alleged Dances - Judah to Ocean (Reprise)" PERFORMER "Kronos Quartet" INDEX 00 04:51:72FILE "11 - John Adams , John's Book of Alleged Dances - Judah to Ocean (Reprise).wav" WAVE INDEX 01 00:00:00 TRACK 12 AUDIO TITLE "Arvo Part , Fratres" PERFORMER "Kronos Quartet" INDEX 00 02:31:30FILE "12 - Arvo Part , Fratres.wav" WAVE INDEX 01 00:00:00 TRACK 13 AUDIO TITLE "Arvo Pдrt , Psalom" PERFORMER "Kronos Quartet" INDEX 00 09:24:62FILE "13 - Arvo Pдrt , Psalom.wav" WAVE INDEX 01 00:00:00 TRACK 14 AUDIO TITLE "Arvo Part , Missa Syllabica - Summa" PERFORMER "Kronos Quartet" INDEX 00 02:00:03FILE "14 - Arvo Part , Missa Syllabica - Summa.wav" WAVE INDEX 01 00:00:00 TRACK 15 AUDIO TITLE "Arvo Part , Missa Syllabica - Kyrie" PERFORMER "Kronos Quartet" INDEX 00 05:13:08FILE "15 - Arvo Part , Missa Syllabica - Kyrie.wav" WAVE INDEX 01 00:00:00 TRACK 16 AUDIO TITLE "Arvo Part , Missa Syllabica - Gloria" PERFORMER "Kronos Quartet" INDEX 00 02:07:45FILE "16 - Arvo Part , Missa Syllabica - Gloria.wav" WAVE INDEX 01 00:00:00 TRACK 17 AUDIO TITLE "Arvo Part , Missa Syllabica - Credo" PERFORMER "Kronos Quartet" INDEX 00 02:44:72FILE "17 - Arvo Part , Missa Syllabica - Credo.wav" WAVE INDEX 01 00:00:00 TRACK 18 AUDIO TITLE "Arvo Part , Missa Syllabica - Sanctus" PERFORMER "Kronos Quartet" INDEX 00 04:26:68FILE "18 - Arvo Part , Missa Syllabica - Sanctus.wav" WAVE INDEX 01 00:00:00 TRACK 19 AUDIO TITLE "Arvo Part , Missa Syllabica - Agnus Dei" PERFORMER "Kronos Quartet" INDEX 00 00:55:63FILE "19 - Arvo Part , Missa Syllabica - Agnus Dei.wav" WAVE INDEX 01 00:00:00 TRACK 20 AUDIO TITLE "Arvo Part , Missa Syllabica - Ite, Missa Est" PERFORMER "Kronos Quartet" INDEX 00 01:47:23FILE "20 - Arvo Part , Missa Syllabica - Ite, Missa Est.wav" WAVE INDEX 01 00:00:00

Disc 2 -- Ken Benshoof, Astor Piazzolla

Ken Benshoof
Traveling Music
01. I. Gentle, easy [2:20]
02. II. Moderate [8:19]
03. III. Driving [8:29]-04. Song of Twenty Shadows [11:24]--Astor Piazzolla
Five Tango Sensations
05. Asleep [5:29]
06. Loving [6:14]
07. Anxiety [4:57]
08. Despertar [6:06]
09. Fear [4:07]
with Astor Piazzolla-10. Four, for Tango [3:59]--Total Time = 1:01:24-
-

Отчёт EAC

Exact Audio Copy V0.99 prebeta 5 from 4. May 2009
EAC extraction logfile from 3. January 2010, 0:05
Kronos Quartet / 25 Years (Disc 2) (Ken Benshoof, Astor Piazzolla)
Used drive : HL-DT-STDVDRAM GSA-U20N Adapter: 0 ID: 1
Read mode : SecureUtilize accurate stream : YesDefeat audio cache : YesMake use of C2 pointers : No
Read offset correction : 667Overread into Lead-In and Lead-Out : NoFill up missing offset samples with silence : YesDelete leading and trailing silent blocks : NoNull samples used in CRC calculations : YesUsed interface : Native Win32 interface for Win NT & 2000Gap handling : Appended to previous track
Used output format : User Defined EncoderSelected bitrate : 192 kBit/sQuality : HighAdd ID3 tag : NoCommand line compressor : C:\Program Files\Exact Audio Copy\Flac\flac.exeAdditional command line options : -V -8 -T "artist=%a" -T "title=%t" -T "album=%g" -T "date=%y" -T "tracknumber=%n" -T "genre=%m" %s
TOC of the extracted CD
Track | Start | Length | Start sector | End sector --------------------------------------------------------- 1 | 0:00.00 | 2:20.10 | 0 | 10509 2 | 2:20.10 | 8:18.52 | 10510 | 47911 3 | 10:38.62 | 8:28.45 | 47912 | 86056 4 | 19:07.32 | 11:24.35 | 86057 | 137391 5 | 30:31.67 | 5:28.43 | 137392 | 162034 6 | 36:00.35 | 6:14.25 | 162035 | 190109 7 | 42:14.60 | 4:57.15 | 190110 | 212399 8 | 47:12.00 | 6:06.17 | 212400 | 239866 9 | 53:18.17 | 4:07.25 | 239867 | 258416 10 | 57:25.42 | 3:59.13 | 258417 | 276354
Track 1
Filename C:\Rips\Kronos Quartet - 1998 - 25 Years (Disc 2) (Ken Benshoof, Astor Piazzolla) [FLAC]\01 - Ken Benshoof , Traveling Music- I. Gentle, easy.wav
Pre-gap length 0:00:02.00
Peak level 63.8 % Track quality 99.9 % Test CRC A29752CC Copy CRC A29752CC Accurately ripped (confidence 5) [A47B70E7] Copy OK
Track 2
Filename C:\Rips\Kronos Quartet - 1998 - 25 Years (Disc 2) (Ken Benshoof, Astor Piazzolla) [FLAC]\02 - Ken Benshoof , Traveling Music- II. Moderate.wav
Pre-gap length 0:00:03.70
Peak level 81.4 % Track quality 100.0 % Test CRC 342BFC88 Copy CRC 342BFC88 Accurately ripped (confidence 5) [C1244C3C] Copy OK
Track 3
Filename C:\Rips\Kronos Quartet - 1998 - 25 Years (Disc 2) (Ken Benshoof, Astor Piazzolla) [FLAC]\03 - Ken Benshoof , Traveling Music- III. Driving.wav
Peak level 76.9 % Track quality 100.0 % Test CRC 577544C1 Copy CRC 577544C1 Accurately ripped (confidence 5) [BEF6DDFB] Copy OK
Track 4
Filename C:\Rips\Kronos Quartet - 1998 - 25 Years (Disc 2) (Ken Benshoof, Astor Piazzolla) [FLAC]\04 - Ken Benshoof , Song of Twenty Shadows.wav
Pre-gap length 0:00:09.62
Peak level 79.4 % Track quality 100.0 % Test CRC 05211E40 Copy CRC 05211E40 Accurately ripped (confidence 5) [1DE157BA] Copy OK
Track 5
Filename C:\Rips\Kronos Quartet - 1998 - 25 Years (Disc 2) (Ken Benshoof, Astor Piazzolla) [FLAC]\05 - Astor Piazzolla , Five Tango Sensations- Asleep.wav
Pre-gap length 0:00:07.49
Peak level 40.3 % Track quality 100.0 % Test CRC 25E89330 Copy CRC 25E89330 Accurately ripped (confidence 5) [31D13EE6] Copy OK
Track 6
Filename C:\Rips\Kronos Quartet - 1998 - 25 Years (Disc 2) (Ken Benshoof, Astor Piazzolla) [FLAC]\06 - Astor Piazzolla , Five Tango Sensations- Loving.wav
Pre-gap length 0:00:05.06
Peak level 28.4 % Track quality 100.0 % Test CRC 835304DE Copy CRC 835304DE Accurately ripped (confidence 5) [6D7E7F81] Copy OK
Track 7
Filename C:\Rips\Kronos Quartet - 1998 - 25 Years (Disc 2) (Ken Benshoof, Astor Piazzolla) [FLAC]\07 - Astor Piazzolla , Five Tango Sensations- Anxiety.wav
Pre-gap length 0:00:01.97
Peak level 48.8 % Track quality 99.9 % Test CRC 2FE047FF Copy CRC 2FE047FF Accurately ripped (confidence 5) [60796C78] Copy OK
Track 8
Filename C:\Rips\Kronos Quartet - 1998 - 25 Years (Disc 2) (Ken Benshoof, Astor Piazzolla) [FLAC]\08 - Astor Piazzolla , Five Tango Sensations- Despertar.wav
Pre-gap length 0:00:06.50
Peak level 25.6 % Track quality 100.0 % Test CRC ECDAF998 Copy CRC ECDAF998 Accurately ripped (confidence 5) [C64F0780] Copy OK
Track 9
Filename C:\Rips\Kronos Quartet - 1998 - 25 Years (Disc 2) (Ken Benshoof, Astor Piazzolla) [FLAC]\09 - Astor Piazzolla , Five Tango Sensations- Fear.wav
Pre-gap length 0:00:01.89
Peak level 92.9 % Track quality 100.0 % Test CRC 2156BA0B Copy CRC 2156BA0B Accurately ripped (confidence 5) [31F40817] Copy OK
Track 10
Filename C:\Rips\Kronos Quartet - 1998 - 25 Years (Disc 2) (Ken Benshoof, Astor Piazzolla) [FLAC]\10 - Astor Piazzolla , Five Tango Sensations- Four, for Tango.wav
Pre-gap length 0:00:07.06
Peak level 99.1 % Track quality 100.0 % Test CRC 5DAC7E2C Copy CRC 5DAC7E2C Accurately ripped (confidence 4) [3F2410CA] Copy OK
All tracks accurately ripped
No errors occurred
End of status report

.Cue

REM GENRE ClassicalREM DATE 1998REM DISCID 740E640AREM COMMENT "ExactAudioCopy v0.99pb5"FILE "01 - Ken Benshoof , Traveling Music- I. Gentle, easy.wav" WAVE TRACK 01 AUDIO TITLE "Ken Benshoof , Traveling Music- I. Gentle, easy" PERFORMER "Kronos Quartet" INDEX 01 00:00:00 TRACK 02 AUDIO TITLE "Ken Benshoof , Traveling Music- II. Moderate" PERFORMER "Kronos Quartet" INDEX 00 02:16:32FILE "02 - Ken Benshoof , Traveling Music- II. Moderate.wav" WAVE INDEX 01 00:00:00FILE "03 - Ken Benshoof , Traveling Music- III. Driving.wav" WAVE TRACK 03 AUDIO TITLE "Ken Benshoof , Traveling Music- III. Driving" PERFORMER "Kronos Quartet" INDEX 01 00:00:00 TRACK 04 AUDIO TITLE "Ken Benshoof , Song of Twenty Shadows" PERFORMER "Kronos Quartet" INDEX 00 08:18:73FILE "04 - Ken Benshoof , Song of Twenty Shadows.wav" WAVE INDEX 01 00:00:00 TRACK 05 AUDIO TITLE "Astor Piazzolla , Five Tango Sensations- Asleep" PERFORMER "Kronos Quartet" INDEX 00 11:16:73FILE "05 - Astor Piazzolla , Five Tango Sensations- Asleep.wav" WAVE INDEX 01 00:00:00 TRACK 06 AUDIO TITLE "Astor Piazzolla , Five Tango Sensations- Loving" PERFORMER "Kronos Quartet" INDEX 00 05:23:38FILE "06 - Astor Piazzolla , Five Tango Sensations- Loving.wav" WAVE INDEX 01 00:00:00 TRACK 07 AUDIO TITLE "Astor Piazzolla , Five Tango Sensations- Anxiety" PERFORMER "Kronos Quartet" INDEX 00 06:12:27FILE "07 - Astor Piazzolla , Five Tango Sensations- Anxiety.wav" WAVE INDEX 01 00:00:00 TRACK 08 AUDIO TITLE "Astor Piazzolla , Five Tango Sensations- Despertar" PERFORMER "Kronos Quartet" INDEX 00 04:50:52FILE "08 - Astor Piazzolla , Five Tango Sensations- Despertar.wav" WAVE INDEX 01 00:00:00 TRACK 09 AUDIO TITLE "Astor Piazzolla , Five Tango Sensations- Fear" PERFORMER "Kronos Quartet" INDEX 00 06:04:25FILE "09 - Astor Piazzolla , Five Tango Sensations- Fear.wav" WAVE INDEX 01 00:00:00 TRACK 10 AUDIO TITLE "Astor Piazzolla , Five Tango Sensations- Four, for Tango" PERFORMER "Kronos Quartet" INDEX 00 04:00:20FILE "10 - Astor Piazzolla , Five Tango Sensations- Four, for Tango.wav" WAVE INDEX 01 00:00:00

Disc 3 -- Morton Feldman

Morton Feldman
01. Piano and String Quartet [1:19:38]
with Aki Takahashi--Total Time = 01:19:38-
-

Отчёт EAC

Exact Audio Copy V0.99 prebeta 5 from 4. May 2009
EAC extraction logfile from 3. January 2010, 1:27
Kronos Quartet / 25 Years (Disc 3) (Morton Feldman)
Used drive : HL-DT-STDVDRAM GSA-U20N Adapter: 0 ID: 1
Read mode : SecureUtilize accurate stream : YesDefeat audio cache : YesMake use of C2 pointers : No
Read offset correction : 667Overread into Lead-In and Lead-Out : NoFill up missing offset samples with silence : YesDelete leading and trailing silent blocks : NoNull samples used in CRC calculations : YesUsed interface : Native Win32 interface for Win NT & 2000Gap handling : Appended to previous track
Used output format : User Defined EncoderSelected bitrate : 192 kBit/sQuality : HighAdd ID3 tag : NoCommand line compressor : C:\Program Files\Exact Audio Copy\Flac\flac.exeAdditional command line options : -V -8 -T "artist=%a" -T "title=%t" -T "album=%g" -T "date=%y" -T "tracknumber=%n" -T "genre=%m" %s
TOC of the extracted CD
Track | Start | Length | Start sector | End sector --------------------------------------------------------- 1 | 0:00.00 | 79:38.30 | 0 | 358379
Track 1
Filename C:\Rips\Kronos Quartet - 1998 - 25 Years (Disc 3) (Morton Feldman) [FLAC]\01 - Piano and String Quartet.wav
Pre-gap length 0:00:02.00
Peak level 19.8 % Track quality 99.9 % Test CRC A29347E3 Copy CRC A29347E3 Accurately ripped (confidence 3) [DEE20C6B] Copy OK
All tracks accurately ripped
No errors occurred
End of status report

.Cue

REM GENRE ClassicalREM DATE 1998REM DISCID 0212AA01REM COMMENT "ExactAudioCopy v0.99pb5"FILE "01 - Piano and String Quartet.wav" WAVE TRACK 01 AUDIO TITLE "Piano and String Quartet" PERFORMER "Kronos Quartet" INDEX 01 00:00:00

Disc 4 -- Philip Glass

Philip Glass
Quartet No. 4 (Buczak, 1989)
01. I [8:00]
02. II [6:25]
03. III [8:48]-Mishima Quartet, Quartet No. 3 (1985):
04. 1957-Award Montage [3:32]
05. November 25-Ichigaya [1:23]
06. 1934-Grandmother and Kimitake [2:44]
07. 1962-Body Building [1:40]
08. Blood Oath [3:14]
09. Mishima-Closing [3:05]-Company, Quartet No. 2 (1983)
10. I [2:10]
11. II [1:36]
12. III [1:33]
13. IV [2:12]-Quartet No. 5 (1991)
14. I [1:11]
15. II [2:59]
16. III [5:28]
17. IV [4:38]
18. V [7:42]--Total Time = 01:08:21-
-

Отчёт EAC

Exact Audio Copy V0.99 prebeta 5 from 4. May 2009
EAC extraction logfile from 3. January 2010, 3:03
Kronos Quartet / 25 Years (Disc 4) (Philip Glass)
Used drive : HL-DT-STDVDRAM GSA-U20N Adapter: 0 ID: 1
Read mode : SecureUtilize accurate stream : YesDefeat audio cache : YesMake use of C2 pointers : No
Read offset correction : 667Overread into Lead-In and Lead-Out : NoFill up missing offset samples with silence : YesDelete leading and trailing silent blocks : NoNull samples used in CRC calculations : YesUsed interface : Native Win32 interface for Win NT & 2000Gap handling : Appended to previous track
Used output format : User Defined EncoderSelected bitrate : 192 kBit/sQuality : HighAdd ID3 tag : NoCommand line compressor : C:\Program Files\Exact Audio Copy\Flac\flac.exeAdditional command line options : -V -8 -T "artist=%a" -T "title=%t" -T "album=%g" -T "date=%y" -T "tracknumber=%n" -T "genre=%m" %s
TOC of the extracted CD
Track | Start | Length | Start sector | End sector --------------------------------------------------------- 1 | 0:00.32 | 8:00.00 | 32 | 36031 2 | 8:00.32 | 6:25.00 | 36032 | 64906 3 | 14:25.32 | 8:48.20 | 64907 | 104526 4 | 23:13.52 | 3:32.20 | 104527 | 120446 5 | 26:45.72 | 1:22.53 | 120447 | 126649 6 | 28:08.50 | 2:43.67 | 126650 | 138941 7 | 30:52.42 | 1:40.20 | 138942 | 146461 8 | 32:32.62 | 3:14.08 | 146462 | 161019 9 | 35:46.70 | 3:05.02 | 161020 | 174896 10 | 38:51.72 | 2:10.25 | 174897 | 184671 11 | 41:02.22 | 1:36.23 | 184672 | 191894 12 | 42:38.45 | 1:32.45 | 191895 | 198839 13 | 44:11.15 | 2:12.15 | 198840 | 208754 14 | 46:23.30 | 1:11.00 | 208755 | 214079 15 | 47:34.30 | 2:59.10 | 214080 | 227514 16 | 50:33.40 | 5:28.10 | 227515 | 252124 17 | 56:01.50 | 4:38.12 | 252125 | 272986 18 | 60:39.62 | 7:41.45 | 272987 | 307606
Track 1
Filename C:\Rips\Kronos Quartet - 1998 - 25 Years (Disc 4) (Philip Glass) [FLAC]\01 - Philip Glass , Quartet No. 4 (Buczak, 1989)- I.wav
Pre-gap length 0:00:02.42
Peak level 73.8 % Track quality 100.0 % Test CRC F8F0C343 Copy CRC F8F0C343 Accurately ripped (confidence 7) [8953BAA7] Copy OK
Track 2
Filename C:\Rips\Kronos Quartet - 1998 - 25 Years (Disc 4) (Philip Glass) [FLAC]\02 - Philip Glass , Quartet No. 4 (Buczak, 1989)- II.wav
Pre-gap length 0:00:05.66
Peak level 20.5 % Track quality 100.0 % Test CRC F3625798 Copy CRC F3625798 Accurately ripped (confidence 7) [D0467426] Copy OK
Track 3
Filename C:\Rips\Kronos Quartet - 1998 - 25 Years (Disc 4) (Philip Glass) [FLAC]\03 - Philip Glass , Quartet No. 4 (Buczak, 1989)- III.wav
Pre-gap length 0:00:06.66
Peak level 74.5 % Track quality 100.0 % Test CRC 711E587D Copy CRC 711E587D Accurately ripped (confidence 7) [567D9541] Copy OK
Track 4
Filename C:\Rips\Kronos Quartet - 1998 - 25 Years (Disc 4) (Philip Glass) [FLAC]\04 - Philip Glass , Mishima Quartet, Quartet No. 3 (1985)- 1957-Award Montage.wav
Pre-gap length 0:00:09.22
Peak level 37.3 % Track quality 100.0 % Test CRC 8B506F98 Copy CRC 8B506F98 Accurately ripped (confidence 8) [5ECE2A88] Copy OK
Track 5
Filename C:\Rips\Kronos Quartet - 1998 - 25 Years (Disc 4) (Philip Glass) [FLAC]\05 - Philip Glass , Mishima Quartet, Quartet No. 3 (1985)- November 25-Ichigaya.wav
Pre-gap length 0:00:05.09
Peak level 17.1 % Track quality 99.8 % Test CRC 4BD73A97 Copy CRC 4BD73A97 Accurately ripped (confidence 8) [7D438682] Copy OK
Track 6
Filename C:\Rips\Kronos Quartet - 1998 - 25 Years (Disc 4) (Philip Glass) [FLAC]\06 - Philip Glass , Mishima Quartet, Quartet No. 3 (1985)- 1934-Grandmother and Kimitake.wav
Peak level 70.4 % Track quality 100.0 % Test CRC EB50976F Copy CRC EB50976F Accurately ripped (confidence 8) [E13CB6C4] Copy OK
Track 7
Filename C:\Rips\Kronos Quartet - 1998 - 25 Years (Disc 4) (Philip Glass) [FLAC]\07 - Philip Glass , Mishima Quartet, Quartet No. 3 (1985)- 1962-Body Building.wav
Pre-gap length 0:00:03.69
Peak level 51.2 % Track quality 99.8 % Test CRC D86C3B64 Copy CRC D86C3B64 Accurately ripped (confidence 8) [45EAC3BB] Copy OK
Track 8
Filename C:\Rips\Kronos Quartet - 1998 - 25 Years (Disc 4) (Philip Glass) [FLAC]\08 - Philip Glass , Mishima Quartet, Quartet No. 3 (1985)- Blood Oath.wav
Pre-gap length 0:00:00.56
Peak level 43.4 % Track quality 100.0 % Test CRC E84FE2B1 Copy CRC E84FE2B1 Accurately ripped (confidence 7) [F2E06AC6] Copy OK
Track 9
Filename C:\Rips\Kronos Quartet - 1998 - 25 Years (Disc 4) (Philip Glass) [FLAC]\09 - Philip Glass , Mishima Quartet, Quartet No. 3 (1985)- Mishima-Closing.wav
Pre-gap length 0:00:02.53
Peak level 18.6 % Track quality 100.0 % Test CRC 32A1E745 Copy CRC 32A1E745 Accurately ripped (confidence 7) [3C5EF80F] Copy OK
Track 10
Filename C:\Rips\Kronos Quartet - 1998 - 25 Years (Disc 4) (Philip Glass) [FLAC]\10 - Philip Glass , Company, Quartet No. 2 (1983)- I.wav
Pre-gap length 0:00:08.56
Peak level 28.2 % Track quality 100.0 % Test CRC 5AD5B7A6 Copy CRC 5AD5B7A6 Accurately ripped (confidence 8) [8647B3DA] Copy OK
Track 11
Filename C:\Rips\Kronos Quartet - 1998 - 25 Years (Disc 4) (Philip Glass) [FLAC]\11 - Philip Glass , Company, Quartet No. 2 (1983)- II.wav
Pre-gap length 0:00:01.89
Peak level 72.0 % Track quality 99.8 % Test CRC 2236D630 Copy CRC 2236D630 Accurately ripped (confidence 8) [B1CCF1ED] Copy OK
Track 12
Filename C:\Rips\Kronos Quartet - 1998 - 25 Years (Disc 4) (Philip Glass) [FLAC]\12 - Philip Glass , Company, Quartet No. 2 (1983)- III.wav
Pre-gap length 0:00:02.33
Peak level 75.6 % Track quality 100.0 % Test CRC 72D95A85 Copy CRC 72D95A85 Accurately ripped (confidence 7) [7D1EF0A1] Copy OK
Track 13
Filename C:\Rips\Kronos Quartet - 1998 - 25 Years (Disc 4) (Philip Glass) [FLAC]\13 - Philip Glass , Company, Quartet No. 2 (1983)- IV.wav
Pre-gap length 0:00:03.46
Peak level 47.4 % Track quality 100.0 % Test CRC C569DA6E Copy CRC C569DA6E Accurately ripped (confidence 8) [E5A11065] Copy OK
Track 14
Filename C:\Rips\Kronos Quartet - 1998 - 25 Years (Disc 4) (Philip Glass) [FLAC]\14 - Philip Glass , Quartet No. 5 (1991)- I.wav
Pre-gap length 0:00:08.73
Peak level 42.3 % Track quality 100.0 % Test CRC 3EDE76BE Copy CRC 3EDE76BE Accurately ripped (confidence 8) [C139AF05] Copy OK
Track 15
Filename C:\Rips\Kronos Quartet - 1998 - 25 Years (Disc 4) (Philip Glass) [FLAC]\15 - Philip Glass , Quartet No. 5 (1991)- II.wav
Peak level 45.7 % Track quality 100.0 % Test CRC BA2CE18E Copy CRC BA2CE18E Accurately ripped (confidence 8) [66BCF1BC] Copy OK
Track 16
Filename C:\Rips\Kronos Quartet - 1998 - 25 Years (Disc 4) (Philip Glass) [FLAC]\16 - Philip Glass , Quartet No. 5 (1991)- III.wav
Peak level 71.4 % Track quality 100.0 % Test CRC 465287D8 Copy CRC 465287D8 Accurately ripped (confidence 8) [9E99D24D] Copy OK
Track 17
Filename C:\Rips\Kronos Quartet - 1998 - 25 Years (Disc 4) (Philip Glass) [FLAC]\17 - Philip Glass , Quartet No. 5 (1991)- IV.wav
Peak level 53.0 % Track quality 100.0 % Test CRC 887E0477 Copy CRC 887E0477 Accurately ripped (confidence 8) [460F4B5C] Copy OK
Track 18
Filename C:\Rips\Kronos Quartet - 1998 - 25 Years (Disc 4) (Philip Glass) [FLAC]\18 - Philip Glass , Quartet No. 5 (1991)- V.wav
Peak level 96.7 % Track quality 99.9 % Test CRC 4067A3DD Copy CRC 4067A3DD Accurately ripped (confidence 7) [6F85B41E] Copy OK
All tracks accurately ripped
No errors occurred
End of status report

.Cue

REM GENRE ClassicalREM DATE 1998REM DISCID 15100512REM COMMENT "ExactAudioCopy v0.99pb5"FILE "01 - Philip Glass , Quartet No. 4 (Buczak, 1989)- I.wav" WAVE TRACK 01 AUDIO TITLE "Philip Glass , Quartet No. 4 (Buczak, 1989)- I" PERFORMER "Kronos Quartet" PREGAP 00:00:32 INDEX 01 00:00:00 TRACK 02 AUDIO TITLE "Philip Glass , Quartet No. 4 (Buczak, 1989)- II" PERFORMER "Kronos Quartet" INDEX 00 07:54:25FILE "02 - Philip Glass , Quartet No. 4 (Buczak, 1989)- II.wav" WAVE INDEX 01 00:00:00 TRACK 03 AUDIO TITLE "Philip Glass , Quartet No. 4 (Buczak, 1989)- III" PERFORMER "Kronos Quartet" INDEX 00 06:18:25FILE "03 - Philip Glass , Quartet No. 4 (Buczak, 1989)- III.wav" WAVE INDEX 01 00:00:00 TRACK 04 AUDIO TITLE "Philip Glass , Mishima Quartet, Quartet No. 3 (1985)- 1957-Award Montage" PERFORMER "Kronos Quartet" INDEX 00 08:39:03FILE "04 - Philip Glass , Mishima Quartet, Quartet No. 3 (1985)- 1957-Award Montage.wav" WAVE INDEX 01 00:00:00 TRACK 05 AUDIO TITLE "Philip Glass , Mishima Quartet, Quartet No. 3 (1985)- November 25-Ichigaya" PERFORMER "Kronos Quartet" INDEX 00 03:27:13FILE "05 - Philip Glass , Mishima Quartet, Quartet No. 3 (1985)- November 25-Ichigaya.wav" WAVE INDEX 01 00:00:00FILE "06 - Philip Glass , Mishima Quartet, Quartet No. 3 (1985)- 1934-Grandmother and Kimitake.wav" WAVE TRACK 06 AUDIO TITLE "Philip Glass , Mishima Quartet, Quartet No. 3 (1985)- 1934-Grandmother and Kimitake" PERFORMER "Kronos Quartet" INDEX 01 00:00:00 TRACK 07 AUDIO TITLE "Philip Glass , Mishima Quartet, Quartet No. 3 (1985)- 1962-Body Building" PERFORMER "Kronos Quartet" INDEX 00 02:40:15FILE "07 - Philip Glass , Mishima Quartet, Quartet No. 3 (1985)- 1962-Body Building.wav" WAVE INDEX 01 00:00:00 TRACK 08 AUDIO TITLE "Philip Glass , Mishima Quartet, Quartet No. 3 (1985)- Blood Oath" PERFORMER "Kronos Quartet" INDEX 00 01:39:53FILE "08 - Philip Glass , Mishima Quartet, Quartet No. 3 (1985)- Blood Oath.wav" WAVE INDEX 01 00:00:00 TRACK 09 AUDIO TITLE "Philip Glass , Mishima Quartet, Quartet No. 3 (1985)- Mishima-Closing" PERFORMER "Kronos Quartet" INDEX 00 03:11:43FILE "09 - Philip Glass , Mishima Quartet, Quartet No. 3 (1985)- Mishima-Closing.wav" WAVE INDEX 01 00:00:00 TRACK 10 AUDIO TITLE "Philip Glass , Company, Quartet No. 2 (1983)- I" PERFORMER "Kronos Quartet" INDEX 00 02:56:35FILE "10 - Philip Glass , Company, Quartet No. 2 (1983)- I.wav" WAVE INDEX 01 00:00:00 TRACK 11 AUDIO TITLE "Philip Glass , Company, Quartet No. 2 (1983)- II" PERFORMER "Kronos Quartet" INDEX 00 02:08:33FILE "11 - Philip Glass , Company, Quartet No. 2 (1983)- II.wav" WAVE INDEX 01 00:00:00 TRACK 12 AUDIO TITLE "Philip Glass , Company, Quartet No. 2 (1983)- III" PERFORMER "Kronos Quartet" INDEX 00 01:33:73FILE "12 - Philip Glass , Company, Quartet No. 2 (1983)- III.wav" WAVE INDEX 01 00:00:00 TRACK 13 AUDIO TITLE "Philip Glass , Company, Quartet No. 2 (1983)- IV" PERFORMER "Kronos Quartet" INDEX 00 01:29:10FILE "13 - Philip Glass , Company, Quartet No. 2 (1983)- IV.wav" WAVE INDEX 01 00:00:00 TRACK 14 AUDIO TITLE "Philip Glass , Quartet No. 5 (1991)- I" PERFORMER "Kronos Quartet" INDEX 00 02:03:35FILE "14 - Philip Glass , Quartet No. 5 (1991)- I.wav" WAVE INDEX 01 00:00:00FILE "15 - Philip Glass , Quartet No. 5 (1991)- II.wav" WAVE TRACK 15 AUDIO TITLE "Philip Glass , Quartet No. 5 (1991)- II" PERFORMER "Kronos Quartet" INDEX 01 00:00:00FILE "16 - Philip Glass , Quartet No. 5 (1991)- III.wav" WAVE TRACK 16 AUDIO TITLE "Philip Glass , Quartet No. 5 (1991)- III" PERFORMER "Kronos Quartet" INDEX 01 00:00:00FILE "17 - Philip Glass , Quartet No. 5 (1991)- IV.wav" WAVE TRACK 17 AUDIO TITLE "Philip Glass , Quartet No. 5 (1991)- IV" PERFORMER "Kronos Quartet" INDEX 01 00:00:00FILE "18 - Philip Glass , Quartet No. 5 (1991)- V.wav" WAVE TRACK 18 AUDIO TITLE "Philip Glass , Quartet No. 5 (1991)- V" PERFORMER "Kronos Quartet" INDEX 01 00:00:00

Disc 5 -- Golijov, Gubaidulina, Ali-Zadeh

Osvaldo Golijov
The Dreams And Prayers Of Isaac The Blind
01. Prelude: Calmo, sospeso [3:14]
02. I. Agitato-Con fuoco-Maestoso-Senza misura, oscilante [8:40]
03. II. Teneramente-Ruvido-Presto [10:40]
04. III. Calmo, sospeso-Allegro pesante [7:11]
05. Postlude: Lento, liberamente [2:32]
with David Krakauer-Sofia Gubaidulina
06. Quartet No. 4 [11:56]-Franghiz Ali-Zadeh
07. Mugam Sayagi [21:28]--Total Time = 01:05:41-
-

Отчёт EAC

Exact Audio Copy V0.99 prebeta 5 from 4. May 2009
EAC extraction logfile from 3. January 2010, 3:38
Kronos Quartet / 25 Years (Disc 5) (Golijov, Gubaidulina, Ali-Zadeh)
Used drive : HL-DT-STDVDRAM GSA-U20N Adapter: 0 ID: 1
Read mode : SecureUtilize accurate stream : YesDefeat audio cache : YesMake use of C2 pointers : No
Read offset correction : 667Overread into Lead-In and Lead-Out : NoFill up missing offset samples with silence : YesDelete leading and trailing silent blocks : NoNull samples used in CRC calculations : YesUsed interface : Native Win32 interface for Win NT & 2000Gap handling : Appended to previous track
Used output format : User Defined EncoderSelected bitrate : 192 kBit/sQuality : HighAdd ID3 tag : NoCommand line compressor : C:\Program Files\Exact Audio Copy\Flac\flac.exeAdditional command line options : -V -8 -T "artist=%a" -T "title=%t" -T "album=%g" -T "date=%y" -T "tracknumber=%n" -T "genre=%m" %s
TOC of the extracted CD
Track | Start | Length | Start sector | End sector --------------------------------------------------------- 1 | 0:00.32 | 3:13.65 | 32 | 14571 2 | 3:14.22 | 8:39.60 | 14572 | 53556 3 | 11:54.07 | 10:40.08 | 53557 | 101564 4 | 22:34.15 | 7:11.30 | 101565 | 133919 5 | 29:45.45 | 2:32.00 | 133920 | 145319 6 | 32:17.45 | 11:56.27 | 145320 | 199046 7 | 44:13.72 | 21:27.65 | 199047 | 295636
Track 1
Filename C:\Rips\Kronos Quartet - 1998 - 25 Years (Disc 5) (Golijov, Gubaidulina, Ali-Zadeh) [FLAC]\01 - Osvaldo Golijov , The Dreams And Prayers Of Isaac The Blind- Prelude- Calmo, sospeso.wav
Pre-gap length 0:00:02.42
Peak level 35.1 % Track quality 100.0 % Test CRC 07AA6CFC Copy CRC 07AA6CFC Accurately ripped (confidence 8) [52A6642F] Copy OK
Track 2
Filename C:\Rips\Kronos Quartet - 1998 - 25 Years (Disc 5) (Golijov, Gubaidulina, Ali-Zadeh) [FLAC]\02 - Osvaldo Golijov , The Dreams And Prayers Of Isaac The Blind- I. Agitato-Con fuoco-Maestoso-Senza misura, oscilante.wav
Peak level 99.0 % Track quality 100.0 % Test CRC 9F63E900 Copy CRC 9F63E900 Accurately ripped (confidence 8) [CA5FE9FF] Copy OK
Track 3
Filename C:\Rips\Kronos Quartet - 1998 - 25 Years (Disc 5) (Golijov, Gubaidulina, Ali-Zadeh) [FLAC]\03 - Osvaldo Golijov , The Dreams And Prayers Of Isaac The Blind- II. Teneramente-Ruvido-Presto.wav
Pre-gap length 0:00:04.96
Peak level 81.1 % Track quality 100.0 % Test CRC 96D8B387 Copy CRC 96D8B387 Accurately ripped (confidence 8) [B43ADE9C] Copy OK
Track 4
Filename C:\Rips\Kronos Quartet - 1998 - 25 Years (Disc 5) (Golijov, Gubaidulina, Ali-Zadeh) [FLAC]\04 - Osvaldo Golijov , The Dreams And Prayers Of Isaac The Blind- III. Calmo, sospeso-Allegro pesante.wav
Pre-gap length 0:00:05.73
Peak level 62.9 % Track quality 100.0 % Test CRC CCFB7BFC Copy CRC CCFB7BFC Accurately ripped (confidence 8) [012B9F9C] Copy OK
Track 5
Filename C:\Rips\Kronos Quartet - 1998 - 25 Years (Disc 5) (Golijov, Gubaidulina, Ali-Zadeh) [FLAC]\05 - Osvaldo Golijov , The Dreams And Prayers Of Isaac The Blind- Postlude- Lento, liberamente.wav
Pre-gap length 0:00:01.60
Peak level 4.9 % Track quality 100.0 % Test CRC D821772F Copy CRC D821772F Accurately ripped (confidence 8) [D44E6475] Copy OK
Track 6
Filename C:\Rips\Kronos Quartet - 1998 - 25 Years (Disc 5) (Golijov, Gubaidulina, Ali-Zadeh) [FLAC]\06 - Sofia Gubaidulina , Quartet No. 4.wav
Pre-gap length 0:00:12.26
Peak level 77.3 % Track quality 100.0 % Test CRC F57DB083 Copy CRC F57DB083 Accurately ripped (confidence 8) [4D23AB4C] Copy OK
Track 7
Filename C:\Rips\Kronos Quartet - 1998 - 25 Years (Disc 5) (Golijov, Gubaidulina, Ali-Zadeh) [FLAC]\07 - Franghiz Ali-Zadeh , Mugam Sayagi.wav
Pre-gap length 0:00:09.69
Peak level 97.8 % Track quality 100.0 % Test CRC 601805B2 Copy CRC 601805B2 Accurately ripped (confidence 8) [37EB2C3E] Copy OK
All tracks accurately ripped
No errors occurred
End of status report

.Cue

REM GENRE ClassicalREM DATE 1998REM DISCID 6E0F6507REM COMMENT "ExactAudioCopy v0.99pb5"FILE "01 - Osvaldo Golijov , The Dreams And Prayers Of Isaac The Blind- Prelude- Calmo, sospeso.wav" WAVE TRACK 01 AUDIO TITLE "Osvaldo Golijov , The Dreams And Prayers Of Isaac The Blind- Prelude- Calmo, sospeso" PERFORMER "Kronos Quartet" PREGAP 00:00:32 INDEX 01 00:00:00FILE "02 - Osvaldo Golijov , The Dreams And Prayers Of Isaac The Blind- I. Agitato-Con fuoco-Maestoso-Senza misura, oscilante.wav" WAVE TRACK 02 AUDIO TITLE "Osvaldo Golijov , The Dreams And Prayers Of Isaac The Blind- I. Agitato-Con fuoco-Maestoso-Senza misura, oscilante" PERFORMER "Kronos Quartet" INDEX 01 00:00:00 TRACK 03 AUDIO TITLE "Osvaldo Golijov , The Dreams And Prayers Of Isaac The Blind- II. Teneramente-Ruvido-Presto" PERFORMER "Kronos Quartet" INDEX 00 08:34:63FILE "03 - Osvaldo Golijov , The Dreams And Prayers Of Isaac The Blind- II. Teneramente-Ruvido-Presto.wav" WAVE INDEX 01 00:00:00 TRACK 04 AUDIO TITLE "Osvaldo Golijov , The Dreams And Prayers Of Isaac The Blind- III. Calmo, sospeso-Allegro pesante" PERFORMER "Kronos Quartet" INDEX 00 10:34:28FILE "04 - Osvaldo Golijov , The Dreams And Prayers Of Isaac The Blind- III. Calmo, sospeso-Allegro pesante.wav" WAVE INDEX 01 00:00:00 TRACK 05 AUDIO TITLE "Osvaldo Golijov , The Dreams And Prayers Of Isaac The Blind- Postlude- Lento, liberamente" PERFORMER "Kronos Quartet" INDEX 00 07:09:60FILE "05 - Osvaldo Golijov , The Dreams And Prayers Of Isaac The Blind- Postlude- Lento, liberamente.wav" WAVE INDEX 01 00:00:00 TRACK 06 AUDIO TITLE "Sofia Gubaidulina , Quartet No. 4" PERFORMER "Kronos Quartet" INDEX 00 02:19:55FILE "06 - Sofia Gubaidulina , Quartet No. 4.wav" WAVE INDEX 01 00:00:00 TRACK 07 AUDIO TITLE "Franghiz Ali-Zadeh , Mugam Sayagi" PERFORMER "Kronos Quartet" INDEX 00 11:46:50FILE "07 - Franghiz Ali-Zadeh , Mugam Sayagi.wav" WAVE INDEX 01 00:00:00

Disc 6 -- Henryk Gorecki

Henryk Gorecki-Quasi una Fantasia, Quartet No. 2, Op. 64 (1990-91)
01. I. Largo (Sostenuto-Mesto) [8:08]
02. II. Deciso-Energico (Marcatissimo sempre) [6:47]
03. III. Arioso: Adagio cantabile [7:27]
04. IV. Allegro (Sempre con grande passione e molto marcato) [9:46]-05. Already It Is Dusk, Quartet No. 1, Op. 62 (1988) [14:02]--Total Time = 00:46:10-
-

Отчёт EAC

Exact Audio Copy V0.99 prebeta 5 from 4. May 2009
EAC extraction logfile from 3. January 2010, 4:06
Kronos Quartet / 25 Years (Disc 6) (Henryk Gуrecki)
Used drive : HL-DT-STDVDRAM GSA-U20N Adapter: 0 ID: 1
Read mode : SecureUtilize accurate stream : YesDefeat audio cache : YesMake use of C2 pointers : No
Read offset correction : 667Overread into Lead-In and Lead-Out : NoFill up missing offset samples with silence : YesDelete leading and trailing silent blocks : NoNull samples used in CRC calculations : YesUsed interface : Native Win32 interface for Win NT & 2000Gap handling : Appended to previous track
Used output format : User Defined EncoderSelected bitrate : 192 kBit/sQuality : HighAdd ID3 tag : NoCommand line compressor : C:\Program Files\Exact Audio Copy\Flac\flac.exeAdditional command line options : -V -8 -T "artist=%a" -T "title=%t" -T "album=%g" -T "date=%y" -T "tracknumber=%n" -T "genre=%m" %s
TOC of the extracted CD
Track | Start | Length | Start sector | End sector --------------------------------------------------------- 1 | 0:00.32 | 8:08.10 | 32 | 36641 2 | 8:08.42 | 6:47.18 | 36642 | 67184 3 | 14:55.60 | 7:27.10 | 67185 | 100719 4 | 22:22.70 | 9:46.02 | 100720 | 144671 5 | 32:08.72 | 14:01.45 | 144672 | 207791
Track 1
Filename C:\Rips\Kronos Quartet - 1998 - 25 Years (Disc 6) (Henryk Gуrecki) [FLAC]\01 - Henryk Gуrecki , Quasi una Fantasia, Quartet No. 2, Op. 64 (1990-91)- I. Largo (Sostenuto-Mesto).wav
Pre-gap length 0:00:02.42
Peak level 35.2 % Track quality 99.9 % Test CRC 0789FE1E Copy CRC 0789FE1E Accurately ripped (confidence 7) [7230060B] Copy OK
Track 2
Filename C:\Rips\Kronos Quartet - 1998 - 25 Years (Disc 6) (Henryk Gуrecki) [FLAC]\02 - Henryk Gуrecki , Quasi una Fantasia, Quartet No. 2, Op. 64 (1990-91)- II. Deciso-Energico (Marcatissimo sempre).wav
Peak level 100.0 % Track quality 100.0 % Test CRC AE09D090 Copy CRC AE09D090 Accurately ripped (confidence 7) [B9D3E76F] Copy OK
Track 3
Filename C:\Rips\Kronos Quartet - 1998 - 25 Years (Disc 6) (Henryk Gуrecki) [FLAC]\03 - Henryk Gуrecki , Quasi una Fantasia, Quartet No. 2, Op. 64 (1990-91)- III. Arioso- Adagio cantabile.wav
Pre-gap length 0:00:02.17
Peak level 100.0 % Track quality 100.0 % Test CRC 4A15BADE Copy CRC 4A15BADE Accurately ripped (confidence 7) [077BC31B] Copy OK
Track 4
Filename C:\Rips\Kronos Quartet - 1998 - 25 Years (Disc 6) (Henryk Gуrecki) [FLAC]\04 - Henryk Gуrecki , Quasi una Fantasia, Quartet No. 2, Op. 64 (1990-91)- IV. Allegro (Sempre con grande passione e molto marcato).wav
Pre-gap length 0:00:03.10
Peak level 99.0 % Track quality 100.0 % Test CRC FA5340A8 Copy CRC FA5340A8 Accurately ripped (confidence 7) [05140C72] Copy OK
Track 5
Filename C:\Rips\Kronos Quartet - 1998 - 25 Years (Disc 6) (Henryk Gуrecki) [FLAC]\05 - Henryk Gуrecki , Already It Is Dusk, Quartet No. 1, Op. 62 (1988).wav
Pre-gap length 0:00:14.40
Peak level 93.2 % Track quality 100.0 % Test CRC EFEC48F1 Copy CRC EFEC48F1 Accurately ripped (confidence 6) [0ECC5D19] Copy OK
All tracks accurately ripped
No errors occurred
End of status report

.Cue

REM GENRE ClassicalREM DATE 1998REM DISCID 400AD205REM COMMENT "ExactAudioCopy v0.99pb5"FILE "01 - Henryk Gуrecki , Quasi una Fantasia, Quartet No. 2, Op. 64 (1990-91)- I. Largo (Sostenuto-Mesto).wav" WAVE TRACK 01 AUDIO TITLE "Henryk Gуrecki , Quasi una Fantasia, Quartet No. 2, Op. 64 (1990-91)- I. Largo (Sostenuto-Mesto)" PERFORMER "Kronos Quartet" PREGAP 00:00:32 INDEX 01 00:00:00FILE "02 - Henryk Gуrecki , Quasi una Fantasia, Quartet No. 2, Op. 64 (1990-91)- II. Deciso-Energico (Marcatissimo sempre).wav" WAVE TRACK 02 AUDIO TITLE "Henryk Gуrecki , Quasi una Fantasia, Quartet No. 2, Op. 64 (1990-91)- II. Deciso-Energico (Marcatissimo sempre)" PERFORMER "Kronos Quartet" INDEX 01 00:00:00 TRACK 03 AUDIO TITLE "Henryk Gуrecki , Quasi una Fantasia, Quartet No. 2, Op. 64 (1990-91)- III. Arioso- Adagio cantabile" PERFORMER "Kronos Quartet" INDEX 00 06:45:05FILE "03 - Henryk Gуrecki , Quasi una Fantasia, Quartet No. 2, Op. 64 (1990-91)- III. Arioso- Adagio cantabile.wav" WAVE INDEX 01 00:00:00 TRACK 04 AUDIO TITLE "Henryk Gуrecki , Quasi una Fantasia, Quartet No. 2, Op. 64 (1990-91)- IV. Allegro (Sempre con grande passione e molto marcato)" PERFORMER "Kronos Quartet" INDEX 00 07:24:02FILE "04 - Henryk Gуrecki , Quasi una Fantasia, Quartet No. 2, Op. 64 (1990-91)- IV. Allegro (Sempre con grande passione e molto marcato).wav" WAVE INDEX 01 00:00:00 TRACK 05 AUDIO TITLE "Henryk Gуrecki , Already It Is Dusk, Quartet No. 1, Op. 62 (1988)" PERFORMER "Kronos Quartet" INDEX 00 09:31:47FILE "05 - Henryk Gуrecki , Already It Is Dusk, Quartet No. 1, Op. 62 (1988).wav" WAVE INDEX 01 00:00:00

Disc 7 -- Steve Reich, George Crumb

Steve Reich-Different Trains (1988)
01. America-Before The War [9:00]
02. Europe-During The War [7:31]
03. After The War [10:29]--George Crumb-Black Angels (1970)
04. I. Departure [5:37]
05. II. Absence [5:26]
06. III. Return [7:16]--Total Time = 00:45:18-
-

Отчёт EAC

Exact Audio Copy V0.99 prebeta 5 from 4. May 2009
EAC extraction logfile from 3. January 2010, 10:54
Kronos Quartet / 25 Years (Disc 7) (Steve Reich, George Crumb)
Used drive : HL-DT-STDVDRAM GSA-U20N Adapter: 0 ID: 1
Read mode : SecureUtilize accurate stream : YesDefeat audio cache : YesMake use of C2 pointers : No
Read offset correction : 667Overread into Lead-In and Lead-Out : NoFill up missing offset samples with silence : YesDelete leading and trailing silent blocks : NoNull samples used in CRC calculations : YesUsed interface : Native Win32 interface for Win NT & 2000Gap handling : Appended to previous track
Used output format : User Defined EncoderSelected bitrate : 192 kBit/sQuality : HighAdd ID3 tag : NoCommand line compressor : C:\Program Files\Exact Audio Copy\Flac\flac.exeAdditional command line options : -V -8 -T "artist=%a" -T "title=%t" -T "album=%g" -T "date=%y" -T "tracknumber=%n" -T "genre=%m" %s
TOC of the extracted CD
Track | Start | Length | Start sector | End sector --------------------------------------------------------- 1 | 0:00.32 | 8:59.40 | 32 | 40496 2 | 8:59.72 | 7:30.70 | 40497 | 74316 3 | 16:30.67 | 10:29.15 | 74317 | 121506 4 | 27:00.07 | 5:37.15 | 121507 | 146796 5 | 32:37.22 | 5:25.63 | 146797 | 171234 6 | 38:03.10 | 7:16.17 | 171235 | 203951
Track 1
Filename C:\Rips\Kronos Quartet - 1998 - 25 Years (Disc 7) (Steve Reich, George Crumb) [FLAC]\01 - Steve Reich , Different Trains (1988)- America-Before The War.wav
Pre-gap length 0:00:02.42
Peak level 97.6 % Track quality 100.0 % Test CRC A1C490CE Copy CRC A1C490CE Accurately ripped (confidence 7) [7D2FE992] Copy OK
Track 2
Filename C:\Rips\Kronos Quartet - 1998 - 25 Years (Disc 7) (Steve Reich, George Crumb) [FLAC]\02 - Steve Reich , Different Trains (1988)- Europe-During The War.wav
Peak level 87.6 % Track quality 99.9 % Test CRC D11211E5 Copy CRC D11211E5 Accurately ripped (confidence 7) [464F2591] Copy OK
Track 3
Filename C:\Rips\Kronos Quartet - 1998 - 25 Years (Disc 7) (Steve Reich, George Crumb) [FLAC]\03 - Steve Reich , Different Trains (1988)- After The War.wav
Peak level 96.4 % Track quality 100.0 % Test CRC 570EB38E Copy CRC 570EB38E Accurately ripped (confidence 7) [66577BC1] Copy OK
Track 4
Filename C:\Rips\Kronos Quartet - 1998 - 25 Years (Disc 7) (Steve Reich, George Crumb) [FLAC]\04 - George Crumb , Black Angels (1970)- I. Departure.wav
Pre-gap length 0:00:09.26
Peak level 100.0 % Track quality 100.0 % Test CRC 7A45FC86 Copy CRC 7A45FC86 Accurately ripped (confidence 7) [A361C935] Copy OK
Track 5
Filename C:\Rips\Kronos Quartet - 1998 - 25 Years (Disc 7) (Steve Reich, George Crumb) [FLAC]\05 - George Crumb , Black Angels (1970)- II. Absence.wav
Pre-gap length 0:00:10.46
Peak level 99.7 % Track quality 100.0 % Test CRC 5123A18E Copy CRC 5123A18E Accurately ripped (confidence 7) [C7FA4C07] Copy OK
Track 6
Filename C:\Rips\Kronos Quartet - 1998 - 25 Years (Disc 7) (Steve Reich, George Crumb) [FLAC]\06 - George Crumb , Black Angels (1970)- III. Return.wav
Peak level 99.8 % Track quality 100.0 % Test CRC 43128C16 Copy CRC 43128C16 Accurately ripped (confidence 7) [5CFB8B0C] Copy OK
All tracks accurately ripped
No errors occurred
End of status report

.Cue

REM GENRE ClassicalREM DATE 1998REM DISCID 540A9F06REM COMMENT "ExactAudioCopy v0.99pb5"FILE "01 - Steve Reich , Different Trains (1988)- America-Before The War.wav" WAVE TRACK 01 AUDIO TITLE "Steve Reich , Different Trains (1988)- America-Before The War" PERFORMER "Kronos Quartet" PREGAP 00:00:32 INDEX 01 00:00:00FILE "02 - Steve Reich , Different Trains (1988)- Europe-During The War.wav" WAVE TRACK 02 AUDIO TITLE "Steve Reich , Different Trains (1988)- Europe-During The War" PERFORMER "Kronos Quartet" INDEX 01 00:00:00FILE "03 - Steve Reich , Different Trains (1988)- After The War.wav" WAVE TRACK 03 AUDIO TITLE "Steve Reich , Different Trains (1988)- After The War" PERFORMER "Kronos Quartet" INDEX 01 00:00:00 TRACK 04 AUDIO TITLE "George Crumb , Black Angels (1970)- I. Departure" PERFORMER "Kronos Quartet" INDEX 00 10:19:70FILE "04 - George Crumb , Black Angels (1970)- I. Departure.wav" WAVE INDEX 01 00:00:00 INDEX 02 01:22:58 INDEX 03 02:03:08 INDEX 04 02:55:68 INDEX 05 04:35:70 TRACK 05 AUDIO TITLE "George Crumb , Black Angels (1970)- II. Absence" PERFORMER "Kronos Quartet" INDEX 00 05:26:55FILE "05 - George Crumb , Black Angels (1970)- II. Absence.wav" WAVE INDEX 01 00:00:00 INDEX 02 01:06:60 INDEX 03 03:36:73 INDEX 04 04:23:60FILE "06 - George Crumb , Black Angels (1970)- III. Return.wav" WAVE TRACK 06 AUDIO TITLE "George Crumb , Black Angels (1970)- III. Return" PERFORMER "Kronos Quartet" INDEX 01 00:00:00 INDEX 02 03:00:60 INDEX 03 03:30:12 INDEX 04 04:07:45

Disc 8 -- Terry Riley

Terry Riley
Cadenza On The Night Plain (1984)
01. Introduction [2:21]
02. Cadenza: Violin I [2:33]
03. Where Was Wisdom When We Went West? [3:07]
04. Cadenza: Viola [2:24]
05. March Of The Old Timers Reefer Division [2:14]
06. Cadenza: Violin II [2:06]
07. Tuning To Rolling Thunder [4:53]
08. The Night Cry Of Black Buffalo Woman [2:53]
09. Cadenza: Cello [1:08]
10. Gathering Of The Spiral Clan [5:26]
11. Captain Jack Has The Last Word [1:43]-12. G Song [9:46]-Salome Dances For Peace (1985-86)
13. III. The Gift: Echoes Of Primordial Time [11:15]
14. III. The Gift: Mongolian Winds [4:17]
15. V. Good Medicine: Good Medicine Dance [13:34]--Total Time = 01:09:38-
-

Отчёт EAC

Exact Audio Copy V0.99 prebeta 5 from 4. May 2009
EAC extraction logfile from 3. January 2010, 11:38
Kronos Quartet / 25 Years (Disc 8) (Terry Riley)
Used drive : HL-DT-STDVDRAM GSA-U20N Adapter: 0 ID: 1
Read mode : SecureUtilize accurate stream : YesDefeat audio cache : YesMake use of C2 pointers : No
Read offset correction : 667Overread into Lead-In and Lead-Out : NoFill up missing offset samples with silence : YesDelete leading and trailing silent blocks : NoNull samples used in CRC calculations : YesUsed interface : Native Win32 interface for Win NT & 2000Gap handling : Appended to previous track
Used output format : User Defined EncoderSelected bitrate : 192 kBit/sQuality : HighAdd ID3 tag : NoCommand line compressor : C:\Program Files\Exact Audio Copy\Flac\flac.exeAdditional command line options : -V -8 -T "artist=%a" -T "title=%t" -T "album=%g" -T "date=%y" -T "tracknumber=%n" -T "genre=%m" %s
TOC of the extracted CD
Track | Start | Length | Start sector | End sector --------------------------------------------------------- 1 | 0:00.32 | 2:21.15 | 32 | 10621 2 | 2:21.47 | 2:33.35 | 10622 | 22131 3 | 4:55.07 | 3:06.58 | 22132 | 36139 4 | 8:01.65 | 2:23.45 | 36140 | 46909 5 | 10:25.35 | 2:14.20 | 46910 | 56979 6 | 12:39.55 | 2:06.02 | 56980 | 66431 7 | 14:45.57 | 4:52.55 | 66432 | 88386 8 | 19:38.37 | 2:53.23 | 88387 | 101384 9 | 22:31.60 | 1:07.47 | 101385 | 106456 10 | 23:39.32 | 5:25.55 | 106457 | 130886 11 | 29:05.12 | 1:42.45 | 130887 | 138581 12 | 30:47.57 | 9:46.13 | 138582 | 182544 13 | 40:33.70 | 11:14.40 | 182545 | 233134 14 | 51:48.35 | 4:16.45 | 233135 | 252379 15 | 56:05.05 | 13:33.72 | 252380 | 313426
Track 1
Filename C:\Rips\Kronos Quartet - 1998 - 25 Years (Disc 8) (Terry Riley) [FLAC]\01 - Terry Riley , Cadenza On The Night Plain (1984)- Introduction.wav
Pre-gap length 0:00:02.42
Peak level 58.4 % Track quality 100.0 % Test CRC 4874FA63 Copy CRC 4874FA63 Accurately ripped (confidence 4) [10413AE4] Copy OK
Track 2
Filename C:\Rips\Kronos Quartet - 1998 - 25 Years (Disc 8) (Terry Riley) [FLAC]\02 - Terry Riley , Cadenza On The Night Plain (1984)- Cadenza- Violin I.wav
Peak level 72.0 % Track quality 100.0 % Test CRC 864AE9D4 Copy CRC 864AE9D4 Accurately ripped (confidence 4) [BCBF2FA6] Copy OK
Track 3
Filename C:\Rips\Kronos Quartet - 1998 - 25 Years (Disc 8) (Terry Riley) [FLAC]\03 - Terry Riley , Cadenza On The Night Plain (1984)- Where Was Wisdom When We Went West .wav
Peak level 68.4 % Track quality 100.0 % Test CRC 2E13BB63 Copy CRC 2E13BB63 Accurately ripped (confidence 4) [DE6B7F99] Copy OK
Track 4
Filename C:\Rips\Kronos Quartet - 1998 - 25 Years (Disc 8) (Terry Riley) [FLAC]\04 - Terry Riley , Cadenza On The Night Plain (1984)- Cadenza- Viola.wav
Peak level 97.9 % Track quality 100.0 % Test CRC 8FA59C2F Copy CRC 8FA59C2F Accurately ripped (confidence 4) [F7B9AE54] Copy OK
Track 5
Filename C:\Rips\Kronos Quartet - 1998 - 25 Years (Disc 8) (Terry Riley) [FLAC]\05 - Terry Riley , Cadenza On The Night Plain (1984)- March Of The Old Timers Reefer Division.wav
Peak level 98.7 % Track quality 100.0 % Test CRC 5077E587 Copy CRC 5077E587 Accurately ripped (confidence 4) [FDD6A604] Copy OK
Track 6
Filename C:\Rips\Kronos Quartet - 1998 - 25 Years (Disc 8) (Terry Riley) [FLAC]\06 - Terry Riley , Cadenza On The Night Plain (1984)- Cadenza- Violin II.wav
Peak level 80.9 % Track quality 100.0 % Test CRC 012778B2 Copy CRC 012778B2 Accurately ripped (confidence 4) [0194A5D2] Copy OK
Track 7
Filename C:\Rips\Kronos Quartet - 1998 - 25 Years (Disc 8) (Terry Riley) [FLAC]\07 - Terry Riley , Cadenza On The Night Plain (1984)- Tuning To Rolling Thunder.wav
Peak level 62.4 % Track quality 100.0 % Test CRC C43D82F5 Copy CRC C43D82F5 Accurately ripped (confidence 4) [1A910568] Copy OK
Track 8
Filename C:\Rips\Kronos Quartet - 1998 - 25 Years (Disc 8) (Terry Riley) [FLAC]\08 - Terry Riley , Cadenza On The Night Plain (1984)- The Night Cry Of Black Buffalo Woman.wav
Peak level 72.7 % Track quality 100.0 % Test CRC 3ADEB270 Copy CRC 3ADEB270 Accurately ripped (confidence 4) [9779581D] Copy OK
Track 9
Filename C:\Rips\Kronos Quartet - 1998 - 25 Years (Disc 8) (Terry Riley) [FLAC]\09 - Terry Riley , Cadenza On The Night Plain (1984)- Cadenza- Cello.wav
Peak level 42.4 % Track quality 100.0 % Test CRC 8DB36AF0 Copy CRC 8DB36AF0 Accurately ripped (confidence 4) [0505B606] Copy OK
Track 10
Filename C:\Rips\Kronos Quartet - 1998 - 25 Years (Disc 8) (Terry Riley) [FLAC]\10 - Terry Riley , Cadenza On The Night Plain (1984)- Gathering Of The Spiral Clan.wav
Peak level 50.7 % Track quality 99.9 % Test CRC DD0B39C4 Copy CRC DD0B39C4 Accurately ripped (confidence 4) [5A9EA637] Copy OK
Track 11
Filename C:\Rips\Kronos Quartet - 1998 - 25 Years (Disc 8) (Terry Riley) [FLAC]\11 - Terry Riley , Cadenza On The Night Plain (1984)- Captain Jack Has The Last Word.wav
Peak level 25.9 % Track quality 99.8 % Test CRC F685F315 Copy CRC F685F315 Accurately ripped (confidence 4) [B8EFD089] Copy OK
Track 12
Filename C:\Rips\Kronos Quartet - 1998 - 25 Years (Disc 8) (Terry Riley) [FLAC]\12 - Terry Riley , G Song.wav
Pre-gap length 0:00:08.40
Peak level 100.0 % Track quality 100.0 % Test CRC FFE26A8F Copy CRC FFE26A8F Accurately ripped (confidence 4) [FC9A35BB] Copy OK
Track 13
Filename C:\Rips\Kronos Quartet - 1998 - 25 Years (Disc 8) (Terry Riley) [FLAC]\13 - Terry Riley , Salome Dances For Peace (1985-86)- III. The Gift- Echoes Of Primordial Time.wav
Pre-gap length 0:00:09.80
Peak level 69.2 % Track quality 100.0 % Test CRC 799E6746 Copy CRC 799E6746 Accurately ripped (confidence 4) [883E0AAA] Copy OK
Track 14
Filename C:\Rips\Kronos Quartet - 1998 - 25 Years (Disc 8) (Terry Riley) [FLAC]\14 - Terry Riley , Salome Dances For Peace (1985-86)- III. The Gift- Mongolian Winds.wav
Peak level 33.3 % Track quality 100.0 % Test CRC BE050394 Copy CRC BE050394 Accurately ripped (confidence 4) [331456D8] Copy OK
Track 15
Filename C:\Rips\Kronos Quartet - 1998 - 25 Years (Disc 8) (Terry Riley) [FLAC]\15 - Terry Riley , Salome Dances For Peace (1985-86)- V. Good Medicine- Good Medicine Dance.wav
Pre-gap length 0:00:04.26
Peak level 100.0 % Track quality 100.0 % Test CRC 7C2B6214 Copy CRC 7C2B6214 Accurately ripped (confidence 3) [F7025040] Copy OK
All tracks accurately ripped
No errors occurred
End of status report

.Cue

REM GENRE ClassicalREM DATE 1998REM DISCID CC10530FREM COMMENT "ExactAudioCopy v0.99pb5"FILE "01 - Terry Riley , Cadenza On The Night Plain (1984)- Introduction.wav" WAVE TRACK 01 AUDIO TITLE "Terry Riley , Cadenza On The Night Plain (1984)- Introduction" PERFORMER "Kronos Quartet" PREGAP 00:00:32 INDEX 01 00:00:00FILE "02 - Steve Reich , Different Trains (1988)- Europe-During The War.wav" WAVE TRACK 02 AUDIO TITLE "Steve Reich , Different Trains (1988)- Europe-During The War" PERFORMER "Kronos Quartet" INDEX 01 00:00:00FILE "03 - Terry Riley , Cadenza On The Night Plain (1984)- Where Was Wisdom When We Went West .wav" WAVE TRACK 03 AUDIO TITLE "Terry Riley , Cadenza On The Night Plain (1984)- Where Was Wisdom When We Went West" PERFORMER "Kronos Quartet" INDEX 01 00:00:00FILE "04 - Terry Riley , Cadenza On The Night Plain (1984)- Cadenza- Viola.wav" WAVE TRACK 04 AUDIO TITLE "Terry Riley , Cadenza On The Night Plain (1984)- Cadenza- Viola" PERFORMER "Kronos Quartet" INDEX 01 00:00:00FILE "05 - Terry Riley , Cadenza On The Night Plain (1984)- March Of The Old Timers Reefer Division.wav" WAVE TRACK 05 AUDIO TITLE "Terry Riley , Cadenza On The Night Plain (1984)- March Of The Old Timers Reefer Division" PERFORMER "Kronos Quartet" INDEX 01 00:00:00FILE "06 - Terry Riley , Cadenza On The Night Plain (1984)- Cadenza- Violin II.wav" WAVE TRACK 06 AUDIO TITLE "Terry Riley , Cadenza On The Night Plain (1984)- Cadenza- Violin II" PERFORMER "Kronos Quartet" INDEX 01 00:00:00FILE "07 - Terry Riley , Cadenza On The Night Plain (1984)- Tuning To Rolling Thunder.wav" WAVE TRACK 07 AUDIO TITLE "Terry Riley , Cadenza On The Night Plain (1984)- Tuning To Rolling Thunder" PERFORMER "Kronos Quartet" INDEX 01 00:00:00FILE "08 - Terry Riley , Cadenza On The Night Plain (1984)- The Night Cry Of Black Buffalo Woman.wav" WAVE TRACK 08 AUDIO TITLE "Terry Riley , Cadenza On The Night Plain (1984)- The Night Cry Of Black Buffalo Woman" PERFORMER "Kronos Quartet" INDEX 01 00:00:00FILE "09 - Terry Riley , Cadenza On The Night Plain (1984)- Cadenza- Cello.wav" WAVE TRACK 09 AUDIO TITLE "Terry Riley , Cadenza On The Night Plain (1984)- Cadenza- Cello" PERFORMER "Kronos Quartet" INDEX 01 00:00:00FILE "10 - Terry Riley , Cadenza On The Night Plain (1984)- Gathering Of The Spiral Clan.wav" WAVE TRACK 10 AUDIO TITLE "Terry Riley , Cadenza On The Night Plain (1984)- Gathering Of The Spiral Clan" PERFORMER "Kronos Quartet" INDEX 01 00:00:00FILE "11 - Terry Riley , Cadenza On The Night Plain (1984)- Captain Jack Has The Last Word.wav" WAVE TRACK 11 AUDIO TITLE "Terry Riley , Cadenza On The Night Plain (1984)- Captain Jack Has The Last Word" PERFORMER "Kronos Quartet" INDEX 01 00:00:00 TRACK 12 AUDIO TITLE "Terry Riley , G Song" PERFORMER "Kronos Quartet" INDEX 00 01:34:15FILE "12 - Terry Riley , G Song.wav" WAVE INDEX 01 00:00:00 TRACK 13 AUDIO TITLE "Terry Riley , Salome Dances For Peace (1985-86)- III. The Gift- Echoes Of Primordial Time" PERFORMER "Kronos Quartet" INDEX 00 09:36:28FILE "13 - Terry Riley , Salome Dances For Peace (1985-86)- III. The Gift- Echoes Of Primordial Time.wav" WAVE INDEX 01 00:00:00FILE "14 - Terry Riley , Salome Dances For Peace (1985-86)- III. The Gift- Mongolian Winds.wav" WAVE TRACK 14 AUDIO TITLE "Terry Riley , Salome Dances For Peace (1985-86)- III. The Gift- Mongolian Winds" PERFORMER "Kronos Quartet" INDEX 01 00:00:00 TRACK 15 AUDIO TITLE "Terry Riley , Salome Dances For Peace (1985-86)- V. Good Medicine- Good Medicine Dance" PERFORMER "Kronos Quartet" INDEX 00 04:12:25FILE "15 - Terry Riley , Salome Dances For Peace (1985-86)- V. Good Medicine- Good Medicine Dance.wav" WAVE INDEX 01 00:00:00

Disc 9 Alfred Schnittke

Alfred Schnittke-Quartet No. 2 (1981)
01. Moderato [3:12]
02. Agitato [5:35]
03. Mesto [6:41]
04. Moderato [6:36]
05. Lento [9:01]-Quartet No. 4 (1989)
06. Allegro [7:00]
07. Lento [5:57]
08. Vivace [3:26]
09. Lento [9:30]-10. Collected Songs Where Every Verse Is Filled With Grief (1984-85) [8:25]--Total Time = 01:05:23-
-

Отчёт EAC

Exact Audio Copy V0.99 prebeta 5 from 4. May 2009
EAC extraction logfile from 3. January 2010, 12:28
Kronos Quartet / 25 Years (Disc 9) (Alfred Schnittke)
Used drive : HL-DT-STDVDRAM GSA-U20N Adapter: 0 ID: 1
Read mode : SecureUtilize accurate stream : YesDefeat audio cache : YesMake use of C2 pointers : No
Read offset correction : 667Overread into Lead-In and Lead-Out : NoFill up missing offset samples with silence : YesDelete leading and trailing silent blocks : NoNull samples used in CRC calculations : YesUsed interface : Native Win32 interface for Win NT & 2000Gap handling : Appended to previous track
Used output format : User Defined EncoderSelected bitrate : 192 kBit/sQuality : HighAdd ID3 tag : NoCommand line compressor : C:\Program Files\Exact Audio Copy\Flac\flac.exeAdditional command line options : -V -8 -T "artist=%a" -T "title=%t" -T "album=%g" -T "date=%y" -T "tracknumber=%n" -T "genre=%m" %s
TOC of the extracted CD
Track | Start | Length | Start sector | End sector --------------------------------------------------------- 1 | 0:00.32 | 3:12.15 | 32 | 14446 2 | 3:12.47 | 5:35.30 | 14447 | 39601 3 | 8:48.02 | 6:41.35 | 39602 | 69711 4 | 15:29.37 | 6:35.50 | 69712 | 99386 5 | 22:05.12 | 9:00.40 | 99387 | 139926 6 | 31:05.52 | 7:00.35 | 139927 | 171461 7 | 38:06.12 | 5:57.28 | 171462 | 198264 8 | 44:03.40 | 3:25.72 | 198265 | 213711 9 | 47:29.37 | 9:30.20 | 213712 | 256481 10 | 56:59.57 | 8:24.45 | 256482 | 294326
Track 1
Filename C:\Rips\Kronos Quartet - 1998 - 25 Years (Disc 9) (Alfred Schnittke) [FLAC]\01 - Alfred Schnittke , Quartet No. 2 (1981)- Moderato.wav
Pre-gap length 0:00:02.42
Peak level 54.9 % Track quality 100.0 % Test CRC 01F5791E Copy CRC 01F5791E Accurately ripped (confidence 4) [F6BF8D0C] Copy OK
Track 2
Filename C:\Rips\Kronos Quartet - 1998 - 25 Years (Disc 9) (Alfred Schnittke) [FLAC]\02 - Alfred Schnittke , Quartet No. 2 (1981)- Agitato.wav
Peak level 94.1 % Track quality 100.0 % Test CRC A3F60218 Copy CRC A3F60218 Accurately ripped (confidence 4) [43AA67D6] Copy OK
Track 3
Filename C:\Rips\Kronos Quartet - 1998 - 25 Years (Disc 9) (Alfred Schnittke) [FLAC]\03 - Alfred Schnittke , Quartet No. 2 (1981)- Mesto.wav
Peak level 96.5 % Track quality 99.9 % Test CRC B17822CD Copy CRC B17822CD Accurately ripped (confidence 4) [C743B6B9] Copy OK
Track 4
Filename C:\Rips\Kronos Quartet - 1998 - 25 Years (Disc 9) (Alfred Schnittke) [FLAC]\04 - Alfred Schnittke , Quartet No. 2 (1981)- Moderato.wav
Peak level 62.0 % Track quality 100.0 % Test CRC 2581896F Copy CRC 2581896F Accurately ripped (confidence 4) [50AEAA98] Copy OK
Track 5
Filename C:\Rips\Kronos Quartet - 1998 - 25 Years (Disc 9) (Alfred Schnittke) [FLAC]\05 - Alfred Schnittke , Quartet No. 4 (1989)- Lento.wav
Pre-gap length 0:00:11.60
Peak level 47.0 % Track quality 100.0 % Test CRC E10B0673 Copy CRC E10B0673 Accurately ripped (confidence 4) [6E19B4A3] Copy OK
Track 6
Filename C:\Rips\Kronos Quartet - 1998 - 25 Years (Disc 9) (Alfred Schnittke) [FLAC]\06 - Alfred Schnittke , Quartet No. 4 (1989)- Allegro.wav
Peak level 97.1 % Track quality 100.0 % Test CRC 6692FBE4 Copy CRC 6692FBE4 Accurately ripped (confidence 4) [42F00E0F] Copy OK
Track 7
Filename C:\Rips\Kronos Quartet - 1998 - 25 Years (Disc 9) (Alfred Schnittke) [FLAC]\07 - Alfred Schnittke , Quartet No. 4 (1989)- Lento.wav
Peak level 52.5 % Track quality 100.0 % Test CRC 519694CA Copy CRC 519694CA Accurately ripped (confidence 4) [83020E56] Copy OK
Track 8
Filename C:\Rips\Kronos Quartet - 1998 - 25 Years (Disc 9) (Alfred Schnittke) [FLAC]\08 - Alfred Schnittke , Quartet No. 4 (1989)- Vivace.wav
Pre-gap length 0:00:03.90
Peak level 97.6 % Track quality 100.0 % Test CRC B33ABBA2 Copy CRC B33ABBA2 Accurately ripped (confidence 4) [D02CED2F] Copy OK
Track 9
Filename C:\Rips\Kronos Quartet - 1998 - 25 Years (Disc 9) (Alfred Schnittke) [FLAC]\09 - Alfred Schnittke , Quartet No. 4 (1989)- Lento.wav
Pre-gap length 0:00:04.20
Peak level 60.2 % Track quality 100.0 % Test CRC 928FF5F7 Copy CRC 928FF5F7 Accurately ripped (confidence 4) [2F3E4E72] Copy OK
Track 10
Filename C:\Rips\Kronos Quartet - 1998 - 25 Years (Disc 9) (Alfred Schnittke) [FLAC]\10 - Alfred Schnittke , Collected Songs Where Every Verse Is Filled With Grief (1984-85).wav
Pre-gap length 0:00:13.00
Peak level 97.9 % Track quality 100.0 % Test CRC CEC4DD1A Copy CRC CEC4DD1A Accurately ripped (confidence 4) [FA4295D9] Copy OK
All tracks accurately ripped
No errors occurred
End of status report

.Cue

REM GENRE ClassicalREM DATE 1998REM DISCID 870F540AREM COMMENT "ExactAudioCopy v0.99pb5"FILE "01 - Alfred Schnittke , Quartet No. 2 (1981)- Moderato.wav" WAVE TRACK 01 AUDIO TITLE "Alfred Schnittke , Quartet No. 2 (1981)- Moderato" PERFORMER "Kronos Quartet" PREGAP 00:00:32 INDEX 01 00:00:00FILE "02 - Alfred Schnittke , Quartet No. 2 (1981)- Agitato.wav" WAVE TRACK 02 AUDIO TITLE "Alfred Schnittke , Quartet No. 2 (1981)- Agitato" PERFORMER "Kronos Quartet" INDEX 01 00:00:00FILE "03 - Alfred Schnittke , Quartet No. 2 (1981)- Mesto.wav" WAVE TRACK 03 AUDIO TITLE "Alfred Schnittke , Quartet No. 2 (1981)- Mesto" PERFORMER "Kronos Quartet" INDEX 01 00:00:00FILE "04 - Alfred Schnittke , Quartet No. 2 (1981)- Moderato.wav" WAVE TRACK 04 AUDIO TITLE "Alfred Schnittke , Quartet No. 2 (1981)- Moderato" PERFORMER "Kronos Quartet" INDEX 01 00:00:00 TRACK 05 AUDIO TITLE "Alfred Schnittke , Quartet No. 4 (1989)- Lento" PERFORMER "Kronos Quartet" INDEX 00 06:24:05FILE "05 - Alfred Schnittke , Quartet No. 4 (1989)- Lento.wav" WAVE INDEX 01 00:00:00FILE "06 - Alfred Schnittke , Quartet No. 4 (1989)- Allegro.wav" WAVE TRACK 06 AUDIO TITLE "Alfred Schnittke , Quartet No. 4 (1989)- Allegro" PERFORMER "Kronos Quartet" INDEX 01 00:00:00FILE "07 - Alfred Schnittke , Quartet No. 4 (1989)- Lento.wav" WAVE TRACK 07 AUDIO TITLE "Alfred Schnittke , Quartet No. 4 (1989)- Lento" PERFORMER "Kronos Quartet" INDEX 01 00:00:00 TRACK 08 AUDIO TITLE "Alfred Schnittke , Quartet No. 4 (1989)- Vivace" PERFORMER "Kronos Quartet" INDEX 00 05:53:35FILE "08 - Alfred Schnittke , Quartet No. 4 (1989)- Vivace.wav" WAVE INDEX 01 00:00:00 TRACK 09 AUDIO TITLE "Alfred Schnittke , Quartet No. 4 (1989)- Lento" PERFORMER "Kronos Quartet" INDEX 00 03:21:57FILE "09 - Alfred Schnittke , Quartet No. 4 (1989)- Lento.wav" WAVE INDEX 01 00:00:00 TRACK 10 AUDIO TITLE "Alfred Schnittke , Collected Songs Where Every Verse Is Filled With Grief (1984-85)" PERFORMER "Kronos Quartet" INDEX 00 09:17:20FILE "10 - Alfred Schnittke , Collected Songs Where Every Verse Is Filled With Grief (1984-85).wav" WAVE INDEX 01 00:00:00

Disc 10 -- Peter Sculthorpe, P.Q. Phan, Kevin Volans

Peter Sculthorpe-Jabiru Dreaming, Quartet No. 11 (1990):
01. I. Deciso [5:03]
02. II. Amoroso [7:38]-Quartet No. 8 (1969):
03. I. Con Dolore [2:05]
04. II. Risoluto; Calmo [3:20]
05. III. Con Dolore [3:05]
06. IV. Con Precisione [1:36]
07. V. Con Dolore [1:59]-08. From Ubirr (1994) [11:19]
with Michael Brosnan, Mark Nolan--P.Q. Phan-09. Tragedy At The Opera (1995) [6:37]--Kevin Volans-White Man Sleeps, Quartet No. 1
10. First Dance [4:04]
11. Second Dance [5:08]
12. Third Dance [3:28]
13. Fourth Dance [6:20]
14. Fifth Dance [3:28]--Total Time = 01:05:09-
-

Отчёт EAC

Exact Audio Copy V0.99 prebeta 5 from 4. May 2009
EAC extraction logfile from 3. January 2010, 16:46
Kronos Quartet / 25 Years (Disc 10) (Peter Sculthorpe, P.Q. Phan, Kevin Volans)
Used drive : HL-DT-STDVDRAM GSA-U20N Adapter: 0 ID: 1
Read mode : SecureUtilize accurate stream : YesDefeat audio cache : YesMake use of C2 pointers : No
Read offset correction : 667Overread into Lead-In and Lead-Out : NoFill up missing offset samples with silence : YesDelete leading and trailing silent blocks : NoNull samples used in CRC calculations : YesUsed interface : Native Win32 interface for Win NT & 2000Gap handling : Appended to previous track
Used output format : User Defined EncoderSelected bitrate : 192 kBit/sQuality : HighAdd ID3 tag : NoCommand line compressor : C:\Program Files\Exact Audio Copy\Flac\flac.exeAdditional command line options : -V -8 -T "artist=%a" -T "title=%t" -T "album=%g" -T "date=%y" -T "tracknumber=%n" -T "genre=%m" %s
TOC of the extracted CD
Track | Start | Length | Start sector | End sector --------------------------------------------------------- 1 | 0:00.32 | 5:03.13 | 32 | 22769 2 | 5:03.45 | 7:38.32 | 22770 | 57151 3 | 12:42.02 | 2:05.25 | 57152 | 66551 4 | 14:47.27 | 3:19.55 | 66552 | 81531 5 | 18:07.07 | 3:04.65 | 81532 | 95396 6 | 21:11.72 | 1:35.43 | 95397 | 102564 7 | 22:47.40 | 1:58.50 | 102565 | 111464 8 | 24:46.15 | 11:19.25 | 111465 | 162414 9 | 36:05.40 | 6:37.00 | 162415 | 192189 10 | 42:42.40 | 4:04.05 | 192190 | 210494 11 | 46:46.45 | 5:07.67 | 210495 | 233586 12 | 51:54.37 | 3:27.40 | 233587 | 249151 13 | 55:22.02 | 6:20.23 | 249152 | 277674 14 | 61:42.25 | 3:27.62 | 277675 | 293261
Track 1
Filename C:\Rips\Kronos Quartet - 1998 - 25 Years (Disc 10) (Peter Sculthorpe, P.Q. Phan, Kevin Volans) [FLAC]\01 - Peter Sculthorpe , Jabiru Dreaming, Quartet No. 11 (1990)- I. Deciso.wav
Pre-gap length 0:00:02.42
Peak level 84.6 % Track quality 99.9 % Test CRC 979D5C86 Copy CRC 979D5C86 Accurately ripped (confidence 4) [1F392D17] Copy OK
Track 2
Filename C:\Rips\Kronos Quartet - 1998 - 25 Years (Disc 10) (Peter Sculthorpe, P.Q. Phan, Kevin Volans) [FLAC]\02 - Peter Sculthorpe , Jabiru Dreaming, Quartet No. 11 (1990)- II. Amoroso.wav
Peak level 83.6 % Track quality 100.0 % Test CRC 73F111F6 Copy CRC 73F111F6 Accurately ripped (confidence 4) [8F65FB21] Copy OK
Track 3
Filename C:\Rips\Kronos Quartet - 1998 - 25 Years (Disc 10) (Peter Sculthorpe, P.Q. Phan, Kevin Volans) [FLAC]\03 - Peter Sculthorpe , Quartet No. 8 (1969)- I. Con Dolore.wav
Pre-gap length 0:00:09.00
Peak level 48.6 % Track quality 100.0 % Test CRC 24B884D8 Copy CRC 24B884D8 Accurately ripped (confidence 4) [B754DD9E] Copy OK
Track 4
Filename C:\Rips\Kronos Quartet - 1998 - 25 Years (Disc 10) (Peter Sculthorpe, P.Q. Phan, Kevin Volans) [FLAC]\04 - Peter Sculthorpe , Quartet No. 8 (1969)- II. Risoluto; Calmo.wav
Pre-gap length 0:00:02.33
Peak level 99.9 % Track quality 100.0 % Test CRC 5CC85E5A Copy CRC 5CC85E5A Accurately ripped (confidence 4) [702827CB] Copy OK
Track 5
Filename C:\Rips\Kronos Quartet - 1998 - 25 Years (Disc 10) (Peter Sculthorpe, P.Q. Phan, Kevin Volans) [FLAC]\05 - Peter Sculthorpe , Quartet No. 8 (1969)- III. Con Dolore.wav
Pre-gap length 0:00:03.33
Peak level 38.7 % Track quality 100.0 % Test CRC 953DBDE6 Copy CRC 953DBDE6 Accurately ripped (confidence 4) [F9932CC5] Copy OK
Track 6
Filename C:\Rips\Kronos Quartet - 1998 - 25 Years (Disc 10) (Peter Sculthorpe, P.Q. Phan, Kevin Volans) [FLAC]\06 - Peter Sculthorpe , Quartet No. 8 (1969)- IV. Con Precisione.wav
Pre-gap length 0:00:01.82
Peak level 100.0 % Track quality 100.0 % Test CRC 1E884BE3 Copy CRC 1E884BE3 Accurately ripped (confidence 4) [4D6F435D] Copy OK
Track 7
Filename C:\Rips\Kronos Quartet - 1998 - 25 Years (Disc 10) (Peter Sculthorpe, P.Q. Phan, Kevin Volans) [FLAC]\07 - Peter Sculthorpe , Quartet No. 8 (1969)- V. Con Dolore.wav
Peak level 92.7 % Track quality 100.0 % Test CRC 270F5BB3 Copy CRC 270F5BB3 Accurately ripped (confidence 4) [6B832205] Copy OK
Track 8
Filename C:\Rips\Kronos Quartet - 1998 - 25 Years (Disc 10) (Peter Sculthorpe, P.Q. Phan, Kevin Volans) [FLAC]\08 - Peter Sculthorpe , From Ubirr (1994).wav
Pre-gap length 0:00:09.90
Peak level 79.2 % Track quality 100.0 % Test CRC 55963ECD Copy CRC 55963ECD Accurately ripped (confidence 4) [E5FD4835] Copy OK
Track 9
Filename C:\Rips\Kronos Quartet - 1998 - 25 Years (Disc 10) (Peter Sculthorpe, P.Q. Phan, Kevin Volans) [FLAC]\09 - P.Q. Phan , Tragedy At The Opera (1995).wav
Pre-gap length 0:00:07.10
Peak level 95.5 % Track quality 100.0 % Test CRC BB961DF1 Copy CRC BB961DF1 Accurately ripped (confidence 4) [4102CAA4] Copy OK
Track 10
Filename C:\Rips\Kronos Quartet - 1998 - 25 Years (Disc 10) (Peter Sculthorpe, P.Q. Phan, Kevin Volans) [FLAC]\10 - Kevin Volans , White Man Sleeps, Quartet No. 1- First Dance.wav
Pre-gap length 0:00:08.10
Peak level 95.9 % Track quality 99.9 % Test CRC A8E4F9F6 Copy CRC A8E4F9F6 Accurately ripped (confidence 4) [71E3B61E] Copy OK
Track 11
Filename C:\Rips\Kronos Quartet - 1998 - 25 Years (Disc 10) (Peter Sculthorpe, P.Q. Phan, Kevin Volans) [FLAC]\11 - Kevin Volans , White Man Sleeps, Quartet No. 1- Second Dance.wav
Pre-gap length 0:00:01.33
Peak level 66.8 % Track quality 100.0 % Test CRC 56F1C82D Copy CRC 56F1C82D Accurately ripped (confidence 4) [A9AB2E47] Copy OK
Track 12
Filename C:\Rips\Kronos Quartet - 1998 - 25 Years (Disc 10) (Peter Sculthorpe, P.Q. Phan, Kevin Volans) [FLAC]\12 - Kevin Volans , White Man Sleeps, Quartet No. 1- Third Dance.wav
Pre-gap length 0:00:02.66
Peak level 39.1 % Track quality 99.9 % Test CRC 628A3EE5 Copy CRC 628A3EE5 Accurately ripped (confidence 4) [5021C457] Copy OK
Track 13
Filename C:\Rips\Kronos Quartet - 1998 - 25 Years (Disc 10) (Peter Sculthorpe, P.Q. Phan, Kevin Volans) [FLAC]\13 - Kevin Volans , White Man Sleeps, Quartet No. 1- Fourth Dance.wav
Pre-gap length 0:00:03.89
Peak level 21.0 % Track quality 100.0 % Test CRC 79E6F180 Copy CRC 79E6F180 Accurately ripped (confidence 3) [B045C29C] Copy OK
Track 14
Filename C:\Rips\Kronos Quartet - 1998 - 25 Years (Disc 10) (Peter Sculthorpe, P.Q. Phan, Kevin Volans) [FLAC]\14 - Kevin Volans , White Man Sleeps, Quartet No. 1- Fifth Dance.wav
Pre-gap length 0:00:03.73
Peak level 22.9 % Track quality 100.0 % Test CRC 375506B7 Copy CRC 375506B7 Accurately ripped (confidence 4) [98408010] Copy OK
All tracks accurately ripped
No errors occurred
End of status report

.Cue

REM GENRE ClassicalREM DATE 1998REM DISCID D30F460EREM COMMENT "ExactAudioCopy v0.99pb5"FILE "01 - Peter Sculthorpe , Jabiru Dreaming, Quartet No. 11 (1990)- I. Deciso.wav" WAVE TRACK 01 AUDIO TITLE "Peter Sculthorpe , Jabiru Dreaming, Quartet No. 11 (1990)- I. Deciso" PERFORMER "Kronos Quartet" PREGAP 00:00:32 INDEX 01 00:00:00FILE "02 - Peter Sculthorpe , Jabiru Dreaming, Quartet No. 11 (1990)- II. Amoroso.wav" WAVE TRACK 02 AUDIO TITLE "Peter Sculthorpe , Jabiru Dreaming, Quartet No. 11 (1990)- II. Amoroso" PERFORMER "Kronos Quartet" INDEX 01 00:00:00 TRACK 03 AUDIO TITLE "Peter Sculthorpe , Quartet No. 8 (1969)- I. Con Dolore" PERFORMER "Kronos Quartet" INDEX 00 07:29:32FILE "03 - Peter Sculthorpe , Quartet No. 8 (1969)- I. Con Dolore.wav" WAVE INDEX 01 00:00:00 TRACK 04 AUDIO TITLE "Henryk Gуrecki , Quasi una Fantasia, Quartet No. 2, Op. 64 (1990-91)- III. Arioso- Adagio cantabile" PERFORMER "Kronos Quartet" INDEX 00 02:03:00FILE "04 - Peter Sculthorpe , Quartet No. 8 (1969)- II. Risoluto; Calmo.wav" WAVE INDEX 01 00:00:00 TRACK 05 AUDIO TITLE "Peter Sculthorpe , Quartet No. 8 (1969)- III. Con Dolore" PERFORMER "Kronos Quartet" INDEX 00 03:16:30FILE "05 - Peter Sculthorpe , Quartet No. 8 (1969)- III. Con Dolore.wav" WAVE INDEX 01 00:00:00 TRACK 06 AUDIO TITLE "Peter Sculthorpe , Quartet No. 8 (1969)- IV. Con Precisione" PERFORMER "Kronos Quartet" INDEX 00 03:03:03FILE "06 - Peter Sculthorpe , Quartet No. 8 (1969)- IV. Con Precisione.wav" WAVE INDEX 01 00:00:00FILE "07 - Peter Sculthorpe , Quartet No. 8 (1969)- V. Con Dolore.wav" WAVE TRACK 07 AUDIO TITLE "Peter Sculthorpe , Quartet No. 8 (1969)- V. Con Dolore" PERFORMER "Kronos Quartet" INDEX 01 00:00:00 TRACK 08 AUDIO TITLE "Peter Sculthorpe , From Ubirr (1994)" PERFORMER "Kronos Quartet" INDEX 00 01:48:57FILE "08 - Peter Sculthorpe , From Ubirr (1994).wav" WAVE INDEX 01 00:00:00 TRACK 09 AUDIO TITLE "P.Q. Phan , Tragedy At The Opera (1995)" PERFORMER "Kronos Quartet" INDEX 00 11:12:17FILE "09 - P.Q. Phan , Tragedy At The Opera (1995).wav" WAVE INDEX 01 00:00:00 TRACK 10 AUDIO TITLE "Kevin Volans , White Man Sleeps, Quartet No. 1- First Dance" PERFORMER "Kronos Quartet" INDEX 00 06:28:67FILE "10 - Kevin Volans , White Man Sleeps, Quartet No. 1- First Dance.wav" WAVE INDEX 01 00:00:00 TRACK 11 AUDIO TITLE "Kevin Volans , White Man Sleeps, Quartet No. 1- Second Dance" PERFORMER "Kronos Quartet" INDEX 00 04:02:55FILE "11 - Kevin Volans , White Man Sleeps, Quartet No. 1- Second Dance.wav" WAVE INDEX 01 00:00:00 TRACK 12 AUDIO TITLE "Kevin Volans , White Man Sleeps, Quartet No. 1- Third Dance" PERFORMER "Kronos Quartet" INDEX 00 05:05:17FILE "12 - Kevin Volans , White Man Sleeps, Quartet No. 1- Third Dance.wav" WAVE INDEX 01 00:00:00 TRACK 13 AUDIO TITLE "Kevin Volans , White Man Sleeps, Quartet No. 1- Fourth Dance" PERFORMER "Kronos Quartet" INDEX 00 03:23:48FILE "13 - Kevin Volans , White Man Sleeps, Quartet No. 1- Fourth Dance.wav" WAVE INDEX 01 00:00:00 TRACK 14 AUDIO TITLE "Kevin Volans , White Man Sleeps, Quartet No. 1- Fifth Dance" PERFORMER "Kronos Quartet" INDEX 00 06:16:43FILE "14 - Kevin Volans , White Man Sleeps, Quartet No. 1- Fifth Dance.wav" WAVE INDEX 01 00:00:00
[teatrix.ru].t9786.torrent 
Торрент: Зарегистрирован [ 2015-10-23 17:26 ] · 71B29B5810A899104EA242F499267A36B3AB11C3

Скачать .torrent

Скачать

28 KB

Статус: проверено
Скачан: 0 раз
Размер: 2.44 GB
terms.php



Быстрый ответ

Имя:

      
Для отправки сообщений необходимо включить JavaScript
Показать сообщения:    

Текущее время: 08-Дек 17:25

Часовой пояс: UTC + 3


Вы можете начинать темы
Вы можете отвечать на сообщения
Вы не можете редактировать свои сообщения
Вы не можете удалять свои сообщения
Вы не можете голосовать в опросах
Вы не можете прикреплять файлы к сообщениям
Вы можете скачивать файлы