(Classical / Ballet) Ballet Masterpieces: The World's Favorite Ballets and Ballet Suites [35CD] - 2009, FLAC (image+.cue), lossless


 

[Цитировать]

Ballet Masterpieces: The World's Favorite Ballets & Ballet Suites [35Cd]
Жанр: Classical / Ballet
Год выпуска диска: 2009
Производитель диска: Decca
Аудио кодек: FLAC
Тип рипа: image+.cue
Битрейт аудио: lossless
Продолжительность: 38ч 14 мин 15 сBallet MasterpiecesThe World's Favorite Ballets and Ballet Suites

ТрэклистCD1 - Adolphe Adam - Giselle

Adolphe Adam
Giselle

1. Introduction
2. Les Vendangeurs
3. Entree de Loys
4. Entree de Giselle
5. Retour de la vendange et valse
6. La chasse
7. Scene d'Hilarion
8. Marche des vignerons
9. Pas seul
10. Pas de deux jeunes paysans: Polacca
11. Andante
12. Pesante
13. Allegretto
14. Allegretto pesante
15. Valse
16. Pas des vendanges: Andante
17. Moderato
18. Allegro moderato
19. Allegro un peu loure
20. Galop general
21. Finale de premier acte et scene de folie
Covent Garden
Conductor: Richard Bonynge

CD2 - Adolphe Adam - Giselle

Adolphe Adam
Giselle
1. Introduction, halte des chausseurs et apparition des feux follets
2. Apparitions de Myrthe et evocation magique
3. Pas des premieres Wilis
4. Apparition de Giselle
5. Entree des paysans
6. Entree du Prince et apparition de Giselle
7. Entree d'Hilarion, scene et fugue des Wilis
8. Grand pas de deux: Adage
9. Grand pas de deux: Andantino
10. Grand pas de deux Andante
11. Grand pas de deux: Valse (interpolated)
12. Finale
13. Lever du soleil et arrivee de la cour
Covent Garden
Conductor: Richard Bonynge

CD3 - Adolphe Adam - Le Corsair

Adolphe Adam
Le Corsair

1. Act 1: Overtur
2. Introduction
3. Tarantella
4. Mazuetta
5. La Francaise
6. Bolero
7. Ecossaise
8. Coda
9. Action
10. Corsairs' bacchanal
11. Scene II action
12. Pas des eventails
13. Action
14. Variation for Mlle Frantzow
15. Action
English Chamber Orchestra
Conductor: Richard Bonynge

CD4 - Adolphe Adam - Le Corsair

Adolphe Adam
Le Corsair

1. Act II, Scene I, Pas des odalisques
2. Entrance of Gulnare
3. Gulnare's Dance
4. Action
5. Act III, Scene 1, Action
6. Valse de Naila
7. Andante
8. 1st Variation
9. 2nd Variation
10. Finale
11. Action
12. Scene II
13. Scene III Storm and Shipwreck
English Chamber Orchestra
Conductor: Richard Bonynge

CD5 - Weber - Invitation to the Dance // Chopin - Les Sylphides // Johann Strauss - Bal de Vienne

Carl Maria von Weber
1. Invitation to the Dance
Frederic Chopin
Les Sylphides
2. Prelude
3. Nocturne
4. Waltz
5. Mazurka
6. Mazurka
7. Prelude
8. Waltz
9. Waltz
Johann Strauss
Bal de Vienne
10. Ballet Suite from Die Fledermaus, Act II
National Philharmonic Orchestra
Conductor: Richard Bonynge
Alexandre Luigini
Ballet Egyptien, Op. 12
11. Part I
12. Part II
London Symphony Orchestra
Conductor: Richard Bonynge

CD6 - Rossini - La Boutique Fantasque // Britten - Soirees Musicales, Matinees Musicales

Gioachino Rossini / Ottorino Respighi
1. La Boutique Fantasque
Benjamin Britten
Soirees Musicales
2. March
3. Canzonetta
4. Tirolese
5. Bolero
6. Tarantella
Matinees Musicales
7. March
8. Nocturne
9. Waltz
10. Pantomime
11. Moto Perpetuo
National Philharmonic Orchestra
Conductor: Richard Bonynge

CD7 - Leo Delibes - Coppelia

Leo Delibes
Coppelia
1. Act I - Prelude et Mazurka
2. Valse lente
3. Scene
4. Mazurka
5. Scene
6. Ballade de l'epi
7. Theme slave varie
8. Czardas (Danse hongroise) - Sortie
9. Finale
10. Act II, Scene 1 - Entr'acte et valse
11. Scene
12. Scene
13. Musique des automates - Scene
14. Scene
15. Chanson a boire et scene
16. Scene et valse de la poupee
17. Scene
18. Bolero
19. Gigue
20. Scene
National Philharmonic Orchestra
Conductor: Richard Bonynge

CD8 - Leo Delibes - Coppelia, Sylvia

Leo Delibes
Coppelia
1. Act II, Scene 2 - Marche de la cloche - Fкte de la cloche
2. Introduction
3. Valse des heures
4. L'Aurore
5. La Priиre
6. Le Travail (La Fileuse)
7. L'Hymen (Noce villageoise)
8. La Discorde et la guerre
9. La Paix
10. Danse de fкte
11. Galop final
National Philharmonic Orchestra
Conductor: Richard Bonynge
Sylvia
12. Act I - Prelude
13. Scherzo
14. Le Berger (Pastorale)
15. Les Chasseresses
16. Intermezzo
17. Valse lente
18. Scene
19. Cortege rustique
20. Scene
21. Entree du sorcier (Finale)
New Philharmonia Orchestra
Conductor: Richard Bonynge

CD9 - Leo Delibes - Sylvia, La Source

Leo Delibes
Sylvia
1. Act II - Entr'acte
2. Orion
3. Pas de ethiopiens
4. Chant bachique
5. Scène et danse de la Bacchante
6. Scène finale
7. Act III - Marche er cortиge de Bacchus
8. Scène
9. Barcarolle
10. Pizzicati
11. Andante
12. Pas des esclaves
13. Variation: Valse
14. Strette: Galop
15. Le Temple de Diane (Finale)
16. Apparition d'Endymion
New Philharmonia Orchestra
Conductor: Richard Bonynge
Leo Delibes / Ludwig Minkus
La Source
17. Prelude
18. Introduction fantastique
19. L'Ephemère - Scène dansée
20. Scène
21. Marche del la caravane
22. Berceuse
Orchestra of the Royal Opera House, Covent Garden
Conductor: Richard Bonynge

CD10 - Leo Delibes - La Source

Leo Delibes / Ludwig Minkus
La Source
1. Pas de la guzla
2. Pas de la guzla
3. Scène
4. Scène dansée
5. Valse
6. Scène et danse
7. Danse des sylphes et des lutins
8. Variation de Naïlia
9. Scène et danse
10. Galop
11. Scène finale
12. Introduction
13. Scène
14. Scène
15. Divertissement: Pas des voiles
16. Divertissement: Andante
17. Divertissement: Variation
18. Divertissement: Final: Danse circassienne
19. Scène
20. Pas de Naïla. Scherzo-Polka
21. Scène et pas d'action
22. Mazurka
23. Scène
24. Marche dansée et final
25. Introduction
26. Scène
27. Romance
28. Scène et danse
Orchestra of the Royal Opera House, Covent Garden
Conductor: Richard Bonynge

CD11 - Louis Joseph Ferdinand Herold / John Lanchbery - La Fille Mal Gardee

Louis Joseph Ferdinand Herold / John Lanchbery
La Fille Mal Gardee
1. Dance of the Cock and Hens
2. Lise and the Ribbon
3. Colas
4. Colas' Solo
5. Colas and Simone, Villagers
6. Simone and Lise
7. Lise and Colas
8. Village Girls
9. Thomas and Alain
10. Off to the Harvest
11. Colas
12. Picnic
13. Flute Dance
14. Quarrel
15. The Fanny Elssler Pas de deux
16. Simone
17. Clog Dance
18. Maypole Dance
19. Storm and Finale
Orchestra of the Royal Opera House, Covent Garden
Conductor: John Lanchbery

CD12 - Louis Joseph Ferdinand Herold / John Lanchbery - La Fille Mal Gardee // Charles Lecocq - Mam'zelle Angot

Louis Joseph Ferdinand Herold / John Lanchbery
La Fille Mal Gardee
1. Act 2: Overture
2. Lise and Simone
3. Spinning
4. Tambourine Dance
5. Harvesters
6. When I'm Married
7. Simone's Return
8. Thomas, Alain and the Notaries, Consternation and Forgiveness
9. Pas de Deux
10. Finale
Orchestra of the Royal Opera House, Covent Garden
Conductor: John Lanchbery
Charles Lecocq
Mam'zelle Angot
11. Overture
12. Allegro
13. Allegretto
14. Mazurka
15. Andantino - Valse
16. Tempo die marcia - Gavotte
17. Allegro Vivace
18. Allegretto
19. Allegro - Gavotte
20. Allegretto - Galop
21. Allegro - Valse
22. Allegro - Presto
23. Adagio
24. Allegro moderato, Finale
Orchestra of the Royal Opera House, Covent Garden
Conductor: Richard Bonynge

CD13 - Aram Khachaturian - Spartacus, Masquerade, Gayaneh

Aram Khachaturian
Spartacus
1. Varitaion of Aegina and Bacchanal
2. Adagio of Spartacus and Phrygia
3. Dance of the Gaditanae
Masquerade
4. Waltz
5. Nocturne
6. Mazurka
7. Romance
8. Galop
Gayaneh
9. Sabre Dance
10. Dawn, Ayeshe's Dance
11. Dance of the Rose Maidens
12. Lullaby
13. Lezghinka
London Symphony Orchestra
Conductor: Stanley Black

CD14 - Jules Massenet - Manon

Jules Massenet, arr. and orch. Leighton Lucas, with the assistance of Hilda Gaunt
Manon
Act I
1. Scene 1 The Courtyard of an inn near Paris
2. Scene 2 Des Grieux’s lodgings in Paris
Act II
3. Scene 1 A Party at Madame’s brothel
Orchestra of the Royal Opera House, Covent Garden
Conductor
: Richard Bonynge

CD15 - Jules Massenet - Manon

Jules Massenet, arr. and orch. Leighton Lucas, with the assistance of Hilda Gaunt
Manon
Act II
1. Scene 1 (Conclusion)
2. Scene 2 Des Grieux’s lodgings
Act III
3. Scene 1 The port of New Orleans
4. Scene 2 The goaler’s rooms
5. Scene 3 A swamp in Louisiana
Orchestra of the Royal Opera House, Covent Garden
Conductor
: Richard Bonynge

CD16 - Jacques Offenbach - Gaite parisienne // Charles Gounod - Faust – ballet music

Jacques Offenbach, arr. Manuel Rosenthal
Gaite parisienne
1. Overture
2. No.1 Allegro brillante
3. No.2 Polka - No.3 Allegro / Valse
04. No.4 Mazurka - No.5 Valse
05. No.6 Peruvian Dance - No.7 Polka
06. No.8 Valse lente - No.9 Tempo di marcia
07. No.10 Valse - No.11 Allegro vivo - No.12 Valse - No.13 Allegro misterioso
08. No.14 Valse moderato, pas de deux
09. No.15 Allegro vivo - No.16 Cancan - No.17 Quadrille
10. No.18 Cancan - No.19 Allegro moderato - No.20 Allegro - No.21 Leggiero
11. No.22 Vivo
12. No.23 Barcarolle
Charles Gounod
13. Faust – ballet music
Orchestre Symphonique de Montreal
Conductor: Charles Dutoit

CD17 - Prokofiev - Cinderella

Sergei Prokofiev
Cinderella
Act I
1. No.1 Introduction
2. No.2 Shawl dance
3. No.3 Cinderella
4. No.4 The Father
5. No.5 The Fairy Godmother
6. No.6 The Sisters’ New Clothes
7. No.7 The Dancing Lesson
8. No.8 Departure of the Stepmother and Sisters for the ball
9. No.9 Cinderella Dreams of the Ball
10. No.10 Gavotte
11. No.11 Second Appearance of the Fairy Godmother
12. No.12 Spring Fairy
13. No.13 Summer Fairy
14. No.14 Grasshoppers and Dragonflies
15. No.15 Autumn Fairy
16. No.16 Winter Fairy
17. No.17 The Interrupted Departure
18. No.18 The Clock
19. No.19 Cinderella’s Departure for the Ball
Act II
20. No.20 Dance of the Courtiers
21. No.21 Court Dance
22. No.22 Cavaliers’ Dance
23. No.23 Skinny’s Variation
24. No.24 Dumpy’s Variation
25. No.25 Dance of the Courtiers
26. No.26 Mazurka and Entrance of the Prince
27. No.27 Dance of the Prince’s Four Companions
28. No.28 Mazurka (reprise)
29. No.29 Cinderella’s Arrival at the Ball
30. No.30 Grand Waltz
31. No.31 Promenade
32. No.32 Cinderella’s Dance
33. No.33 Dance of the Prince
34. No.34 Refreshments for the Guests
35. No.35 Duet of the Sisters with the Oranges
36. No.36 Duet of the Prince and Cinderella
37. No.37 Waltz-Coda
38. No.38 Midnight
The Cleveland Orchestra
Conductor: Vladimir Ashkenazy

CD18 - Prokofiev - Cinderella // Glazunov - The Seasons

Sergei Prokofiev
Cinderella
Act III
1. No.39 The Prince and the Cobblers
2. No.40 First galop of the Prince
3. No.41 Temptation
4. No.42 Second galop of the Prince
5. No.43 Oriental Dance
6. No.44 Third galop of the Prince
7. No.45 Cinderella’s Awakening
8. No.46 The Morning after the Ball
9. No.47 The Prince’s Visit
10. No.48 The Prince Recognises Cinderella
11. No.49 Waltz
12. No.50 Amoroso: The Prince and the Cinderella
The Cleveland Orchestra
Conductor: Vladimir Ashkenazy
Alexander Glazunov
The Seasons
13. Winter
14. Spring
15. Summer
16. Autumn
Royal Philharmonic Orchestra
Conductor: Vladimir Ashkenazy

CD19 - Prokofiev - Romeo and Juliet

Sergei Prokofiev
Romeo and Juliet
01. Introduction
Act I
Scene 1

2. Romeo
3. The street awakens – Morning dance
4. The quarrel
5. The fight
6. The Prince gives his order – Interlude
Scene 2
7. Preparations for the ball (Juliet and the Nurse)
8. Juliet as a young girl
9. Arrival of the guests (Minuet)
10. Masks
11. Dance of the knights
12. Juliet’s variation
13. Mercutio
14. Madrigal
15. Tybalt recognises Romeo
16. The departure of the guests
17. Balcony scene – Romeo’s variation – Love Dance
Act II
Scene 1

18. Folk dance
19. Romeo and Mercutio
20. Dance of the five couples
21. Dance with mandolins
22. The Nurse – The Nurse delivers Juliet’s message to Romeo
Danie Majeske, violin
Edward Armond, viola
The Cleveland Orchestra
Conductor: Lorin Maazel

CD20 - Prokofiev - Romeo and Juliet

Sergei Prokofiev
Romeo and Juliet
Act II
Scene 2

1. Romeo at Friar Laurence’s
2. Juliet at Friar Laurence’s
Scene 3
3. The pepole continue to make merry – Further public festivities
4. Tybalt meets Mercutio – Tybalt and Mercutio fight – Mercutio dies
5. Romeo resolves to avenge Mercutio’s death – Finale
Act III
6. Introduction
Scene 1
7. The last farwell
8. The Nurse
9. Juliet refuses to marry Paris
10. Juliet alone – Interlude
Scene 2
11. At Friar Laurence’s – Interlude
Scene 3
12. Juliet’s room
13. Juliet alone
14. Morning serenade
15. Dance of the girls with lilies
16. At Juliet’s bedside
Act IV (Epilogue)
17. Juliet’s funeral – Juliet’s death
Danie Majeske, violin
Edward Armond, viola
The Cleveland Orchestra
Conductor: Lorin Maazel

CD21 - Maurice Ravel - Daphnis et Chloe, Alborada del gracioso, La Valse

Maurice Ravel
Daphnis et Chloe
Partie 1
1. Introduction et danse religieuse
2. Scene – Danse generale
3. Scene – Danse grotesque de Dorcon
4. Danse legere et gracieuse de Daphnis
5. Scene – Danse de Lyceion
6. Nocturne – Danse lente et mysterieuse
Partie 2
7. Introduction
8. Danse guerriere
9. Scene – Danse suppliante de Chloe
Partie 3
10. Lever du jour
11. Pantomime
12. Danse generale
13. Alborada del gracioso
14. La Valse
L’Orchestre de la Suisse Romande
Les Choeurs de la Radio Suisse Romande

Chorus master: Andre Charlet
Conductor: Ernest Ansermet

CD22 - Johann Strauss II - Aschenbrodel

Johann Strauss II, edited by Josef Bayer, revised by Douglas Gamley
Aschenbrodel
1. Vorspiel
Act I
2. Allegro
3. Franz’ Selbstportrat
4. Promenadenabenteuer
5. Entree des Piccolo. Liebesbotschaft
6. An der schonen blauen Donau
7. Tauben-Walzer
8. Zwischenspiel
Act II
9. Allegretto
10. Agyptischer Sklavinnentanz
11. Einzug Floras
12. Aschenbrodel-Walzer
13. Zwischenspiel
Act III
Part 1

14. Allegretto
15. 1. Traumbild
16. 2. Traumbild
17. 3. Traumbild. Amorettenreigen
18. Moderato
National Philharmonic Orchestra
Conductor: Richard Bonynge

CD23 - Johann Strauss II - Aschenbrodel, Ritter Pasman – ballet music

Johann Strauss II, edited by Josef Bayer, revised by Douglas Gamley
Aschenbrodel
1. Zwischenspiel
Part 2
2. Allegretto
Trousseau-Divertissement
3. Monogramm-Tanz
4. Tarantella
5. Walzer-Tempo
6. Mazurka
7. Csardas
8. Brautschatz-Walzer
Johann Strauss II
Ritter Pasman – ballet music
9. Allegretto – Tempo di Polka
10. Andantino grazioso – Tempo di valse
11. Csardas
Johann Strauss I, Johann Strauss II, Josef Strauss & Eduard Strauss, arr. Roger Desormiere
Le Beau Danube
12. Allegro, etc.
13. Allegro marcato – Mazurka, etc.
14. Andantino – Tempo di valse, etc.
15. Mazurka, etc.
National Philharmonic Orchestra
Conductor: Richard Bonynge

CD24 - Stravinsky - The Firebird

Igor Stravinsky
L’Oiseau de feu (The Firebird)
1. Introduction
Tableau 1
2. Kashchei’s enchanted garden
3. Appearance of the Firebird pursued by Ivan Tsarevich
4. The Firebird’s dance
5. Prince Ivan captures the Firebird
6. Supplication of the Firebird
7. The Princesses’s game with the golden apples
8. Sudden appearance of Prince Ivan
9. The Princesses’s round-dance
10. Daybreak – Prince Ivan enters Kashchei’s palace
11. Magic carillon – appearance of Kashchei’s guardian monsters – capture of Prince Ivan
12. Dance of Kashchei’s retinue under the Firebird’s spell
13. Infernal dance of all Kashchei’s subjects
14. Lullaby (the Firebird) – Kashchei awakes – death of Kashchei – darkness
Tableau 2
15. Dissolution of palace and Kashchei’s spells – animation of the petrified warriors – general rejoicing
Detroit Symphony Orchestra
Conductor: Antal Dorati

CD25 - Stravinsky - Petrouchka, Le Sacre du Printemps

Igor Stravinsky
Petrouchka
1. Tableau 1 The Shrovetide
2. Tableau 2 In Petrouchka’s room
3. Tableau 3 In the Moor’s room
4. Tableau 4 The Shrovetide fair
Le Sacre du Printemps
5. Part 1 L’Adoration de la terre
6. Part 2 Le Sacrifice
Detroit Symphony Orchestra
Conductor: Antal Dorati

CD26 - Tchaikovsky - The Sleeping Beauty

Pyotr Ilyich Tchaikovsky
The Sleeping Beauty
Prologue
1. Introduction
2. No.1 Marche
3. No.2 Scene dansante: Entree des fees - No.3 Pas de six
04. Introduction
Adagio
5. Variation 1 Candide
6. Variation 2 Coulante, fleur de farine
7. Variation 3 Fee aux miettes
8. Variation 4 Canari qui chante
9. Variation 5 Violente
10. Variation 6 La Fee des lilas
11. Coda
12. No.4 Finale
Act I
13. No.5 Scene
14. No.6 Valse
15. No.7 Scene - No.8 Pas d’action
16. Adagio
17. Danse des demoiselles d’honneur et des pages
18. Variation d’Aurore (Mincho Minchev, violin)
19. Coda
20. No.9 Finale
National Philharmonic Orchestra
Conductor: Richard Bonynge

CD27 - Tchaikovsky - The Sleeping Beauty

Pyotr Ilyich Tchaikovsky
The Sleeping Beauty
Act II
Scene 1

1. No.10 Entr’acte et scene
2. No.11 Colin-Maillard
3. No.12
4. No.13 Farandole
5. No.14 Scene - No.15
6. Pas d’action: Aurore et Desire (Francisco Gabarro, cello)
7. Variation d’Aurore
8. Coda
9. No.16 Scene
10. No.17 Panorama
11. No.18 Entr’acte (Mincho Minchev, violin)
Scene 2
12. No.19 Entr’acte symphonique (Le Sommeil, Sleep, Der Schlaf) et Scene
13. No.20 Finale
Act III
14. No.21 Marche
15. No.22 Polacca
16. No.23 Pas de quatre
17. Variation 1 La Fee-Or
18. Variation 2 La Fee-Argent
19. Variation 3 La Fee-Saphir
20. Variation 4 La Fee-Diamant
21. Coda
22. No.24 Pas de caractere: Le Chat botte et la chatte blanche
23. No.25 Pas de quatre
24. Variation 1 Cendrillon et Fortune
25. Variation 2 L’Oiseau bleu et la Princesse Florine
26. Coda
National Philharmonic Orchestra
Conductor: Richard Bonynge

CD28 - Tchaikovsky - The Sleeping Beauty // Meyerbeer - Les Patineurs

Pyotr Ilyich Tchaikovsky
The Sleeping Beauty
No.26 Pas de caractere
1. Chaperon Rouge et le Loup
2. Cendrillon et Fortune
3. No.27 Pas Berrichon: LePetit Poucet, ses freres et l’ogre -
No.28 Pas de deux: Aurore et Desire
4. Entree
5. Adagio
6. Variation 1 Desire
7. Variation 2 Aurore
8. Coda
9. No.29 Sarabande - No.30
10. Finale
11. Apotheose
National Philharmonic Orchestra
Conductor: Richard Bonynge
Giacomo Meyerbeer, arr. Constant Lambert
Les Patineurs
12. Entree
13. Pas seul – Pas de deux
14. Ensemble
15. Pas de trois
16. Duo
17. Pas des patineurs
18. Finale
National Philharmonic Orchestra
Conductor: Richard Bonynge

CD29 - Tchaikovsky - Swan Lake

Pyotr Ilyich Tchaikovsky
Swan Lake
Act I
1. No.1 Scene (Allegro giusto)
2. No.2 Valse (Tempo di valse)
3. No.3 Scene (Allegro moderato)
4. No.4 Pas de trois
5. No.5 Pas de deux (Chantal Juillet, violin)
6. No.6 Pas d’action (Andantino quasi moderato – Allegro)
7. No.7 Sujet
8. No.8 Danse des coupes
9. No.9 Finale (Andante)
Act II
10. No.10 Scene (Moderato)
11. No.11 Scene (Allegro moderato – Moderato – Allegro vivo)
12. No.12 Scene (Allegro – Moderato assai quasi andante)
13. No.13 Danses des cygnes (Chantal Juillet, violin / Guy Fouquet, cello)
Orchestre Symphonique de Montreal
Dorothy Weldon Masella - Harp
James Thompson - Cornet
Conductor: Charles Dutoit

CD30 - Tchaikovsky - Swan Lake

Pyotr Ilyich Tchaikovsky
Swan Lake
Act III
1. No.15 Allegro giusto
2. No.16 Danses du corps de ballet et des nains
3. No.17 Scene: Sortie des invites et valse
4. No.18 Scene (Allegro – Allegro giusto)
5. No.19 Pas de six
6. Numero supplementaire: Pas de deux (Chantal Juillet, violin)
7. No.20 Danse hongroise
8. No.20a Numero supplementaire (Solo violin: Chantal Juillet)
9. No.21 Danse espagnole (Allegro non troppo. Tempo di bolero)
10. No.22 Danse napolitaine (Allegro moderato – Andantito quasi moderato – Presto)
11. No.23 Mazurka (Tempo di mazurka)
12. No.24 Scene (Allegro – Valse – Allegro vivo)
Act IV
13. No.25 Entr’acte (Moderato)
14. No.26 Scene (Allegro non troppo)
15. No.27 Danses des petits cygnes (Moderato)
16. No.28 Scene (Allegro agitato – Molto meno mosso – Allegro vivace)
17. No.29 Scene finale (Andante – Allegro agitato – Alla breve. Moderato e maestoso – Moderato)
Orchestre Symphonique de Montreal
Dorothy Weldon Masella - Harp
James Thompson - Cornet
Conductor: Charles Dutoit

CD31 - Tchaikovsky - The Nutcracker

Pyotr Ilyich Tchaikovsky
The Nutcracker

1. Overture
Act I
Scene 1

2. No.1 The Christmas tree
3. No.2 March
4. No.3 Children’s galop and entry of the parents
5. No.4 Drosselmeyer’s arrival and distribution of presents
6. No.5 Scene: The Nutcracker
7. Grandfather Dance
8. No.6 Scene: Departure of the guests – Night
9. No.7 Scene: The battles
Scene 2
10. No.8 Scene: A pine forest in Winter
11. Scene and waltz of the Snowflaks
Berliner Philharmoniker
Conductor: Semyon Bychkov

CD32 - Tchaikovsky - The Nutcracker, Eugene Onegin – ballet music

Pyotr Ilyich Tchaikovsky
The Nutcracker

Act II
1. No.10 Scene: The enchanted palace of the kingdom of sweets
2. No.11 Scene: Arrival of Clara and the Nutcracker -
No.12 Divertissement
3. _ a. Chocolate: Spanish dance
4. _ b. Coffee: Arabian dance
5. _ c. Tea: Chinese dance
6. _ d. Russian dance
7. _ e. Dance of the reed-pipes
8. _ f. Mother Stork and the clowns
9. No.13 Waltz of the flowers
No.14 Pas de deux
10. The prince and the sugar-plum fairy
11. Variation 1 Tarantella
12. Variation 2 Dance of the sugar-plum fairy
13. Coda
14. Final waltz
15. Apotheosis
Eugene Onegin – ballet music
16. Entr’acte
17. Valse
18. Polonaise
Berliner Philharmoniker
Conductor: Semyon Bychkov

CD33 - Verdi - ballet music

Giuseppe Verdi
1. Otello – ballet music
2. Don Carlos – “La peregrina” (Solo violin: Giovanni Adamo)
3. Aida – Marcia e ballabile
4. Macheth – ballet music
I vespri siciliani – “Le quattro stagioni”
5. L’inverno
6. La primavera
7. L’estate
8. L’autunno
Orchestra del Teatro Comunale di Bologna
Conductor: Riccardo Chailly

CD34 - Ballet Gala

Ballet Gala
Leon Minkus, arr. Peter March
1. Grand pas Paquita
Cesare Pugni, arr. Peter March
2. Pas de quatre
Jacques Offenbach
3. Le Papillon
Leon Minkus, arr. Peter March
4. Pas de deux Don Quixote
Riccardo Drigo, arr. John Lanchbery
5. Pas de deux Le Corsaire
English Chamber Orchestra
Conductor: Richard Bonynge

CD35 - Ballet Gala

Ballet Gala
Daniel-Francois-Esprit Auber
1. Pas classique
Daniel-Francois-Esprit Auber, arr. Constant Lambert
2. Les Rendez-vous
Riccardo Drigo, arr. Peter March
3. Pas de deux Diane et Acteon
Domenico Scarlatti, arr. Vincenzo Tommasini
4. The Good-humoured Ladies
Ambroise Thomas
5. Francoise de Rimini
English Chamber Orchestra
Conductor: Richard Bonynge
Доп. информация:
Royal Opera House Covent Garden Orchestra
English Chamber Orchestra
National Philharmonic Orchestra
London Symphony Orchestra
Cleveland Orchestra
Montreal Symphony Orchestra
Royal Philharmonic Orchestra
Suisse Romande Orchestra
Detroit Symphony Orchestra
Berlin Philharmonic Orchestra
Bologna Teatro Comunale Orchestra
English Concert

Conductors:
Richard Bonynge
John Lanchbery
Stanley Black
Vladimir Ashkenazy
Charles Dutoit,
Lorin Maazel
Ernest Ansermet
Antal Doráti
Semyon Bychkov
Riccardo Chailly

Отчёт EACCD1

Exact Audio Copy V0.99 prebeta 4 from 23. January 2008
EAC extraction logfile from 12. January 2010, 13:30
Richard Bonynge - Covent Garden / Adolphe Adam - Giselle CD 1
Used drive : HL-DT-STDVDRAM GSA-4082B Adapter: 1 ID: 1
Read mode : Secure
Utilize accurate stream : Yes
Defeat audio cache : Yes
Make use of C2 pointers : No
Read offset correction : 667
Overread into Lead-In and Lead-Out : No
Fill up missing offset samples with silence : Yes
Delete leading and trailing silent blocks : No
Null samples used in CRC calculations : Yes
Used interface : Native Win32 interface for Win NT & 2000
Used output format : Internal WAV Routines
Sample format : 44.100 Hz; 16 Bit; Stereo
TOC of the extracted CD
Track | Start | Length | Start sector | End sector
---------------------------------------------------------
1 | 0:00.33 | 2:23.52 | 33 | 10809
2 | 2:24.10 | 1:39.60 | 10810 | 18294
3 | 4:03.70 | 1:40.05 | 18295 | 25799
4 | 5:44.00 | 7:10.60 | 25800 | 58109
5 | 12:54.60 | 6:24.68 | 58110 | 86977
6 | 19:19.53 | 8:27.22 | 86978 | 125024
7 | 27:47.00 | 1:20.20 | 125025 | 131044
8 | 29:07.20 | 1:40.43 | 131045 | 138587
9 | 30:47.63 | 2:10.12 | 138588 | 148349
10 | 32:58.00 | 0:56.10 | 148350 | 152559
11 | 33:54.10 | 2:03.30 | 152560 | 161814
12 | 35:57.40 | 0:48.08 | 161815 | 165422
13 | 36:45.48 | 0:37.17 | 165423 | 168214
14 | 37:22.65 | 0:50.73 | 168215 | 172037
15 | 38:13.63 | 1:34.20 | 172038 | 179107
16 | 39:48.08 | 2:09.15 | 179108 | 188797
17 | 41:57.23 | 1:38.52 | 188798 | 196199
18 | 43:36.00 | 1:34.73 | 196200 | 203322
19 | 45:10.73 | 3:17.62 | 203323 | 218159
20 | 48:28.60 | 2:44.60 | 218160 | 230519
21 | 51:13.45 | 11:39.58 | 230520 | 283002
Range status and errors
Selected range
Filename G:\Ballet Masterpieces\Richard Bonynge - Covent Garden - Adolphe Adam - Giselle CD 1.wav
Peak level 98.7 %
Range quality 100.0 %
Copy CRC A6061532
Copy OK
No errors occurred
End of status report

CD2

Exact Audio Copy V0.99 prebeta 4 from 23. January 2008
EAC extraction logfile from 12. January 2010, 14:12
Richard Bonynge - Covent Garden / Adolphe Adam - Giselle CD 2
Used drive : HL-DT-STDVDRAM GSA-4082B Adapter: 1 ID: 1
Read mode : Secure
Utilize accurate stream : Yes
Defeat audio cache : Yes
Make use of C2 pointers : No
Read offset correction : 667
Overread into Lead-In and Lead-Out : No
Fill up missing offset samples with silence : Yes
Delete leading and trailing silent blocks : No
Null samples used in CRC calculations : Yes
Used interface : Native Win32 interface for Win NT & 2000
Used output format : Internal WAV Routines
Sample format : 44.100 Hz; 16 Bit; Stereo
TOC of the extracted CD
Track | Start | Length | Start sector | End sector
---------------------------------------------------------
1 | 0:00.33 | 7:12.50 | 33 | 32482
2 | 7:13.08 | 6:43.50 | 32483 | 62757
3 | 13:56.58 | 7:09.62 | 62758 | 94994
4 | 21:06.45 | 2:24.70 | 94995 | 105864
5 | 23:31.40 | 2:35.60 | 105865 | 117549
6 | 26:07.25 | 10:58.08 | 117550 | 166907
7 | 37:05.33 | 5:36.12 | 166908 | 192119
8 | 42:41.45 | 6:29.03 | 192120 | 221297
9 | 49:10.48 | 0:52.05 | 221298 | 225202
10 | 50:02.53 | 2:19.25 | 225203 | 235652
11 | 52:22.03 | 2:20.00 | 235653 | 246152
12 | 54:42.03 | 1:08.52 | 246153 | 251304
13 | 55:50.55 | 7:05.28 | 251305 | 283207
Range status and errors
Selected range
Filename G:\Ballet Masterpieces\Richard Bonynge - Covent Garden - Adolphe Adam - Giselle CD 2.wav
Peak level 86.6 %
Range quality 100.0 %
Copy CRC 82E772F1
Copy OK
No errors occurred
End of status report

CD3

Exact Audio Copy V0.99 prebeta 4 from 23. January 2008
EAC extraction logfile from 12. January 2010, 14:37
English Chamber Orchestra, Richard Bonynge / Adam: Le Corsair (CD 1 of 2)
Used drive : HL-DT-STDVDRAM GSA-4082B Adapter: 1 ID: 1
Read mode : Secure
Utilize accurate stream : Yes
Defeat audio cache : Yes
Make use of C2 pointers : No
Read offset correction : 667
Overread into Lead-In and Lead-Out : No
Fill up missing offset samples with silence : Yes
Delete leading and trailing silent blocks : No
Null samples used in CRC calculations : Yes
Used interface : Native Win32 interface for Win NT & 2000
Used output format : Internal WAV Routines
Sample format : 44.100 Hz; 16 Bit; Stereo
TOC of the extracted CD
Track | Start | Length | Start sector | End sector
---------------------------------------------------------
1 | 0:00.33 | 8:35.60 | 33 | 38717
2 | 8:36.18 | 0:46.35 | 38718 | 42202
3 | 9:22.53 | 0:53.57 | 42203 | 46234
4 | 10:16.35 | 1:19.05 | 46235 | 52164
5 | 11:35.40 | 0:46.33 | 52165 | 55647
6 | 12:21.73 | 1:05.62 | 55648 | 60584
7 | 13:27.60 | 0:49.00 | 60585 | 64259
8 | 14:16.60 | 1:06.63 | 64260 | 69272
9 | 15:23.48 | 4:12.57 | 69273 | 88229
10 | 19:36.30 | 4:04.50 | 88230 | 106579
11 | 23:41.05 | 4:53.05 | 106580 | 128559
12 | 28:34.10 | 7:04.25 | 128560 | 160384
13 | 35:38.35 | 2:25.20 | 160385 | 171279
14 | 38:03.55 | 3:00.55 | 171280 | 184834
15 | 41:04.35 | 20:17.45 | 184835 | 276154
Range status and errors
Selected range
Filename G:\Ballet Masterpieces\English Chamber Orchestra, Richard Bonynge - Adam Le Corsair (CD 1 of 2).wav
Peak level 87.8 %
Range quality 100.0 %
Copy CRC B467DEF8
Copy OK
No errors occurred
End of status report

CD4

Exact Audio Copy V0.99 prebeta 4 from 23. January 2008
EAC extraction logfile from 12. January 2010, 16:27
English Chamber Orchestra, Richard Bonynge / Adam: Le Corsaire (CD 2 of 2)
Used drive : HL-DT-STDVDRAM GSA-4082B Adapter: 1 ID: 1
Read mode : Secure
Utilize accurate stream : Yes
Defeat audio cache : Yes
Make use of C2 pointers : No
Read offset correction : 667
Overread into Lead-In and Lead-Out : No
Fill up missing offset samples with silence : Yes
Delete leading and trailing silent blocks : No
Null samples used in CRC calculations : Yes
Used interface : Native Win32 interface for Win NT & 2000
Used output format : Internal WAV Routines
Sample format : 44.100 Hz; 16 Bit; Stereo
TOC of the extracted CD
Track | Start | Length | Start sector | End sector
---------------------------------------------------------
1 | 0:00.33 | 5:47.42 | 33 | 26099
2 | 5:48.00 | 3:38.50 | 26100 | 42499
3 | 9:26.50 | 2:29.50 | 42500 | 53724
4 | 11:56.25 | 16:41.50 | 53725 | 128849
5 | 28:38.00 | 9:11.00 | 128850 | 170174
6 | 37:49.00 | 3:11.38 | 170175 | 184537
7 | 41:00.38 | 4:00.25 | 184538 | 202562
8 | 45:00.63 | 2:07.62 | 202563 | 212149
9 | 47:08.50 | 1:02.63 | 212150 | 216862
10 | 48:11.38 | 3:41.00 | 216863 | 233437
11 | 51:52.38 | 5:02.00 | 233438 | 256087
12 | 56:54.38 | 7:07.62 | 256088 | 288174
13 | 64:02.25 | 5:35.40 | 288175 | 313339
Range status and errors
Selected range
Filename G:\Ballet Masterpieces\English Chamber Orchestra, Richard Bonynge - Adam Le Corsaire (CD 2 of 2).wav
Peak level 99.0 %
Range quality 100.0 %
Copy CRC 78C63C05
Copy OK
No errors occurred
End of status report

CD5

Exact Audio Copy V0.99 prebeta 4 from 23. January 2008
EAC extraction logfile from 15. January 2010, 10:32
Various / Ballet Gala - Invitation to the Dance
Used drive : HL-DT-STDVDRAM GSA-4082B Adapter: 1 ID: 1
Read mode : Secure
Utilize accurate stream : Yes
Defeat audio cache : Yes
Make use of C2 pointers : No
Read offset correction : 667
Overread into Lead-In and Lead-Out : No
Fill up missing offset samples with silence : Yes
Delete leading and trailing silent blocks : No
Null samples used in CRC calculations : Yes
Used interface : Native Win32 interface for Win NT & 2000
Used output format : Internal WAV Routines
Sample format : 44.100 Hz; 16 Bit; Stereo
TOC of the extracted CD
Track | Start | Length | Start sector | End sector
---------------------------------------------------------
1 | 0:00.33 | 11:06.00 | 33 | 49982
2 | 11:06.33 | 2:02.07 | 49983 | 59139
3 | 13:08.40 | 6:06.43 | 59140 | 86632
4 | 19:15.08 | 2:23.17 | 86633 | 97374
5 | 21:38.25 | 2:30.53 | 97375 | 108677
6 | 24:09.03 | 2:03.30 | 108678 | 117932
7 | 26:12.33 | 3:08.60 | 117933 | 132092
8 | 29:21.18 | 4:22.10 | 132093 | 151752
9 | 33:43.28 | 5:51.05 | 151753 | 178082
10 | 39:34.33 | 13:01.00 | 178083 | 236657
11 | 52:35.33 | 11:11.12 | 236658 | 286994
12 | 63:46.45 | 10:26.55 | 286995 | 333999
Range status and errors
Selected range
Filename G:\Ballet Masterpieces\Various - Ballet Gala - Invitation to the Dance.wav
Peak level 99.0 %
Range quality 99.9 %
Copy CRC E7559386
Copy OK
No errors occurred
End of status report

CD6

Exact Audio Copy V0.99 prebeta 4 from 23. January 2008
EAC extraction logfile from 12. January 2010, 17:05
Rossini - Respighi / La Boutique Fantasque
Used drive : HL-DT-STDVDRAM GSA-4082B Adapter: 1 ID: 1
Read mode : Secure
Utilize accurate stream : Yes
Defeat audio cache : Yes
Make use of C2 pointers : No
Read offset correction : 667
Overread into Lead-In and Lead-Out : No
Fill up missing offset samples with silence : Yes
Delete leading and trailing silent blocks : No
Null samples used in CRC calculations : Yes
Used interface : Native Win32 interface for Win NT & 2000
Used output format : Internal WAV Routines
Sample format : 44.100 Hz; 16 Bit; Stereo
TOC of the extracted CD
Track | Start | Length | Start sector | End sector
---------------------------------------------------------
1 | 0:00.32 | 41:12.35 | 32 | 185466
2 | 41:12.67 | 1:21.63 | 185467 | 191604
3 | 42:34.55 | 2:22.57 | 191605 | 202311
4 | 44:57.37 | 2:03.55 | 202312 | 211591
5 | 47:01.17 | 1:49.05 | 211592 | 219771
6 | 48:50.22 | 2:06.43 | 219772 | 229264
7 | 50:56.65 | 2:33.08 | 229265 | 240747
8 | 53:29.73 | 3:00.07 | 240748 | 254254
9 | 56:30.05 | 1:52.22 | 254255 | 262676
10 | 58:22.27 | 2:50.73 | 262677 | 275499
11 | 61:13.25 | 2:58.07 | 275500 | 288856
Range status and errors
Selected range
Filename G:\Ballet Masterpieces\Rossini - Respighi - La Boutique Fantasque.wav
Peak level 100.0 %
Range quality 100.0 %
Copy CRC BB20C46E
Copy OK
No errors occurred
End of status report

CD7

Exact Audio Copy V0.99 prebeta 4 from 23. January 2008
EAC extraction logfile from 12. January 2010, 17:18
Richard Bonygne / Delibes - The 3 Ballets (CD 1/3)
Used drive : HL-DT-STDVDRAM GSA-4082B Adapter: 1 ID: 1
Read mode : Secure
Utilize accurate stream : Yes
Defeat audio cache : Yes
Make use of C2 pointers : No
Read offset correction : 667
Overread into Lead-In and Lead-Out : No
Fill up missing offset samples with silence : Yes
Delete leading and trailing silent blocks : No
Null samples used in CRC calculations : Yes
Used interface : Native Win32 interface for Win NT & 2000
Used output format : Internal WAV Routines
Sample format : 44.100 Hz; 16 Bit; Stereo
TOC of the extracted CD
Track | Start | Length | Start sector | End sector
---------------------------------------------------------
1 | 0:00.00 | 4:37.53 | 0 | 20827
2 | 4:37.53 | 1:59.15 | 20828 | 29767
3 | 6:36.68 | 4:15.56 | 29768 | 48948
4 | 10:52.49 | 4:10.63 | 48949 | 67761
5 | 15:03.37 | 1:58.70 | 67762 | 76681
6 | 17:02.32 | 2:45.41 | 76682 | 89097
7 | 19:47.73 | 6:50.34 | 89098 | 119881
8 | 26:38.32 | 4:10.62 | 119882 | 138693
9 | 30:49.19 | 5:16.43 | 138694 | 162436
10 | 36:05.62 | 1:30.60 | 162437 | 169246
11 | 37:36.47 | 1:54.54 | 169247 | 177850
12 | 39:31.26 | 2:48.34 | 177851 | 190484
13 | 42:19.60 | 3:01.57 | 190485 | 204116
14 | 45:21.42 | 2:38.24 | 204117 | 215990
15 | 47:59.66 | 3:43.62 | 215991 | 232777
16 | 51:43.53 | 4:05.33 | 232778 | 251185
17 | 55:49.11 | 3:46.05 | 251186 | 268140
18 | 59:35.16 | 1:34.58 | 268141 | 275248
19 | 61:09.74 | 1:14.60 | 275249 | 280858
20 | 62:24.59 | 2:22.09 | 280859 | 291517
Range status and errors
Selected range
Filename G:\Ballet Masterpieces\Richard Bonygne - Delibes - The 3 Ballets (CD 1 3).wav
Peak level 99.9 %
Range quality 100.0 %
Copy CRC 01C40424
Copy OK
No errors occurred
End of status report

CD8

Exact Audio Copy V0.99 prebeta 4 from 23. January 2008
EAC extraction logfile from 12. January 2010, 17:44
Richard Bonygne / Delibes: The 3 Ballets [Disc 2]
Used drive : HL-DT-STDVDRAM GSA-4082B Adapter: 1 ID: 1
Read mode : Secure
Utilize accurate stream : Yes
Defeat audio cache : Yes
Make use of C2 pointers : No
Read offset correction : 667
Overread into Lead-In and Lead-Out : No
Fill up missing offset samples with silence : Yes
Delete leading and trailing silent blocks : No
Null samples used in CRC calculations : Yes
Used interface : Native Win32 interface for Win NT & 2000
Used output format : Internal WAV Routines
Sample format : 44.100 Hz; 16 Bit; Stereo
TOC of the extracted CD
Track | Start | Length | Start sector | End sector
---------------------------------------------------------
1 | 0:00.00 | 2:53.73 | 0 | 13047
2 | 2:53.73 | 0:43.17 | 13048 | 16289
3 | 3:37.15 | 3:11.50 | 16290 | 30664
4 | 6:48.65 | 2:29.40 | 30665 | 41879
5 | 9:18.30 | 2:46.60 | 41880 | 54389
6 | 12:05.15 | 1:30.45 | 54390 | 61184
7 | 13:35.60 | 1:39.38 | 61185 | 68647
8 | 15:15.23 | 2:29.04 | 68648 | 79826
9 | 17:44.27 | 4:08.11 | 79827 | 98437
10 | 21:52.38 | 1:26.50 | 98438 | 104937
11 | 23:19.13 | 2:49.62 | 104938 | 117674
12 | 26:09.00 | 5:03.65 | 117675 | 140464
13 | 31:12.65 | 6:58.64 | 140465 | 171878
14 | 38:11.54 | 3:25.11 | 171879 | 187264
15 | 41:36.65 | 3:06.08 | 187265 | 201222
16 | 44:42.73 | 1:21.52 | 201223 | 207349
17 | 46:04.50 | 4:40.25 | 207350 | 228374
18 | 50:45.00 | 5:00.70 | 228375 | 250944
19 | 55:45.70 | 3:01.53 | 250945 | 264572
20 | 58:47.48 | 4:41.50 | 264573 | 285697
21 | 63:29.23 | 4:32.52 | 285698 | 306149
Range status and errors
Selected range
Filename G:\Ballet Masterpieces\Richard Bonygne - Delibes The 3 Ballets [Disc 2].wav
Peak level 99.9 %
Range quality 100.0 %
Copy CRC 7AB5C7F4
Copy OK
No errors occurred
End of status report

CD9

Exact Audio Copy V0.99 prebeta 4 from 23. January 2008
EAC extraction logfile from 12. January 2010, 17:56
Richard Bogynge / Delibes: The 3 Ballets [Disc 3]
Used drive : HL-DT-STDVDRAM GSA-4082B Adapter: 1 ID: 1
Read mode : Secure
Utilize accurate stream : Yes
Defeat audio cache : Yes
Make use of C2 pointers : No
Read offset correction : 667
Overread into Lead-In and Lead-Out : No
Fill up missing offset samples with silence : Yes
Delete leading and trailing silent blocks : No
Null samples used in CRC calculations : Yes
Used interface : Native Win32 interface for Win NT & 2000
Used output format : Internal WAV Routines
Sample format : 44.100 Hz; 16 Bit; Stereo
TOC of the extracted CD
Track | Start | Length | Start sector | End sector
---------------------------------------------------------
1 | 0:00.00 | 3:03.35 | 0 | 13759
2 | 3:03.35 | 6:14.47 | 13760 | 41856
3 | 9:18.07 | 1:58.23 | 41857 | 50729
4 | 11:16.30 | 2:53.72 | 50730 | 63776
5 | 14:10.27 | 4:55.06 | 63777 | 85907
6 | 19:05.33 | 4:26.43 | 85908 | 105900
7 | 23:32.01 | 6:53.35 | 105901 | 136910
8 | 30:25.36 | 1:03.01 | 136911 | 141636
9 | 31:28.37 | 3:13.64 | 141637 | 156175
10 | 34:42.26 | 3:09.27 | 156176 | 170377
11 | 37:51.53 | 6:35.08 | 170378 | 200010
12 | 44:26.61 | 1:46.60 | 200011 | 208020
13 | 46:13.46 | 1:14.17 | 208021 | 213587
14 | 47:27.63 | 2:49.28 | 213588 | 226290
15 | 50:17.16 | 3:36.29 | 226291 | 242519
16 | 53:53.45 | 2:54.30 | 242520 | 255599
17 | 56:48.00 | 2:04.47 | 255600 | 264946
18 | 58:52.47 | 1:53.67 | 264947 | 273488
19 | 60:46.39 | 3:20.38 | 273489 | 288526
20 | 64:07.02 | 2:41.65 | 288527 | 300666
21 | 66:48.67 | 2:48.71 | 300667 | 313337
22 | 69:37.63 | 4:18.13 | 313338 | 332700
Range status and errors
Selected range
Filename G:\Ballet Masterpieces\Richard Bogynge - Delibes The 3 Ballets [Disc 3].wav
Peak level 95.8 %
Range quality 99.9 %
Copy CRC B9FCC439
Copy OK
No errors occurred
End of status report

CD10

Exact Audio Copy V0.99 prebeta 4 from 23. January 2008
EAC extraction logfile from 13. January 2010, 15:12
Richard Bonynge / Delibes: The 3 Ballets [Disc 4]
Used drive : HL-DT-STDVDRAM GSA-4082B Adapter: 1 ID: 1
Read mode : Secure
Utilize accurate stream : Yes
Defeat audio cache : Yes
Make use of C2 pointers : No
Read offset correction : 667
Overread into Lead-In and Lead-Out : No
Fill up missing offset samples with silence : Yes
Delete leading and trailing silent blocks : No
Null samples used in CRC calculations : Yes
Used interface : Native Win32 interface for Win NT & 2000
Used output format : Internal WAV Routines
Sample format : 44.100 Hz; 16 Bit; Stereo
TOC of the extracted CD
Track | Start | Length | Start sector | End sector
---------------------------------------------------------
1 | 0:00.00 | 2:06.66 | 0 | 9515
2 | 2:06.66 | 1:02.72 | 9516 | 14237
3 | 3:09.63 | 5:35.51 | 14238 | 39413
4 | 8:45.39 | 3:29.69 | 39414 | 55157
5 | 12:15.33 | 0:51.30 | 55158 | 59012
6 | 13:06.63 | 2:15.38 | 59013 | 69175
7 | 15:22.26 | 0:56.68 | 69176 | 73443
8 | 16:19.19 | 1:24.33 | 73444 | 79776
9 | 17:43.52 | 2:13.67 | 79777 | 89818
10 | 19:57.44 | 1:10.62 | 89819 | 95130
11 | 21:08.31 | 1:05.45 | 95131 | 100050
12 | 22:14.01 | 1:18.55 | 100051 | 105955
13 | 23:32.56 | 2:40.02 | 105956 | 117957
14 | 26:12.58 | 2:07.15 | 117958 | 127497
15 | 28:19.73 | 4:12.07 | 127498 | 146404
16 | 32:32.05 | 2:05.45 | 146405 | 155824
17 | 34:37.50 | 1:15.33 | 155825 | 161482
18 | 35:53.08 | 2:52.30 | 161483 | 174412
19 | 38:45.38 | 3:24.38 | 174413 | 189750
20 | 42:10.01 | 2:06.50 | 189751 | 199250
21 | 44:16.51 | 3:55.37 | 199251 | 216912
22 | 48:12.13 | 2:33.63 | 216913 | 228450
23 | 50:46.01 | 0:26.71 | 228451 | 230471
24 | 51:12.72 | 2:33.53 | 230472 | 241999
25 | 53:46.50 | 0:48.03 | 242000 | 245602
26 | 54:34.53 | 4:01.04 | 245603 | 263681
27 | 58:35.57 | 7:29.21 | 263682 | 297377
28 | 66:05.03 | 6:05.72 | 297378 | 324824
Range status and errors
Selected range
Filename G:\Ballet Masterpieces\Richard Bonynge - Delibes The 3 Ballets [Disc 4].wav
Peak level 91.7 %
Range quality 100.0 %
Copy CRC 46A28971
Copy OK
No errors occurred
End of status report

CD11

Exact Audio Copy V0.99 prebeta 4 from 23. January 2008
EAC extraction logfile from 13. January 2010, 15:32
Orchestra of the Royal Opera House, Covent Garden / Herold, Lanchbery: La Fille Malgarde
Used drive : HL-DT-STDVDRAM GSA-4082B Adapter: 1 ID: 1
Read mode : Secure
Utilize accurate stream : Yes
Defeat audio cache : Yes
Make use of C2 pointers : No
Read offset correction : 667
Overread into Lead-In and Lead-Out : No
Fill up missing offset samples with silence : Yes
Delete leading and trailing silent blocks : No
Null samples used in CRC calculations : Yes
Used interface : Native Win32 interface for Win NT & 2000
Used output format : Internal WAV Routines
Sample format : 44.100 Hz; 16 Bit; Stereo
TOC of the extracted CD
Track | Start | Length | Start sector | End sector
---------------------------------------------------------
1 | 0:00.33 | 4:39.27 | 33 | 20984
2 | 4:39.60 | 4:00.45 | 20985 | 39029
3 | 8:40.30 | 1:42.50 | 39030 | 46729
4 | 10:23.05 | 1:01.65 | 46730 | 51369
5 | 11:24.70 | 3:14.43 | 51370 | 65962
6 | 14:39.38 | 1:38.30 | 65963 | 73342
7 | 16:17.68 | 5:25.07 | 73343 | 97724
8 | 21:43.00 | 2:09.03 | 97725 | 107402
9 | 23:52.03 | 3:40.32 | 107403 | 123934
10 | 27:32.35 | 5:24.18 | 123935 | 148252
11 | 32:56.53 | 2:15.00 | 148253 | 158377
12 | 35:11.53 | 3:41.20 | 158378 | 174972
13 | 38:52.73 | 2:25.70 | 174973 | 185917
14 | 41:18.68 | 1:14.42 | 185918 | 191509
15 | 42:33.35 | 7:57.15 | 191510 | 227299
16 | 50:30.50 | 0:54.03 | 227300 | 231352
17 | 51:24.53 | 2:11.22 | 231353 | 241199
18 | 53:36.00 | 2:08.63 | 241200 | 250862
19 | 55:44.63 | 2:55.40 | 250863 | 264027
Range status and errors
Selected range
Filename G:\Ballet Masterpieces\Orchestra of the Royal Opera House, Covent Garden - Herold, Lanchbery La Fille Malgarde.wav
Peak level 96.7 %
Range quality 100.0 %
Copy CRC 249192CC
Copy OK
No errors occurred
End of status report

CD12

Exact Audio Copy V0.99 prebeta 4 from 23. January 2008
EAC extraction logfile from 13. January 2010, 15:59
Orchestra of the Royal Opera House, Covent Garden / Herold, Lanchbery: La Fille Malgarde Act 2, Mam'zell Angot (2/2)
Used drive : HL-DT-STDVDRAM GSA-4082B Adapter: 1 ID: 1
Read mode : Secure
Utilize accurate stream : Yes
Defeat audio cache : Yes
Make use of C2 pointers : No
Read offset correction : 667
Overread into Lead-In and Lead-Out : No
Fill up missing offset samples with silence : Yes
Delete leading and trailing silent blocks : No
Null samples used in CRC calculations : Yes
Used interface : Native Win32 interface for Win NT & 2000
Used output format : Internal WAV Routines
Sample format : 44.100 Hz; 16 Bit; Stereo
TOC of the extracted CD
Track | Start | Length | Start sector | End sector
---------------------------------------------------------
1 | 0:00.33 | 1:51.02 | 33 | 8359
2 | 1:51.35 | 1:50.45 | 8360 | 16654
3 | 3:42.05 | 1:36.48 | 16655 | 23902
4 | 5:18.53 | 5:19.00 | 23903 | 47827
5 | 10:37.53 | 4:27.62 | 47828 | 67914
6 | 15:05.40 | 4:16.40 | 67915 | 87154
7 | 19:22.05 | 2:25.00 | 87155 | 98029
8 | 21:47.05 | 6:16.40 | 98030 | 126269
9 | 28:03.45 | 3:45.43 | 126270 | 143187
10 | 31:49.13 | 4:31.22 | 143188 | 163534
11 | 36:20.35 | 2:17.53 | 163535 | 173862
12 | 38:38.13 | 2:59.62 | 173863 | 187349
13 | 41:38.00 | 1:11.03 | 187350 | 192677
14 | 42:49.03 | 1:13.47 | 192678 | 198199
15 | 44:02.50 | 3:02.00 | 198200 | 211849
16 | 47:04.50 | 1:46.53 | 211850 | 219852
17 | 48:51.28 | 2:24.00 | 219853 | 230652
18 | 51:15.28 | 1:27.25 | 230653 | 237202
19 | 52:42.53 | 2:06.32 | 237203 | 246684
20 | 54:49.10 | 1:59.63 | 246685 | 255672
21 | 56:48.73 | 4:32.20 | 255673 | 276092
22 | 61:21.18 | 1:57.00 | 276093 | 284867
23 | 63:18.18 | 3:25.37 | 284868 | 300279
24 | 66:43.55 | 9:03.38 | 300280 | 341042
Range status and errors
Selected range
Filename G:\Ballet Masterpieces\Orchestra of the Royal Opera House, Covent Garden - Herold, Lanchbery La Fille Malgarde Act 2, Mam'zell Angot.wav
Peak level 98.4 %
Range quality 100.0 %
Copy CRC FE41CDD7
Copy OK
No errors occurred
End of status report

CD13

Exact Audio Copy V0.99 prebeta 4 from 23. January 2008
EAC extraction logfile from 13. January 2010, 16:17
Khachaturian / Spartacus, Gayaneh, Masquerade Suites
Used drive : HL-DT-STDVDRAM GSA-4082B Adapter: 1 ID: 1
Read mode : Secure
Utilize accurate stream : Yes
Defeat audio cache : Yes
Make use of C2 pointers : No
Read offset correction : 667
Overread into Lead-In and Lead-Out : No
Fill up missing offset samples with silence : Yes
Delete leading and trailing silent blocks : No
Null samples used in CRC calculations : Yes
Used interface : Native Win32 interface for Win NT & 2000
Used output format : Internal WAV Routines
Sample format : 44.100 Hz; 16 Bit; Stereo
TOC of the extracted CD
Track | Start | Length | Start sector | End sector
---------------------------------------------------------
1 | 0:00.33 | 3:32.65 | 33 | 15997
2 | 3:33.23 | 9:53.60 | 15998 | 60532
3 | 13:27.08 | 8:20.47 | 60533 | 98079
4 | 21:47.55 | 4:05.13 | 98080 | 116467
5 | 25:52.68 | 4:22.20 | 116468 | 136137
6 | 30:15.13 | 2:35.45 | 136138 | 147807
7 | 32:50.58 | 3:34.30 | 147808 | 163887
8 | 36:25.13 | 2:50.12 | 163888 | 176649
9 | 39:15.25 | 2:33.15 | 176650 | 188139
10 | 41:48.40 | 6:03.33 | 188140 | 215397
11 | 47:51.73 | 2:03.00 | 215398 | 224622
12 | 49:54.73 | 5:11.12 | 224623 | 247959
13 | 55:06.10 | 2:56.38 | 247960 | 261197
Range status and errors
Selected range
Filename G:\Ballet Masterpieces\Khachaturian - Spartacus, Gayaneh, Masquerade Suites.wav
Peak level 100.0 %
Range quality 100.0 %
Copy CRC EB53741E
Copy OK
No errors occurred
End of status report

CD14

Exact Audio Copy V0.99 prebeta 4 from 23. January 2008
EAC extraction logfile from 13. January 2010, 16:30
Orchestra of the Royal Opera House, Covent Garden / Richard Bonynge (CD 1/2) / Manon
Used drive : HL-DT-STDVDRAM GSA-4082B Adapter: 1 ID: 1
Read mode : Secure
Utilize accurate stream : Yes
Defeat audio cache : Yes
Make use of C2 pointers : No
Read offset correction : 667
Overread into Lead-In and Lead-Out : No
Fill up missing offset samples with silence : Yes
Delete leading and trailing silent blocks : No
Null samples used in CRC calculations : Yes
Used interface : Native Win32 interface for Win NT & 2000
Used output format : Internal WAV Routines
Sample format : 44.100 Hz; 16 Bit; Stereo
TOC of the extracted CD
Track | Start | Length | Start sector | End sector
---------------------------------------------------------
1 | 0:00.00 | 27:13.00 | 0 | 122474
2 | 27:13.00 | 13:08.00 | 122475 | 181574
3 | 40:21.00 | 15:53.00 | 181575 | 253049
Range status and errors
Selected range
Filename G:\Ballet Masterpieces\Orchestra of the Royal Opera House, Covent Garden - Richard Bonynge (CD 1 2) Manon.wav
Peak level 99.1 %
Range quality 100.0 %
Copy CRC 5575579E
Copy OK
No errors occurred
End of status report

CD15

Exact Audio Copy V0.99 prebeta 4 from 23. January 2008
EAC extraction logfile from 13. January 2010, 16:44
Orchestra of the Royal Opera House, Covent Garden / Richard Bonynge / Manon (CD2/2)
Used drive : HL-DT-STDVDRAM GSA-4082B Adapter: 1 ID: 1
Read mode : Secure
Utilize accurate stream : Yes
Defeat audio cache : Yes
Make use of C2 pointers : No
Read offset correction : 667
Overread into Lead-In and Lead-Out : No
Fill up missing offset samples with silence : Yes
Delete leading and trailing silent blocks : No
Null samples used in CRC calculations : Yes
Used interface : Native Win32 interface for Win NT & 2000
Used output format : Internal WAV Routines
Sample format : 44.100 Hz; 16 Bit; Stereo
TOC of the extracted CD
Track | Start | Length | Start sector | End sector
---------------------------------------------------------
1 | 0:00.00 | 19:04.60 | 0 | 85859
2 | 19:04.60 | 8:08.00 | 85860 | 122459
3 | 27:12.60 | 10:18.01 | 122460 | 168810
4 | 37:30.61 | 4:07.73 | 168811 | 187408
5 | 41:38.59 | 9:57.16 | 187409 | 232199
Range status and errors
Selected range
Filename G:\Ballet Masterpieces\Orchestra of the Royal Opera House, Covent Garden - Richard Bonynge Manon (CD2 2).wav
Peak level 99.5 %
Range quality 100.0 %
Copy CRC 3239BE50
Copy OK
No errors occurred
End of status report

CD16

Exact Audio Copy V0.99 prebeta 4 from 23. January 2008
EAC extraction logfile from 13. January 2010, 17:04
Charles Dutoit - Montreal Symphony Orchestra / Offenbach - Gaite Parisienne, Gounod - Faust
Used drive : HL-DT-STDVDRAM GSA-4082B Adapter: 1 ID: 1
Read mode : Secure
Utilize accurate stream : Yes
Defeat audio cache : Yes
Make use of C2 pointers : No
Read offset correction : 667
Overread into Lead-In and Lead-Out : No
Fill up missing offset samples with silence : Yes
Delete leading and trailing silent blocks : No
Null samples used in CRC calculations : Yes
Used interface : Native Win32 interface for Win NT & 2000
Used output format : Internal WAV Routines
Sample format : 44.100 Hz; 16 Bit; Stereo
TOC of the extracted CD
Track | Start | Length | Start sector | End sector
---------------------------------------------------------
1 | 0:00.33 | 2:13.25 | 33 | 10032
2 | 2:13.58 | 1:05.70 | 10033 | 14977
3 | 3:19.53 | 3:49.42 | 14978 | 32194
4 | 7:09.20 | 5:07.33 | 32195 | 55252
5 | 12:16.53 | 2:52.37 | 55253 | 68189
6 | 15:09.15 | 4:52.60 | 68190 | 90149
7 | 20:02.00 | 6:54.35 | 90150 | 121234
8 | 26:56.35 | 3:20.10 | 121235 | 136244
9 | 30:16.45 | 3:38.65 | 136245 | 152659
10 | 33:55.35 | 3:06.55 | 152660 | 166664
11 | 37:02.15 | 1:07.20 | 166665 | 171709
12 | 38:09.35 | 3:53.03 | 171710 | 189187
13 | 42:02.38 | 17:00.33 | 189188 | 265720
Range status and errors
Selected range
Filename G:\Ballet Masterpieces\Charles Dutoit - Montreal Symphony Orchestra - Offenbach - Gaite Parisienne, Gounod - Faust.wav
Peak level 97.0 %
Range quality 100.0 %
Copy CRC DE1FA006
Copy OK
No errors occurred
End of status report

CD17

Exact Audio Copy V0.99 prebeta 4 from 23. January 2008
EAC extraction logfile from 13. January 2010, 17:30
Prokofiev / Glazunov / Cinderella / The Seasons (Disc 1)
Used drive : HL-DT-STDVDRAM GSA-4082B Adapter: 1 ID: 1
Read mode : Secure
Utilize accurate stream : Yes
Defeat audio cache : Yes
Make use of C2 pointers : No
Read offset correction : 667
Overread into Lead-In and Lead-Out : No
Fill up missing offset samples with silence : Yes
Delete leading and trailing silent blocks : No
Null samples used in CRC calculations : Yes
Used interface : Native Win32 interface for Win NT & 2000
Used output format : Internal WAV Routines
Sample format : 44.100 Hz; 16 Bit; Stereo
TOC of the extracted CD
Track | Start | Length | Start sector | End sector
---------------------------------------------------------
1 | 0:00.00 | 2:37.32 | 0 | 11806
2 | 2:37.32 | 3:23.45 | 11807 | 27076
3 | 6:01.02 | 3:07.41 | 27077 | 41142
4 | 9:08.43 | 2:33.28 | 41143 | 52645
5 | 11:41.71 | 2:14.48 | 52646 | 62743
6 | 13:56.44 | 1:08.08 | 62744 | 67851
7 | 15:04.52 | 3:52.47 | 67852 | 85298
8 | 18:57.24 | 1:22.35 | 85299 | 91483
9 | 20:19.59 | 2:15.73 | 91484 | 101681
10 | 22:35.57 | 2:14.34 | 101682 | 111765
11 | 24:50.16 | 1:28.41 | 111766 | 118406
12 | 26:18.57 | 1:15.63 | 118407 | 124094
13 | 27:34.45 | 1:35.15 | 124095 | 131234
14 | 29:09.60 | 0:46.58 | 131235 | 134742
15 | 29:56.43 | 1:27.57 | 134743 | 141324
16 | 31:24.25 | 1:13.19 | 141325 | 146818
17 | 32:37.44 | 0:48.28 | 146819 | 150446
18 | 33:25.72 | 1:14.41 | 150447 | 156037
19 | 34:40.38 | 2:05.37 | 156038 | 165449
20 | 36:46.00 | 2:28.49 | 165450 | 176598
21 | 39:14.49 | 1:42.40 | 176599 | 184288
22 | 40:57.14 | 1:30.57 | 184289 | 191095
23 | 42:27.71 | 0:50.10 | 191096 | 194855
24 | 43:18.06 | 1:36.17 | 194856 | 202072
25 | 44:54.23 | 0:48.57 | 202073 | 205729
26 | 45:43.05 | 3:11.56 | 205730 | 220110
27 | 48:54.61 | 0:57.19 | 220111 | 224404
28 | 49:52.05 | 2:37.09 | 224405 | 236188
29 | 52:29.14 | 2:56.45 | 236189 | 249433
30 | 55:25.59 | 5:19.09 | 249434 | 273367
31 | 60:44.68 | 1:35.72 | 273368 | 280564
32 | 62:20.65 | 1:28.28 | 280565 | 287192
33 | 63:49.18 | 1:03.17 | 287193 | 291934
34 | 64:52.35 | 1:17.18 | 291935 | 297727
35 | 66:09.53 | 1:29.32 | 297728 | 304434
36 | 67:39.10 | 4:40.45 | 304435 | 325479
37 | 72:19.55 | 1:35.38 | 325480 | 332642
38 | 73:55.18 | 2:14.57 | 332643 | 342749
Range status and errors
Selected range
Filename G:\Ballet Masterpieces\Prokofiev - Glazunov Cinderella The Seasons (Disc 1).wav
Peak level 99.7 %
Range quality 100.0 %
Copy CRC A3255317
Copy OK
No errors occurred
End of status report

CD18

Exact Audio Copy V0.99 prebeta 4 from 23. January 2008
EAC extraction logfile from 13. January 2010, 17:47
Prokofiev-Glazunov / Cinderella, The Seasons (Ashkenazy, Cleveland)
Used drive : HL-DT-STDVDRAM GSA-4082B Adapter: 1 ID: 1
Read mode : Secure
Utilize accurate stream : Yes
Defeat audio cache : Yes
Make use of C2 pointers : No
Read offset correction : 667
Overread into Lead-In and Lead-Out : No
Fill up missing offset samples with silence : Yes
Delete leading and trailing silent blocks : No
Null samples used in CRC calculations : Yes
Used interface : Native Win32 interface for Win NT & 2000
Used output format : Internal WAV Routines
Sample format : 44.100 Hz; 16 Bit; Stereo
TOC of the extracted CD
Track | Start | Length | Start sector | End sector
---------------------------------------------------------
1 | 0:00.00 | 1:50.69 | 0 | 8318
2 | 1:50.69 | 1:32.35 | 8319 | 15253
3 | 3:23.29 | 3:21.25 | 15254 | 30353
4 | 6:44.54 | 0:55.18 | 30354 | 34496
5 | 7:39.72 | 2:17.66 | 34497 | 44837
6 | 9:57.63 | 1:21.33 | 44838 | 50945
7 | 11:19.21 | 4:28.56 | 50946 | 71101
8 | 15:48.02 | 2:22.42 | 71102 | 81793
9 | 18:10.44 | 3:40.15 | 81794 | 98308
10 | 21:50.59 | 2:40.11 | 98309 | 110319
11 | 24:30.70 | 5:18.72 | 110320 | 134241
12 | 29:49.67 | 3:36.59 | 134242 | 150500
13 | 33:26.51 | 9:51.17 | 150501 | 194842
14 | 43:17.68 | 5:22.39 | 194843 | 219031
15 | 48:40.32 | 12:31.24 | 219032 | 275380
16 | 61:11.56 | 12:08.24 | 275381 | 330004
Range status and errors
Selected range
Filename G:\Ballet Masterpieces\Prokofiev-Glazunov - Cinderella, The Seasons (Ashkenazy, Cleveland).wav
Peak level 99.9 %
Range quality 100.0 %
Copy CRC AE3CA62E
Copy OK
No errors occurred
End of status report

CD19

Exact Audio Copy V0.99 prebeta 4 from 23. January 2008
EAC extraction logfile from 13. January 2010, 19:30
Cleveland O · Lorin Maazel / Prokofiev: Romeo and Juliet [disc 1]
Used drive : HL-DT-STDVDRAM GSA-4082B Adapter: 1 ID: 1
Read mode : Secure
Utilize accurate stream : Yes
Defeat audio cache : Yes
Make use of C2 pointers : No
Read offset correction : 667
Overread into Lead-In and Lead-Out : No
Fill up missing offset samples with silence : Yes
Delete leading and trailing silent blocks : No
Null samples used in CRC calculations : Yes
Used interface : Native Win32 interface for Win NT & 2000
Used output format : Internal WAV Routines
Sample format : 44.100 Hz; 16 Bit; Stereo
TOC of the extracted CD
Track | Start | Length | Start sector | End sector
---------------------------------------------------------
1 | 0:00.32 | 2:38.60 | 32 | 11941
2 | 2:39.17 | 1:23.08 | 11942 | 18174
3 | 4:02.25 | 3:21.35 | 18175 | 33284
4 | 7:23.60 | 1:33.42 | 33285 | 40301
5 | 8:57.27 | 2:32.43 | 40302 | 51744
6 | 11:29.70 | 3:30.55 | 51745 | 67549
7 | 15:00.50 | 1:37.27 | 67550 | 74851
8 | 16:38.02 | 3:19.00 | 74852 | 89776
9 | 19:57.02 | 4:06.23 | 89777 | 108249
10 | 24:03.25 | 2:34.30 | 108250 | 119829
11 | 26:37.55 | 5:07.62 | 119830 | 142916
12 | 31:45.42 | 2:38.73 | 142917 | 154839
13 | 34:24.40 | 2:07.52 | 154840 | 164416
14 | 36:32.17 | 3:30.60 | 164417 | 180226
15 | 40:03.02 | 2:02.05 | 180227 | 189381
16 | 42:05.07 | 3:47.23 | 189382 | 206429
17 | 45:52.30 | 11:11.57 | 206430 | 256811
18 | 57:04.12 | 3:34.13 | 256812 | 272874
19 | 60:38.25 | 2:17.00 | 272875 | 283149
20 | 62:55.25 | 3:36.10 | 283150 | 299359
21 | 66:31.35 | 2:11.72 | 299360 | 309256
22 | 68:43.32 | 3:05.33 | 309257 | 323164
Range status and errors
Selected range
Filename G:\Ballet Masterpieces\Cleveland O · Lorin Maazel - Prokofiev Romeo and Juliet [disc 1].wav
Peak level 97.3 %
Range quality 99.9 %
Copy CRC 3C467BA8
Copy OK
No errors occurred
End of status report

CD20

Exact Audio Copy V0.99 prebeta 4 from 23. January 2008
EAC extraction logfile from 14. January 2010, 9:32
Cleveland O · Lorin Maazel / Prokofiev: Romeo and Juliet [disc 2]
Used drive : HL-DT-STDVDRAM GSA-4082B Adapter: 1 ID: 1
Read mode : Secure
Utilize accurate stream : Yes
Defeat audio cache : Yes
Make use of C2 pointers : No
Read offset correction : 667
Overread into Lead-In and Lead-Out : No
Fill up missing offset samples with silence : Yes
Delete leading and trailing silent blocks : No
Null samples used in CRC calculations : Yes
Used interface : Native Win32 interface for Win NT & 2000
Used output format : Internal WAV Routines
Sample format : 44.100 Hz; 16 Bit; Stereo
TOC of the extracted CD
Track | Start | Length | Start sector | End sector
---------------------------------------------------------
1 | 0:00.32 | 3:25.70 | 32 | 15476
2 | 3:26.27 | 3:24.63 | 15477 | 30839
3 | 6:51.15 | 5:35.20 | 30840 | 55984
4 | 12:26.35 | 5:38.22 | 55985 | 81356
5 | 18:04.57 | 3:59.28 | 81357 | 99309
6 | 22:04.10 | 2:32.57 | 99310 | 110766
7 | 24:36.67 | 5:28.70 | 110767 | 135436
8 | 30:05.62 | 1:59.35 | 135437 | 144396
9 | 32:05.22 | 2:23.15 | 144397 | 155136
10 | 34:28.37 | 2:35.08 | 155137 | 166769
11 | 37:03.45 | 6:24.37 | 166770 | 195606
12 | 43:28.07 | 2:51.50 | 195607 | 208481
13 | 46:19.57 | 4:04.60 | 208482 | 226841
14 | 50:24.42 | 2:16.33 | 226842 | 237074
15 | 52:41.00 | 2:09.22 | 237075 | 246771
16 | 54:50.22 | 2:19.58 | 246772 | 257254
17 | 57:10.05 | 11:43.25 | 257255 | 310004
Range status and errors
Selected range
Filename G:\Ballet Masterpieces\Cleveland O · Lorin Maazel - Prokofiev Romeo and Juliet [disc 2].wav
Peak level 99.6 %
Range quality 100.0 %
Copy CRC 5309B20E
Copy OK
No errors occurred
End of status report

CD21

Exact Audio Copy V0.99 prebeta 4 from 23. January 2008
EAC extraction logfile from 14. January 2010, 10:00
Ernest Ansermet - Suisse Romande / Ansermet-Edition 07 - Ravel
Used drive : HL-DT-STDVDRAM GSA-4082B Adapter: 1 ID: 1
Read mode : Secure
Utilize accurate stream : Yes
Defeat audio cache : Yes
Make use of C2 pointers : No
Read offset correction : 667
Overread into Lead-In and Lead-Out : No
Fill up missing offset samples with silence : Yes
Delete leading and trailing silent blocks : No
Null samples used in CRC calculations : Yes
Used interface : Native Win32 interface for Win NT & 2000
Used output format : Internal WAV Routines
Sample format : 44.100 Hz; 16 Bit; Stereo
TOC of the extracted CD
Track | Start | Length | Start sector | End sector
---------------------------------------------------------
1 | 0:00.33 | 7:31.47 | 33 | 33904
2 | 7:32.05 | 3:02.55 | 33905 | 47609
3 | 10:34.60 | 2:23.65 | 47610 | 58399
4 | 12:58.50 | 2:17.60 | 58400 | 68734
5 | 15:16.35 | 4:19.25 | 68735 | 88184
6 | 19:35.60 | 5:15.68 | 88185 | 111877
7 | 24:51.53 | 2:58.65 | 111878 | 125292
8 | 27:50.43 | 4:00.47 | 125293 | 143339
9 | 31:51.15 | 5:45.10 | 143340 | 169224
10 | 37:36.25 | 7:13.35 | 169225 | 201734
11 | 44:49.60 | 5:21.15 | 201735 | 225824
12 | 50:11.00 | 5:03.00 | 225825 | 248549
13 | 55:14.00 | 7:04.55 | 248550 | 280404
14 | 62:18.55 | 13:09.60 | 280405 | 339639
Range status and errors
Selected range
Filename G:\Ballet Masterpieces\Ernest Ansermet - Suisse Romande - Ansermet-Edition 07 - Ravel.wav
Peak level 99.0 %
Range quality 100.0 %
Copy CRC 2292B99F
Copy OK
No errors occurred
End of status report

CD22

Exact Audio Copy V0.99 prebeta 4 from 23. January 2008
EAC extraction logfile from 14. January 2010, 10:36
Johann StrauЯ / Aschenbrцdel (CD 1)
Used drive : HL-DT-STDVDRAM GSA-4082B Adapter: 1 ID: 1
Read mode : Secure
Utilize accurate stream : Yes
Defeat audio cache : Yes
Make use of C2 pointers : No
Read offset correction : 667
Overread into Lead-In and Lead-Out : No
Fill up missing offset samples with silence : Yes
Delete leading and trailing silent blocks : No
Null samples used in CRC calculations : Yes
Used interface : Native Win32 interface for Win NT & 2000
Used output format : Internal WAV Routines
Sample format : 44.100 Hz; 16 Bit; Stereo
TOC of the extracted CD
Track | Start | Length | Start sector | End sector
---------------------------------------------------------
1 | 0:00.00 | 6:51.50 | 0 | 30874
2 | 6:51.50 | 4:07.25 | 30875 | 49424
3 | 10:59.00 | 3:29.43 | 49425 | 65142
4 | 14:28.43 | 3:21.30 | 65143 | 80247
5 | 17:49.73 | 2:30.12 | 80248 | 91509
6 | 20:20.10 | 2:44.08 | 91510 | 103817
7 | 23:04.18 | 4:20.07 | 103818 | 123324
8 | 27:24.25 | 1:54.45 | 123325 | 131919
9 | 29:18.70 | 6:07.33 | 131920 | 159477
10 | 35:26.28 | 3:27.30 | 159478 | 175032
11 | 38:53.58 | 3:50.50 | 175033 | 192332
12 | 42:44.33 | 9:32.20 | 192333 | 235252
13 | 52:16.53 | 4:57.72 | 235253 | 257599
14 | 57:14.50 | 2:54.15 | 257600 | 270664
15 | 60:08.65 | 1:01.38 | 270665 | 275277
16 | 61:10.28 | 2:37.05 | 275278 | 287057
17 | 63:47.33 | 3:07.35 | 287058 | 301117
18 | 66:54.68 | 3:31.55 | 301118 | 316997
Range status and errors
Selected range
Filename G:\Ballet MasterpiecesD:\EAC\Johann StrauЯ - Aschenbrцdel (CD 1).wav
Peak level 92.3 %
Range quality 100.0 %
Copy CRC 8C480AD5
Copy OK
No errors occurred
End of status report

CD23

Exact Audio Copy V0.99 prebeta 4 from 23. January 2008
EAC extraction logfile from 14. January 2010, 11:40
Johann StrauЯ / Aschenbrцdel (CD 2)
Used drive : HL-DT-STDVDRAM GSA-4082B Adapter: 1 ID: 1
Read mode : Secure
Utilize accurate stream : Yes
Defeat audio cache : Yes
Make use of C2 pointers : No
Read offset correction : 667
Overread into Lead-In and Lead-Out : No
Fill up missing offset samples with silence : Yes
Delete leading and trailing silent blocks : No
Null samples used in CRC calculations : Yes
Used interface : Native Win32 interface for Win NT & 2000
Used output format : Internal WAV Routines
Sample format : 44.100 Hz; 16 Bit; Stereo
TOC of the extracted CD
Track | Start | Length | Start sector | End sector
---------------------------------------------------------
1 | 0:00.00 | 2:01.23 | 0 | 9097
2 | 2:01.23 | 1:25.30 | 9098 | 15502
3 | 3:26.53 | 2:02.14 | 15503 | 24666
4 | 5:28.67 | 3:35.23 | 24667 | 40814
5 | 9:04.15 | 1:41.09 | 40815 | 48398
6 | 10:45.24 | 2:22.73 | 48399 | 59121
7 | 13:08.22 | 2:33.48 | 59122 | 70644
8 | 15:41.70 | 3:33.28 | 70645 | 86647
9 | 19:15.23 | 4:25.55 | 86648 | 106577
10 | 23:41.03 | 9:13.07 | 106578 | 148059
11 | 32:54.10 | 4:17.05 | 148060 | 167339
12 | 37:11.15 | 10:13.10 | 167340 | 213324
13 | 47:24.25 | 5:50.36 | 213325 | 239610
14 | 53:14.61 | 5:58.00 | 239611 | 266460
15 | 59:12.61 | 8:07.59 | 266461 | 303044
Range status and errors
Selected range
Filename G:\Ballet Masterpieces\Johann StrauЯ - Aschenbrцdel (CD 2).wav
Peak level 93.1 %
Range quality 100.0 %
Copy CRC B9DEE053
Copy OK
No errors occurred
End of status report

CD24

Exact Audio Copy V0.99 prebeta 4 from 23. January 2008
EAC extraction logfile from 14. January 2010, 12:25
Igor Stravinsky / L'oiseau de feu
Used drive : HL-DT-STDVDRAM GSA-4082B Adapter: 1 ID: 1
Read mode : Secure
Utilize accurate stream : Yes
Defeat audio cache : Yes
Make use of C2 pointers : No
Read offset correction : 667
Overread into Lead-In and Lead-Out : No
Fill up missing offset samples with silence : Yes
Delete leading and trailing silent blocks : No
Null samples used in CRC calculations : Yes
Used interface : Native Win32 interface for Win NT & 2000
Used output format : Internal WAV Routines
Sample format : 44.100 Hz; 16 Bit; Stereo
TOC of the extracted CD
Track | Start | Length | Start sector | End sector
---------------------------------------------------------
1 | 0:00.00 | 2:41.68 | 0 | 12142
2 | 2:41.68 | 1:42.00 | 12143 | 19792
3 | 4:23.68 | 2:10.27 | 19793 | 29569
4 | 6:34.20 | 1:33.60 | 29570 | 36604
5 | 8:08.05 | 1:02.25 | 36605 | 41279
6 | 9:10.30 | 7:19.68 | 41280 | 74272
7 | 16:30.23 | 2:29.55 | 74273 | 85502
8 | 19:00.03 | 1:12.32 | 85503 | 90934
9 | 20:12.35 | 3:48.20 | 90935 | 108054
10 | 24:00.55 | 1:19.33 | 108055 | 114012
11 | 25:20.13 | 5:04.05 | 114013 | 136817
12 | 30:24.18 | 0:51.35 | 136818 | 140677
13 | 31:15.53 | 4:58.32 | 140678 | 163059
14 | 36:14.10 | 4:35.58 | 163060 | 183742
15 | 40:49.68 | 2:46.25 | 183743 | 196217
Range status and errors
Selected range
Filename G:\Ballet Masterpieces\Igor Stravinsky - L'oiseau de feu.wav
Peak level 99.0 %
Range quality 100.0 %
Copy CRC DA113694
Copy OK
No errors occurred
End of status report

CD25

Exact Audio Copy V0.99 prebeta 4 from 23. January 2008
EAC extraction logfile from 14. January 2010, 13:41
Igor Stravinsky / Petrushka - Le Sacre du Printems (Detroit Symphony Orchestra, Antal Dorati)
Used drive : HL-DT-STDVDRAM GSA-4082B Adapter: 1 ID: 1
Read mode : Secure
Utilize accurate stream : Yes
Defeat audio cache : Yes
Make use of C2 pointers : No
Read offset correction : 667
Overread into Lead-In and Lead-Out : No
Fill up missing offset samples with silence : Yes
Delete leading and trailing silent blocks : No
Null samples used in CRC calculations : Yes
Used interface : Native Win32 interface for Win NT & 2000
Used output format : Internal WAV Routines
Sample format : 44.100 Hz; 16 Bit; Stereo
TOC of the extracted CD
Track | Start | Length | Start sector | End sector
---------------------------------------------------------
1 | 0:00.33 | 9:47.20 | 33 | 44077
2 | 9:47.53 | 4:27.67 | 44078 | 64169
3 | 14:15.45 | 6:45.45 | 64170 | 94589
4 | 21:01.15 | 13:24.48 | 94590 | 154937
5 | 34:25.63 | 15:54.45 | 154938 | 226532
6 | 50:20.33 | 17:47.10 | 226533 | 306567
Range status and errors
Selected range
Filename G:\Ballet Masterpieces\Igor Stravinsky - Petrushka - Le Sacre du Printems (Detroit Symphony Orchestra, Antal Dorati).wav
Peak level 100.0 %
Range quality 100.0 %
Copy CRC 6DC9D583
Copy OK
No errors occurred
End of status report

CD26

Exact Audio Copy V0.99 prebeta 4 from 23. January 2008
EAC extraction logfile from 14. January 2010, 14:55
Peter Ilyich Tchaikovsky / The Sleeping Beauty (Disc 1)
Used drive : HL-DT-STDVDRAM GSA-4082B Adapter: 1 ID: 1
Read mode : Secure
Utilize accurate stream : Yes
Defeat audio cache : Yes
Make use of C2 pointers : No
Read offset correction : 667
Overread into Lead-In and Lead-Out : No
Fill up missing offset samples with silence : Yes
Delete leading and trailing silent blocks : No
Null samples used in CRC calculations : Yes
Used interface : Native Win32 interface for Win NT & 2000
Used output format : Internal WAV Routines
Sample format : 44.100 Hz; 16 Bit; Stereo
TOC of the extracted CD
Track | Start | Length | Start sector | End sector
---------------------------------------------------------
1 | 0:00.33 | 3:23.07 | 33 | 15264
2 | 3:23.40 | 5:12.05 | 15265 | 38669
3 | 8:35.45 | 4:50.25 | 38670 | 60444
4 | 13:25.70 | 4:22.28 | 60445 | 80122
5 | 17:48.23 | 1:04.32 | 80123 | 84954
6 | 18:52.55 | 0:35.35 | 84955 | 87614
7 | 19:28.15 | 1:13.33 | 87615 | 93122
8 | 20:41.48 | 0:38.72 | 93123 | 96044
9 | 21:20.45 | 1:07.68 | 96045 | 101137
10 | 22:28.38 | 1:01.25 | 101138 | 105737
11 | 23:29.63 | 1:44.02 | 105738 | 113539
12 | 25:13.65 | 10:03.63 | 113540 | 158827
13 | 35:17.53 | 7:24.22 | 158828 | 192149
14 | 42:42.00 | 4:52.03 | 192150 | 214052
15 | 47:34.03 | 2:11.55 | 214053 | 223932
16 | 49:45.58 | 6:32.60 | 223933 | 253392
17 | 56:18.43 | 2:10.02 | 253393 | 263144
18 | 58:28.45 | 3:56.43 | 263145 | 280887
19 | 62:25.13 | 2:35.47 | 280888 | 292559
20 | 65:00.60 | 8:36.53 | 292560 | 331312
Range status and errors
Selected range
Filename G:\Ballet Masterpieces\Peter Ilyich Tchaikovsky - The Sleeping Beauty (Disc 1).wav
Peak level 99.2 %
Range quality 100.0 %
Copy CRC DA8579BF
Copy OK
No errors occurred
End of status report

CD27

Exact Audio Copy V0.99 prebeta 4 from 23. January 2008
EAC extraction logfile from 14. January 2010, 15:15
Peter Ilyich Tchaikovsky / The Sleeping Beauty (Disc 2)
Used drive : HL-DT-STDVDRAM GSA-4082B Adapter: 1 ID: 1
Read mode : Secure
Utilize accurate stream : Yes
Defeat audio cache : Yes
Make use of C2 pointers : No
Read offset correction : 667
Overread into Lead-In and Lead-Out : No
Fill up missing offset samples with silence : Yes
Delete leading and trailing silent blocks : No
Null samples used in CRC calculations : Yes
Used interface : Native Win32 interface for Win NT & 2000
Used output format : Internal WAV Routines
Sample format : 44.100 Hz; 16 Bit; Stereo
TOC of the extracted CD
Track | Start | Length | Start sector | End sector
---------------------------------------------------------
1 | 0:00.33 | 2:59.07 | 33 | 13464
2 | 2:59.40 | 1:47.28 | 13465 | 21517
3 | 4:46.68 | 4:13.62 | 21518 | 40554
4 | 9:00.55 | 1:37.45 | 40555 | 47874
5 | 10:38.25 | 5:48.45 | 47875 | 74019
6 | 16:26.70 | 5:28.23 | 74020 | 98642
7 | 21:55.18 | 1:19.52 | 98643 | 104619
8 | 23:14.70 | 1:34.05 | 104620 | 111674
9 | 24:49.00 | 0:48.40 | 111675 | 115314
10 | 25:37.40 | 3:13.50 | 115315 | 129839
11 | 28:51.15 | 5:55.58 | 129840 | 156522
12 | 34:46.73 | 8:58.02 | 156523 | 196874
13 | 43:45.00 | 2:49.53 | 196875 | 209602
14 | 46:34.53 | 3:43.20 | 209603 | 226347
15 | 50:17.73 | 4:57.47 | 226348 | 248669
16 | 55:15.45 | 2:11.65 | 248670 | 258559
17 | 57:27.35 | 1:06.08 | 258560 | 263517
18 | 58:33.43 | 0:54.67 | 263518 | 267634
19 | 59:28.35 | 0:47.30 | 267635 | 271189
20 | 60:15.65 | 0:48.18 | 271190 | 274807
21 | 61:04.08 | 0:48.47 | 274808 | 278454
22 | 61:52.55 | 2:07.28 | 278455 | 288007
23 | 64:00.08 | 2:19.32 | 288008 | 298464
24 | 66:19.40 | 0:57.28 | 298465 | 302767
25 | 67:16.68 | 0:52.12 | 302768 | 306679
26 | 68:09.05 | 1:38.73 | 306680 | 314102
Range status and errors
Selected range
Filename G:\Ballet Masterpieces\Peter Ilyich Tchaikovsky - The Sleeping Beauty (Disc 2).wav
Peak level 97.5 %
Range quality 100.0 %
Copy CRC 851E9166
Copy OK
No errors occurred
End of status report

CD28

Exact Audio Copy V0.99 prebeta 4 from 23. January 2008
EAC extraction logfile from 14. January 2010, 15:30
Peter Ilyich Tchaikovsky / The Sleeping Beauty (Disc 3)
Used drive : HL-DT-STDVDRAM GSA-4082B Adapter: 1 ID: 1
Read mode : Secure
Utilize accurate stream : Yes
Defeat audio cache : Yes
Make use of C2 pointers : No
Read offset correction : 667
Overread into Lead-In and Lead-Out : No
Fill up missing offset samples with silence : Yes
Delete leading and trailing silent blocks : No
Null samples used in CRC calculations : Yes
Used interface : Native Win32 interface for Win NT & 2000
Used output format : Internal WAV Routines
Sample format : 44.100 Hz; 16 Bit; Stereo
TOC of the extracted CD
Track | Start | Length | Start sector | End sector
---------------------------------------------------------
1 | 0:00.33 | 1:31.02 | 33 | 6859
2 | 1:31.35 | 2:54.35 | 6860 | 19944
3 | 4:25.70 | 1:26.18 | 19945 | 26412
4 | 5:52.13 | 1:58.17 | 26413 | 35279
5 | 7:50.30 | 5:11.40 | 35280 | 58644
6 | 13:01.70 | 1:07.68 | 58645 | 63737
7 | 14:09.63 | 2:09.25 | 63738 | 73437
8 | 16:19.13 | 1:21.62 | 73438 | 79574
9 | 17:41.00 | 2:32.00 | 79575 | 90974
10 | 20:13.00 | 5:46.25 | 90975 | 116949
11 | 25:59.25 | 3:43.60 | 116950 | 133734
12 | 29:43.10 | 3:09.00 | 133735 | 147909
13 | 32:52.10 | 3:56.50 | 147910 | 165659
14 | 36:48.60 | 3:25.63 | 165660 | 181097
15 | 40:14.48 | 4:14.22 | 181098 | 200169
16 | 44:28.70 | 1:49.23 | 200170 | 208367
17 | 46:18.18 | 2:33.42 | 208368 | 219884
18 | 48:51.60 | 3:59.33 | 219885 | 237842
Range status and errors
Selected range
Filename G:\Ballet Masterpieces\Peter Ilyich Tchaikovsky - The Sleeping Beauty (Disc 3).wav
Peak level 99.5 %
Range quality 99.9 %
Copy CRC 526DB11D
Copy OK
No errors occurred
End of status report

CD29

Exact Audio Copy V0.99 prebeta 4 from 23. January 2008
EAC extraction logfile from 14. January 2010, 15:47
Orchestre Symphonique De Montreal, Charles Dutoit / Pytor Ilyich Tchaikovsky: Swan Lake (Disc 1)
Used drive : HL-DT-STDVDRAM GSA-4082B Adapter: 1 ID: 1
Read mode : Secure
Utilize accurate stream : Yes
Defeat audio cache : Yes
Make use of C2 pointers : No
Read offset correction : 667
Overread into Lead-In and Lead-Out : No
Fill up missing offset samples with silence : Yes
Delete leading and trailing silent blocks : No
Null samples used in CRC calculations : Yes
Used interface : Native Win32 interface for Win NT & 2000
Used output format : Internal WAV Routines
Sample format : 44.100 Hz; 16 Bit; Stereo
TOC of the extracted CD
Track | Start | Length | Start sector | End sector
---------------------------------------------------------
1 | 0:00.32 | 5:44.38 | 32 | 25869
2 | 5:44.70 | 7:29.50 | 25870 | 59594
3 | 13:14.45 | 4:14.12 | 59595 | 78656
4 | 17:28.57 | 11:06.13 | 78657 | 128619
5 | 28:34.70 | 10:45.25 | 128620 | 177019
6 | 39:20.20 | 3:08.37 | 177020 | 191156
7 | 42:28.57 | 0:45.50 | 191157 | 194581
8 | 43:14.32 | 5:26.38 | 194582 | 219069
9 | 48:40.70 | 2:56.62 | 219070 | 232331
10 | 51:37.57 | 2:56.13 | 232332 | 245544
11 | 54:33.70 | 5:24.25 | 245545 | 269869
12 | 59:58.20 | 3:22.50 | 269870 | 285069
13 | 63:20.70 | 14:39.12 | 285070 | 351006
Range status and errors
Selected range
Filename G:\Ballet Masterpieces\Orchestre Symphonique De Montreal, Charles Dutoit - Pytor Ilyich Tchaikovsky Swan Lake (Disc 1).wav
Peak level 98.6 %
Range quality 99.9 %
Copy CRC 5E0131A6
Copy OK
No errors occurred
End of status report

CD30

Exact Audio Copy V0.99 prebeta 4 from 23. January 2008
EAC extraction logfile from 14. January 2010, 16:06
Orchestre Symphonique De Montreal, Charles Dutoit / Pytor Ilyich Tchaikovsky: Swan Lake (Disc 2)
Used drive : HL-DT-STDVDRAM GSA-4082B Adapter: 1 ID: 1
Read mode : Secure
Utilize accurate stream : Yes
Defeat audio cache : Yes
Make use of C2 pointers : No
Read offset correction : 667
Overread into Lead-In and Lead-Out : No
Fill up missing offset samples with silence : Yes
Delete leading and trailing silent blocks : No
Null samples used in CRC calculations : Yes
Used interface : Native Win32 interface for Win NT & 2000
Used output format : Internal WAV Routines
Sample format : 44.100 Hz; 16 Bit; Stereo
TOC of the extracted CD
Track | Start | Length | Start sector | End sector
---------------------------------------------------------
1 | 0:00.33 | 2:31.25 | 33 | 11382
2 | 2:31.58 | 2:32.12 | 11383 | 22794
3 | 5:03.70 | 8:12.63 | 22795 | 59757
4 | 13:16.58 | 1:39.00 | 59758 | 67182
5 | 14:55.58 | 13:08.50 | 67183 | 126332
6 | 28:04.33 | 8:17.25 | 126333 | 163632
7 | 36:21.58 | 2:57.37 | 163633 | 176944
8 | 39:19.20 | 4:33.25 | 176945 | 197444
9 | 43:52.45 | 2:49.00 | 197445 | 210119
10 | 46:41.45 | 2:10.50 | 210120 | 219919
11 | 48:52.20 | 4:16.50 | 219920 | 239169
12 | 53:08.70 | 3:30.25 | 239170 | 254944
13 | 56:39.20 | 1:55.13 | 254945 | 263582
14 | 58:34.33 | 2:01.50 | 263583 | 272707
15 | 60:36.08 | 5:29.25 | 272708 | 297407
16 | 66:05.33 | 3:12.00 | 297408 | 311807
17 | 69:17.33 | 6:44.12 | 311808 | 342119
Range status and errors
Selected range
Filename G:\Ballet Masterpieces\Orchestre Symphonique De Montreal, Charles Dutoit - Pytor Ilyich Tchaikovsky Swan Lake (Disc 2).wav
Peak level 98.9 %
Range quality 100.0 %
Copy CRC 4EF69C07
Copy OK
No errors occurred
End of status report

CD31

Exact Audio Copy V0.99 prebeta 4 from 23. January 2008
EAC extraction logfile from 14. January 2010, 16:19
Piotr Ilich Tchaikovsky / The Nutcracker , Cd 01
Used drive : HL-DT-STDVDRAM GSA-4082B Adapter: 1 ID: 1
Read mode : Secure
Utilize accurate stream : Yes
Defeat audio cache : Yes
Make use of C2 pointers : No
Read offset correction : 667
Overread into Lead-In and Lead-Out : No
Fill up missing offset samples with silence : Yes
Delete leading and trailing silent blocks : No
Null samples used in CRC calculations : Yes
Used interface : Native Win32 interface for Win NT & 2000
Used output format : Internal WAV Routines
Sample format : 44.100 Hz; 16 Bit; Stereo
TOC of the extracted CD
Track | Start | Length | Start sector | End sector
---------------------------------------------------------
1 | 0:00.33 | 3:01.37 | 33 | 13644
2 | 3:01.70 | 4:16.00 | 13645 | 32844
3 | 7:17.70 | 2:26.00 | 32845 | 43794
4 | 9:43.70 | 2:35.00 | 43795 | 55419
5 | 12:18.70 | 5:47.00 | 55420 | 81444
6 | 18:05.70 | 5:17.48 | 81445 | 105267
7 | 23:23.43 | 1:40.27 | 105268 | 112794
8 | 25:03.70 | 6:58.53 | 112795 | 144197
9 | 32:02.48 | 3:10.00 | 144198 | 158447
10 | 35:12.48 | 4:35.10 | 158448 | 179082
11 | 39:47.58 | 6:27.13 | 179083 | 208120
Range status and errors
Selected range
Filename G:\Ballet Masterpieces\Piotr Ilich Tchaikovsky - The Nutcracker , Cd 01.wav
Peak level 99.0 %
Range quality 100.0 %
Copy CRC 69DD75F7
Copy OK
No errors occurred
End of status report

CD32

Exact Audio Copy V0.99 prebeta 4 from 23. January 2008
EAC extraction logfile from 14. January 2010, 16:44
Piotr Ilich Tchaikovsky / The Nutcracker (2 of 2)
Used drive : HL-DT-STDVDRAM GSA-4082B Adapter: 1 ID: 1
Read mode : Secure
Utilize accurate stream : Yes
Defeat audio cache : Yes
Make use of C2 pointers : No
Read offset correction : 667
Overread into Lead-In and Lead-Out : No
Fill up missing offset samples with silence : Yes
Delete leading and trailing silent blocks : No
Null samples used in CRC calculations : Yes
Used interface : Native Win32 interface for Win NT & 2000
Used output format : Internal WAV Routines
Sample format : 44.100 Hz; 16 Bit; Stereo
TOC of the extracted CD
Track | Start | Length | Start sector | End sector
---------------------------------------------------------
1 | 0:00.33 | 4:05.50 | 33 | 18457
2 | 4:06.08 | 4:37.15 | 18458 | 39247
3 | 8:43.23 | 1:09.10 | 39248 | 44432
4 | 9:52.33 | 3:18.00 | 44433 | 59282
5 | 13:10.33 | 1:00.47 | 59283 | 63829
6 | 14:11.05 | 1:07.28 | 63830 | 68882
7 | 15:18.33 | 2:30.00 | 68883 | 80132
8 | 17:48.33 | 2:47.00 | 80133 | 92657
9 | 20:35.33 | 6:46.00 | 92658 | 123107
10 | 27:21.33 | 5:07.00 | 123108 | 146132
11 | 32:28.33 | 0:47.00 | 146133 | 149657
12 | 33:15.33 | 2:11.00 | 149658 | 159482
13 | 35:26.33 | 1:24.00 | 159483 | 165782
14 | 36:50.33 | 3:47.17 | 165783 | 182824
15 | 40:37.50 | 1:57.58 | 182825 | 191657
16 | 42:35.33 | 1:50.00 | 191658 | 199907
17 | 44:25.33 | 6:34.00 | 199908 | 229457
18 | 50:59.33 | 4:58.00 | 229458 | 251807
Range status and errors
Selected range
Filename G:\Ballet Masterpieces\Piotr Ilich Tchaikovsky - The Nutcracker (2 of 2).wav
Peak level 98.4 %
Range quality 100.0 %
Copy CRC F14509B7
Copy OK
No errors occurred
End of status report

CD33

Exact Audio Copy V0.99 prebeta 4 from 23. January 2008
EAC extraction logfile from 14. January 2010, 17:28
Giuseppe Verdi / Ballet Music from Macbeth - I vespri siciliani - don Carlos - Aida - Otello
Used drive : HL-DT-STDVDRAM GSA-4082B Adapter: 1 ID: 1
Read mode : Secure
Utilize accurate stream : Yes
Defeat audio cache : Yes
Make use of C2 pointers : No
Read offset correction : 667
Overread into Lead-In and Lead-Out : No
Fill up missing offset samples with silence : Yes
Delete leading and trailing silent blocks : No
Null samples used in CRC calculations : Yes
Used interface : Native Win32 interface for Win NT & 2000
Used output format : Internal WAV Routines
Sample format : 44.100 Hz; 16 Bit; Stereo
TOC of the extracted CD
Track | Start | Length | Start sector | End sector
---------------------------------------------------------
1 | 0:00.33 | 5:59.62 | 33 | 27019
2 | 6:00.20 | 15:32.13 | 27020 | 96932
3 | 21:32.33 | 6:11.62 | 96933 | 124819
4 | 27:44.20 | 9:44.13 | 124820 | 168632
5 | 37:28.33 | 6:36.62 | 168633 | 198394
6 | 44:05.20 | 7:34.00 | 198395 | 232444
7 | 51:39.20 | 4:59.30 | 232445 | 254899
8 | 56:38.50 | 9:01.45 | 254900 | 295519
Range status and errors
Selected range
Filename G:\Ballet Masterpieces\Giuseppe Verdi - Ballet Music from Macbeth - I vespri siciliani - don Carlos - Aida - Otello.wav
Peak level 100.0 %
Range quality 99.9 %
Copy CRC 7CE7672C
Copy OK
No errors occurred
End of status report

CD34

Exact Audio Copy V0.99 prebeta 4 from 23. January 2008
EAC extraction logfile from 14. January 2010, 17:41
English Concert Orchestra / Ballet Gala (CD 1)
Used drive : HL-DT-STDVDRAM GSA-4082B Adapter: 1 ID: 1
Read mode : Secure
Utilize accurate stream : Yes
Defeat audio cache : Yes
Make use of C2 pointers : No
Read offset correction : 667
Overread into Lead-In and Lead-Out : No
Fill up missing offset samples with silence : Yes
Delete leading and trailing silent blocks : No
Null samples used in CRC calculations : Yes
Used interface : Native Win32 interface for Win NT & 2000
Used output format : Internal WAV Routines
Sample format : 44.100 Hz; 16 Bit; Stereo
TOC of the extracted CD
Track | Start | Length | Start sector | End sector
---------------------------------------------------------
1 | 0:00.33 | 20:17.62 | 33 | 91369
2 | 20:18.20 | 13:58.00 | 91370 | 154219
3 | 34:16.20 | 13:24.13 | 154220 | 214532
4 | 47:40.33 | 8:48.25 | 214533 | 254157
5 | 56:28.58 | 7:58.00 | 254158 | 290007
Range status and errors
Selected range
Filename G:\Ballet Masterpieces\English Concert Orchestra - Ballet Gala (CD 1).wav
Peak level 98.1 %
Range quality 100.0 %
Copy CRC 704CB93D
Copy OK
No errors occurred
End of status report

CD35

Exact Audio Copy V0.99 prebeta 4 from 23. January 2008
EAC extraction logfile from 14. January 2010, 18:08
English Concert Orchestra / Ballet Gala (CD 2)
Used drive : HL-DT-STDVDRAM GSA-4082B Adapter: 1 ID: 1
Read mode : Secure
Utilize accurate stream : Yes
Defeat audio cache : Yes
Make use of C2 pointers : No
Read offset correction : 667
Overread into Lead-In and Lead-Out : No
Fill up missing offset samples with silence : Yes
Delete leading and trailing silent blocks : No
Null samples used in CRC calculations : Yes
Used interface : Native Win32 interface for Win NT & 2000
Used output format : Internal WAV Routines
Sample format : 44.100 Hz; 16 Bit; Stereo
TOC of the extracted CD
Track | Start | Length | Start sector | End sector
---------------------------------------------------------
1 | 0:00.33 | 7:55.00 | 33 | 35657
2 | 7:55.33 | 18:51.30 | 35658 | 120512
3 | 26:46.63 | 7:22.45 | 120513 | 153707
4 | 34:09.33 | 11:44.37 | 153708 | 206544
5 | 45:53.70 | 18:17.00 | 206545 | 288819
Range status and errors
Selected range
Filename G:\Ballet Masterpieces\English Concert Orchestra - Ballet Gala (CD 2).wav
Peak level 96.8 %
Range quality 99.9 %
Copy CRC 2D96B0D2
Copy OK
No errors occurred
End of status report



Показать сообщения:    

Текущее время: 05-Дек 11:30

Часовой пояс: UTC + 3


Вы не можете начинать темы
Вы не можете отвечать на сообщения
Вы не можете редактировать свои сообщения
Вы не можете удалять свои сообщения
Вы не можете голосовать в опросах
Вы не можете прикреплять файлы к сообщениям
Вы не можете скачивать файлы