(Classical) Classic FM: Hall of Fame - The Great Composers (4CDs) [BOX SET] - 2004, FLAC (image+.cue), lossless


Статистика раздачи [Обновить пиров]
Размер:  1.31 GB   |    Зарегистрирован:  1 год 1 месяц   |    Скачан:  1 раз

Полного источника не было: 7 месяцев 23 дня

Личеров:  1  [  0 KB/s  ]   Подробная статистика пиров
 
   
 
 
 

[Цитировать]

Classic FM: Hall of Fame - The Great Composers (4CDs) [BOX SET]
Жанр: Classical
Год выпуска диска: 2004
Производитель диска: (Classic FM Records, UK)
Аудио кодек: FLAC
Тип рипа: image+.cue
Битрейт аудио: lossless

Продолжительность + ТрэклистCD1

Продолжительность: 75:48.653
Трэклист:
01. Gioachino Rossini: The Barber of Seville - Overture [6:57]
---- Sinfonia Varsovia / Yehudi Menuhin
02. Antonio Vivaldi: Four Seasons "Summer" - 3rd movement [2:44]
---- Anthony Marwood / Scottish Chamber Orchestra / Nicholas McGegan
03. Charles Gounod: Ave Maria [2:42]
---- Ingrid Kertesi / Budapest Camerata / László Kovács
04. Dmitri Shostakovich: Piano Concerto No.2 - 1st movement [7:20]
---- Michael Houstoun / New Zealand Symphony Orchestra / Christopher Lyndon-Gee
05. Modest Mussorgsky: A Night on the Bare Mountain [12:00]
---- Philadelphia Orchestra / Eugene Ormandy
06. Frederic Chopin: Waltz in D flat major Opus 64 No.1 "Minute" [1:45]
---- Idil Biret
07. Giacomo Puccini: O Soave fansiulla (from La Bohème) [3:57]
---- Plácido Domingo / Montserrat Caballé / London Philharmonic Orchestra / Sir Georg Solti
08. Camille Saint-Saens: Carnival of the Animals - Finale [1:52]
---- I Musici de Montréal / Yuli Turovsky
09. Franz Schubert: Symphony No.5 - 1st movement [6:51]
---- Dresden State Orchestra / Sir Colin Davis
10. Gustav Holst: The Planets - Mars [7:12]
---- Philharmonia Orchestra / Leonard Slatkin
11. Georges Bizet: Toreador Song (from the Carmen Suite) [2:12]
---- Royal Liverpool Philharmonic Orchestra / Gerard Schwarz
12. Widor: Organ Symphony No.5 - Toccata [5:07]
---- William McVicker
13. Igor Stravinsky: The Firebird - Finale [3:00]
---- London Symphony Orchestra / Neeme Jarvi
14. Alexander Borodin: Prince Igor - Polovtsian Dances [12:11]
---- Philadelphia Orchestra / Eugene Ormandy

CD2

Продолжительность: 73:17.093
Трэклист:
01. George Frideric Handel: Zadok the Priest [5:43]
---- Royal Liverpool Philharmonic Orchestra & Choir / Carl Davis
02. Jean Sibelius: Finlandia [7:57]
---- Ulster Orchestra / Dmitri Sitkovetsky
03. Ludovico Einaudi: Due Tramonti (Two Sunsets) [4:57]
---- Ludovico Einaudi
04. Sergei Rachmaninov: Symphony No.2 - 3rd movement [13:21]
---- St. Petersburg Philharmonic Orchestra / Yuri Temirkanov
05. Nicolai Rimsky-Korsakov: Flight of the Bumblebee [1:19]
---- Evelyn Glennie / National Philharmonic Orchestra / Barry Wordsworth
06. Hector Berlioz: Symphonie Fantastique - 4th movement [6:00]
---- Royal Liverpool Philharmonic Orchestra / Junichi Hirokami
07. Eric Satie: Gymnopédie No.1 [3:10]
---- John Lenehan
08. Pyotr Tchaikovsky: Symphony No.4 - 4th movement[8:29]
---- London Philharmonic Orchestra / Paavo Berglund
09. Richard Wagner: Lohengrin - Prelude to Act 3 [3:00]
---- Berlin Philharmonic Orchestra / Lorin Maazel
10. Johannes Brahms: Piano Concerto No.1 - 3rd movement [12:07]
---- Gerhard Oppitz / Bavarian Radio Symphony Orchestra / Sir Colin Davis
11. John Williams: Schindler's List - Theme [4:00]
---- City of Prague Philharmonic Orchestra / Paul Bateman
12. Aaron Copland: Fanfare for the Common Man [3:15]
---- Eos Orchestra / Jonathan Sheffer

CD3

Продолжительность: 76:52.520
Трэклист:
01. Ludwig van Beethoven: Symphony No.5 - 1st movement [7:26]
---- Royal Liverpool Philharmonic Orchestra / Gerard Schwarz
02. Johann Sebastian Bach: Brandendurg Concerto No.2 - 1st movement [5:23]
---- Concentus Musicus Vienna / Nikolaus Harnoncourt
03. Franz Liszt: Liebesträume No.3 [4:53]
---- Jorge Bolet
04. Zbigniew Preisner: Requiem For My Friend - Lacrimosa [4:03]
---- Elzbieta Towarnicka / Varsov Chamber Choir / Sinfonia Varsovia / Jacek Kaspszyk
05. Antonin Dvorak: Symphony No.9 - 1st movement [11:03]
---- Prague Symphony Orchestra / Libor Pešek
06. Wolfgang Amadeus Mozart: Clarinet Concerto - 3rd movement [8:25]
---- Joy Farrall / Britten Sinfonia / Nicholas Cleobury
07. Richard Strauss: Also sprach Zarathustra - Sunrise [2:08]
---- Bavarian Radio Symphony Orchestra / Lorin Maazel
08. John Tavener: Song for Athene [5:36]
---- Choir of St. John's College, Cambridge / Christopher Robinson
09. George Gershwin: Rhapsody in Blue [17:20]
---- Michael Boriskin / Eos Orchestra / Jonathan Sheffer
10. Benjamin Britten: The Young Person's Guide to the Orchestra - Theme [2:00]
---- Bournemouth Symphony Orchestra / Richard Hickox
11. Edward Elgar: Pomp and Circumstance March No.4 [5:03]
---- Scottish National Orchestra / Sir Alexander Gibson
12. Johann Strauss (I): Radetzky March [3:33]
---- Vienna Philharmonic Orchestra / Lorin Maazel

CD4

Продолжительность: 73:03.813
Трэклист:
01. Carl Orff: Carmina Burana - O Fortuna [2:35]
---- St. Louis Symphony Orchestra & Chorus / Leonard Slatkin
02. Richard Strauss (II): By the Beautiful Blue Danube - Waltz [9:31]
---- Royal Liverpool Philharmonic Orchestra / Gerard Schwarz
03. Edvard Grieg: In the Hall of the Mountain King (from Peer Gynt Suite No.1) [2:27]
---- Polish Radio Symphony Orchestra / Tadeusz Wojciechowski
04. Michael Nyman: The Piano - The Hear Asks Pleasure First [3:46]
---- Paul Bateman / City of Prague Philharmonic Orchestra
05. Felix Mendelssohn: A Midsummer Night's Dream - Overture [12:30]
---- Bamberg Symphony Orchestra / Claus Peter Flor
06. Joseph Haydn: Symphony No.94 "Surprise" - 4th movement [3:43]
---- Philharmonia Orchestra / Leonard Slatkin
07. Giuseppe Verdi: Anvil Chorus (from Il Trovatore) [3:02]
---- Royal Liverpool Philharmonic Orchestra & Choir / Carl Davis
08. Gustav Mahler: Symphony No.1 - 2nd movement [7:54]
---- Boston Symphony Orchestra / Erich Leinsdorf
09. John Rutter: A Gaelic Blessing [1:50]
---- Polyphony / Bournemouth Sinfonietta / Stephen Layton
10. Maurice Ravel: Bolero [14:41]
---- Vienna Philharmonic Orchestra / Lorin Maazel
11. Jacques Offenbach: The Can-Can (from Orpheus in the Underworld) [5:20]
---- Slovak State Philharmonic Orchestra / Johannes Wildner
12. Sergei Prokofiev: The Montagues and Capulets (from Romeo & Juliet) [5:47]
---- Royal Philharmonic Orchestra / Daniele Gatti

EAC logCD1

Exact Audio Copy V0.99 prebeta 5 from 4. May 2009
EAC extraction logfile from 11. April 2010, 19:10
Various Artists / Classic FM: Hall of Fame THE GREAT COMPOSERS [Disc 1]
Used drive : MATSHITADVD-RAM UJ870BJ Adapter: 0 ID: 1
Read mode : Secure
Utilize accurate stream : Yes
Defeat audio cache : Yes
Make use of C2 pointers : No
Read offset correction : 102
Overread into Lead-In and Lead-Out : No
Fill up missing offset samples with silence : Yes
Delete leading and trailing silent blocks : No
Null samples used in CRC calculations : Yes
Used interface : Native Win32 interface for Win NT & 2000
Used output format : Internal WAV Routines
Sample format : 44.100 Hz; 16 Bit; Stereo
TOC of the extracted CD
Track | Start | Length | Start sector | End sector
---------------------------------------------------------
1 | 0:00.00 | 6:57.16 | 0 | 31290
2 | 6:57.16 | 2:43.68 | 31291 | 43583
3 | 9:41.09 | 2:41.46 | 43584 | 55704
4 | 12:22.55 | 7:19.73 | 55705 | 88702
5 | 19:42.53 | 11:59.70 | 88703 | 142697
6 | 31:42.48 | 1:45.23 | 142698 | 150595
7 | 33:27.71 | 3:57.02 | 150596 | 168372
8 | 37:24.73 | 1:52.03 | 168373 | 176775
9 | 39:17.01 | 6:50.40 | 176776 | 207565
10 | 46:07.41 | 7:11.43 | 207566 | 239933
11 | 53:19.09 | 2:11.38 | 239934 | 249796
12 | 55:30.47 | 5:07.36 | 249797 | 272857
13 | 60:38.08 | 2:59.61 | 272858 | 286343
14 | 63:37.69 | 12:10.55 | 286344 | 341148
Range status and errors
Selected range
Filename D:\Media Files\Music\Various Artists - Classic FM Hall of Fame THE GREAT COMPOSERS [Disc 1].wav
Peak level 100.0 %
Range quality 100.0 %
Test CRC 358BF6B0
Copy CRC 358BF6B0
Copy OK
No errors occurred
AccurateRip summary
Track 1 accurately ripped (confidence 3) [6F619BE5]
Track 2 accurately ripped (confidence 3) [250E367F]
Track 3 accurately ripped (confidence 3) [069D979F]
Track 4 accurately ripped (confidence 3) [3549B46F]
Track 5 accurately ripped (confidence 3) [64F5774D]
Track 6 accurately ripped (confidence 3) [FCF63BA6]
Track 7 accurately ripped (confidence 3) [6254AF29]
Track 8 accurately ripped (confidence 3) [8392489B]
Track 9 accurately ripped (confidence 3) [F8DE6EED]
Track 10 accurately ripped (confidence 3) [A3EB21F1]
Track 11 accurately ripped (confidence 3) [7BDA116B]
Track 12 accurately ripped (confidence 3) [0AA7D9F9]
Track 13 accurately ripped (confidence 3) [08997C3C]
Track 14 accurately ripped (confidence 3) [058FA3E6]
All tracks accurately ripped
End of status report

CD2

Exact Audio Copy V0.99 prebeta 5 from 4. May 2009
EAC extraction logfile from 11. April 2010, 23:47
Various Artists / Classic FM: Hall of Fame THE GREAT COMPOSERS [Disc2]
Used drive : MATSHITADVD-RAM UJ870BJ Adapter: 0 ID: 1
Read mode : Secure
Utilize accurate stream : Yes
Defeat audio cache : Yes
Make use of C2 pointers : No
Read offset correction : 102
Overread into Lead-In and Lead-Out : No
Fill up missing offset samples with silence : Yes
Delete leading and trailing silent blocks : No
Null samples used in CRC calculations : Yes
Used interface : Native Win32 interface for Win NT & 2000
Used output format : Internal WAV Routines
Sample format : 44.100 Hz; 16 Bit; Stereo
TOC of the extracted CD
Track | Start | Length | Start sector | End sector
---------------------------------------------------------
1 | 0:00.00 | 5:42.74 | 0 | 25723
2 | 5:42.74 | 7:56.48 | 25724 | 61471
3 | 13:39.47 | 4:56.42 | 61472 | 83713
4 | 18:36.14 | 13:21.10 | 83714 | 143798
5 | 31:57.24 | 1:18.44 | 143799 | 149692
6 | 33:15.68 | 6:00.09 | 149693 | 176701
7 | 39:16.02 | 3:09.61 | 176702 | 190937
8 | 42:25.63 | 8:29.34 | 190938 | 229146
9 | 50:55.22 | 3:00.22 | 229147 | 242668
10 | 53:55.44 | 12:06.73 | 242669 | 297191
11 | 66:02.42 | 3:59.72 | 297192 | 315188
12 | 70:02.39 | 3:14.43 | 315189 | 329781
Range status and errors
Selected range
Filename D:\Media Files\Music\Various Artists - Classic FM Hall of Fame THE GREAT COMPOSERS [Disc 2].wav
Peak level 95.9 %
Range quality 100.0 %
Test CRC 5AE700B3
Copy CRC 5AE700B3
Copy OK
No errors occurred
AccurateRip summary
Track 1 accurately ripped (confidence 3) [D3EB080A]
Track 2 accurately ripped (confidence 3) [9CAF4B33]
Track 3 accurately ripped (confidence 3) [2A9DFF4A]
Track 4 accurately ripped (confidence 3) [6FA33F7D]
Track 5 accurately ripped (confidence 3) [15DD235F]
Track 6 accurately ripped (confidence 3) [E503EC20]
Track 7 accurately ripped (confidence 3) [AC862836]
Track 8 accurately ripped (confidence 3) [80734565]
Track 9 accurately ripped (confidence 3) [4294B7DB]
Track 10 accurately ripped (confidence 3) [0F9B3CF9]
Track 11 accurately ripped (confidence 3) [90F9D72D]
Track 12 accurately ripped (confidence 3) [68507A5F]
All tracks accurately ripped
End of status report

CD3

Exact Audio Copy V0.99 prebeta 5 from 4. May 2009
EAC extraction logfile from 12. April 2010, 2:05
Various Artists / Classic FM: Hall of Fame THE GREAT COMPOSERS [Disc 3]
Used drive : MATSHITADVD-RAM UJ870BJ Adapter: 0 ID: 1
Read mode : Secure
Utilize accurate stream : Yes
Defeat audio cache : Yes
Make use of C2 pointers : No
Read offset correction : 102
Overread into Lead-In and Lead-Out : No
Fill up missing offset samples with silence : Yes
Delete leading and trailing silent blocks : No
Null samples used in CRC calculations : Yes
Used interface : Native Win32 interface for Win NT & 2000
Used output format : Internal WAV Routines
Sample format : 44.100 Hz; 16 Bit; Stereo
TOC of the extracted CD
Track | Start | Length | Start sector | End sector
---------------------------------------------------------
1 | 0:00.00 | 7:26.21 | 0 | 33470
2 | 7:26.21 | 5:22.69 | 33471 | 57689
3 | 12:49.15 | 4:53.06 | 57690 | 79670
4 | 17:42.21 | 4:03.20 | 79671 | 97915
5 | 21:45.41 | 11:02.54 | 97916 | 147619
6 | 32:48.20 | 8:25.29 | 147620 | 185523
7 | 41:13.49 | 2:08.02 | 185524 | 195125
8 | 43:21.51 | 5:35.59 | 195126 | 220309
9 | 48:57.35 | 17:19.44 | 220310 | 298278
10 | 66:17.04 | 1:59.65 | 298279 | 307268
11 | 68:16.69 | 5:02.68 | 307269 | 329986
12 | 73:19.62 | 3:32.52 | 329987 | 345938
Range status and errors
Selected range
Filename D:\Media Files\Music\Various Artists - Classic FM Hall of Fame THE GREAT COMPOSERS [Disc 3].wav
Peak level 100.0 %
Range quality 100.0 %
Test CRC BE6FAA88
Copy CRC BE6FAA88
Copy OK
No errors occurred
AccurateRip summary
Track 1 accurately ripped (confidence 3) [73DE903E]
Track 2 accurately ripped (confidence 3) [0A294CB6]
Track 3 accurately ripped (confidence 3) [713A275F]
Track 4 accurately ripped (confidence 3) [B5FD304B]
Track 5 accurately ripped (confidence 3) [807E4669]
Track 6 accurately ripped (confidence 3) [528C7578]
Track 7 accurately ripped (confidence 3) [D7647584]
Track 8 accurately ripped (confidence 3) [9923350C]
Track 9 accurately ripped (confidence 3) [B2EE85C4]
Track 10 accurately ripped (confidence 3) [3B5D9858]
Track 11 accurately ripped (confidence 3) [CAE71072]
Track 12 accurately ripped (confidence 3) [F7EA652D]
All tracks accurately ripped
End of status report

CD4

Exact Audio Copy V0.99 prebeta 5 from 4. May 2009
EAC extraction logfile from 12. April 2010, 10:52
Various Artists / Classic FM: Hall of Fame THE GREAT COMPOSERS [Disc 4]
Used drive : MATSHITADVD-RAM UJ870BJ Adapter: 0 ID: 1
Read mode : Secure
Utilize accurate stream : Yes
Defeat audio cache : Yes
Make use of C2 pointers : No
Read offset correction : 102
Overread into Lead-In and Lead-Out : No
Fill up missing offset samples with silence : Yes
Delete leading and trailing silent blocks : No
Null samples used in CRC calculations : Yes
Used interface : Native Win32 interface for Win NT & 2000
Used output format : Internal WAV Routines
Sample format : 44.100 Hz; 16 Bit; Stereo
TOC of the extracted CD
Track | Start | Length | Start sector | End sector
---------------------------------------------------------
1 | 0:00.00 | 2:34.56 | 0 | 11605
2 | 2:34.56 | 9:30.41 | 11606 | 54396
3 | 12:05.22 | 2:26.41 | 54397 | 65387
4 | 14:31.63 | 3:46.26 | 65388 | 82363
5 | 18:18.14 | 12:30.02 | 82364 | 138615
6 | 30:48.16 | 3:42.45 | 138616 | 155310
7 | 34:30.61 | 3:01.50 | 155311 | 168935
8 | 37:32.36 | 7:53.49 | 168936 | 204459
9 | 45:26.10 | 1:49.56 | 204460 | 212690
10 | 47:15.66 | 14:40.50 | 212691 | 278740
11 | 61:56.41 | 5:20.06 | 278741 | 302746
12 | 67:16.47 | 5:47.14 | 302747 | 328785
Range status and errors
Selected range
Filename D:\Media Files\Music\Various Artists - Classic FM Hall of Fame THE GREAT COMPOSERS [Disc 4].wav
Peak level 100.0 %
Range quality 100.0 %
Test CRC 1EF8647D
Copy CRC 1EF8647D
Copy OK
No errors occurred
AccurateRip summary
Track 1 accurately ripped (confidence 3) [133EB86E]
Track 2 accurately ripped (confidence 3) [8ABE2450]
Track 3 accurately ripped (confidence 3) [94B214E5]
Track 4 accurately ripped (confidence 3) [D63FF1AF]
Track 5 accurately ripped (confidence 3) [5E2DF061]
Track 6 accurately ripped (confidence 3) [26524B09]
Track 7 accurately ripped (confidence 3) [EF8CFE10]
Track 8 accurately ripped (confidence 3) [762926BC]
Track 9 accurately ripped (confidence 3) [74F3B669]
Track 10 accurately ripped (confidence 3) [9E6AE15E]
Track 11 accurately ripped (confidence 3) [E4BF2E0B]
Track 12 accurately ripped (confidence 3) [C8D1D4E6]
All tracks accurately ripped
End of status report
[teatrix.ru].t9789.torrent 
Торрент: Зарегистрирован [ 2015-10-23 17:26 ] · 12F868303660B93CC4E7EC395927C20E324EB77A

Скачать .torrent

Скачать

15 KB

Статус: проверено
Скачан: 1 раз
Размер: 1.31 GB
terms.php



Быстрый ответ

Имя:

      
Для отправки сообщений необходимо включить JavaScript
Показать сообщения:    

Текущее время: 06-Дек 11:09

Часовой пояс: UTC + 3


Вы можете начинать темы
Вы можете отвечать на сообщения
Вы не можете редактировать свои сообщения
Вы не можете удалять свои сообщения
Вы не можете голосовать в опросах
Вы не можете прикреплять файлы к сообщениям
Вы можете скачивать файлы