(Classical) Classic FM: Hall of Fame - Gold (3CDs) [BOX SET] - 2002, FLAC (image+.cue), lossless


Статистика раздачи [Обновить пиров]
Размер:  782 MB   |    Зарегистрирован:  1 год 2 месяца   |    Скачан:  0 раз

Полного источника не было: Никогда

Личеров:  1  [  0 KB/s  ]   Подробная статистика пиров
 
   
 
 
 

[Цитировать]

Classic FM: Hall of Fame - Gold (3CDs) [BOX SET]
Жанр: Classical
Год выпуска диска: 2002
Производитель диска: (Classic FM Records, UK)
Аудио кодек: FLAC
Тип рипа: image+.cue
Битрейт аудио: lossless

Продолжительность + ТрэклистCD1 - Hall of Fame at the Movies

Продолжительность: 64:31.400
Трэклист:
01. Sergei Rachmaninov: Piano Concerto No. 3, 1st movement (Shine) [18:32]
---- Evgeny Kissin/Boston Symphony Orchestra/Seiji Osawa
02. John Williams: Hedwig's Therme (Harry Potter) [4:53]
---- The City of Prague Philharmonic Orchestra/Nic Raine
03. Gustav Mahler: Symphony No. 5, 4th movement (Death in Venice) [10:07]
---- Royal Philharmonic Orchestra/Daniele Gatti
04. Samuel Barber: Adagio for Strings (Platoon) [7:11]
---- Royal Liverpool Philharmonic Orchestra/Libor Pešek
05. Howard Shore: The Fellowship (The Lord of The Rings) [5:54]
---- The City of Prague Philharmonic Orchestra/Nic Raine
06. Richard Wagner: Ride of the Valkyries (Apocalypse Now) [4:08]
---- Netherlands Radio Symphony Orchestra/Edo de Waart
07. Camille Saint-Saens: Organ Symphony No. 3 in C minor 4th movement (Babe) [8:21]
---- Noel Rawsthorne/London Philharmonic Orchestra/Enrique Batiz
08. John Williams: Main Theme (Star Wars) [5:25]
---- The City of Prague Philharmonic Orchestra/Nic Raine

CD2 - Hall of Fame at the Opera

Продолжительность: 66:28.933
Трэклист:
01. Leo Delibes: Flower Duet (Lakmé) [3:52]
---- Lesley Garrett/Philharmonia Orchestra/Andrew Greenwood
02. Gioachino Rossini: Largo al Factotum (Barber of Seville) [4:23]
---- Thomas Hampson/Orchestra della Toscana/Gianluigi Gelmetti
03. Giacomo Puccini: Nessun Dorma (Turandot) [3:23]
---- Johan Botha/Royal Opera House/Sir Edward Downes
04. Antonin Dvorak: Song of the Moon (Rusalka) [6:00]
---- Lesley Garrett/Philharmonia Orchestra/Andrew Greenwood
05. Georges Bizet: Au Fond Du Temple Saint (The Pearl Fishers) [4:39]
---- Jussi Björling/Robert Merrill/RCA Victor Symphony Orchestra/Renato Cellini
06. Vincenzo Bellini: Casta Diva (Norma) [7:16]
---- Leontyne Price/Ambrosian Opera Chorus/Philharmonia Orchestra/Henry Lewis
07. Giacomo Puccini: Che Gelida Manina (La Bohème) [4:47]
---- Placido Domingo/London Philharmonic Orchestra/Sir George Solti
08. Pietro Mascagni: Easter Hymn (Cavelleria Rusticana) [6:16]
---- Lesley Garrett/Philharmonia Orchestra/Andrew Greenwood
09. Georges Bizet: Toreador's Song (Carmen) [5:38]
---- Robert Merrill/Vienna Philharmonic Orchestra & State Opera Chorus/Herbert von Karajan
10. Giuseppe Verdi: Brindisi (La Traviata) [3:09]
---- RCA Italian Opera Orchestra & Chorus/George Pretre
11. Giacomo Puccini: Humming Chorus (Madame Butterfly) [2:53]
---- RCA Italian Opera Orchestra & Chorus/Erich Leinsdorf
12. Giuseppe Verdi: Celeste Aida (Aida) [4:43]
---- Bonaventura Bottone/Royal Liverpool Philharmonic Orchestra/ Carl Davis
13. Wolfgang Amadeus Mozart: La ci darem la mano (Don Giovanni) [2:58]
---- Francois le Roux/ Inger Dam-Jensen/Royal Opera House Orchestra/Nicholas McGegan
14. Giuseppe Verdi: Chorus of the Hebrew Slaves (Nabucco) [3:56]
---- Rhos Male Voice Choir/Royal Liverpool Philharmonic Orchestra/Carl Davis
15. Giacomo Puccini: O mio Babbino Caro (Gianni Schicchi) [2:38]
---- Angela Gheorghiu/Royal Opera House Orchestra/Sir Edward Downes

CD3 - Hall of Fame Classics

Продолжительность: 67:02.600
Трэклист:
01. Max Bruch: Violin Concerto No.1 In G minor, 3rd movement [7:39]
---- Tasmin Little/Royal Philharmonic Orchestra/Vernon Handley
02. Ludwig van Beethoven: Piano Sonata No.23, 2nd movement [7:00]
---- Mikhail Pletnev
03. Pyotr Tchaikovsky: Rose Adagio (The Sleeping Beauty) [7:23]
---- Royal Opera House Orchestra/Mark Ermler
04. Felix Mendelssohn: Hebrides Overture (Fingal's Cave) [10:32]
---- Ulster Orchestra/Dmitry Sitkovetsky
05. Johannes Brahms: Symphony No.3, 3rd movement [6:43]
---- Bavarian Radio Symphony Orchestra/Sir Colin Davis
06. Pyotr Tchaikovsky: Dance Of The Reed Flutes (The Nutcracker) [2:37]
---- Royal Opera House Orchestra/Mark Ermler
07. Edward Elgar: Cello Concerto, 1st & 2nd movements [12:41]
---- Steven Isserlis/London Symphony Orchestra/Richard Hickox
08. Sergei Rachmaninov: Piano Concerto No.2, 2nd movement [12:27]
---- Evelyn Chen/Philharmonia Orchestra/Leonard Slatkin

EAC logCD1

Exact Audio Copy V0.99 prebeta 5 from 4. May 2009
EAC extraction logfile from 11. April 2010, 13:11
Various / Classic FM: Hall of Fame GOLD [Disc 1]
Used drive : MATSHITADVD-RAM UJ870BJ Adapter: 0 ID: 1
Read mode : Secure
Utilize accurate stream : Yes
Defeat audio cache : Yes
Make use of C2 pointers : No
Read offset correction : 102
Overread into Lead-In and Lead-Out : No
Fill up missing offset samples with silence : Yes
Delete leading and trailing silent blocks : No
Null samples used in CRC calculations : Yes
Used interface : Native Win32 interface for Win NT & 2000
Used output format : Internal WAV Routines
Sample format : 44.100 Hz; 16 Bit; Stereo
TOC of the extracted CD
Track | Start | Length | Start sector | End sector
---------------------------------------------------------
1 | 0:00.00 | 18:31.57 | 0 | 83381
2 | 18:31.57 | 4:52.68 | 83382 | 105349
3 | 23:24.50 | 10:07.35 | 105350 | 150909
4 | 33:32.10 | 7:10.52 | 150910 | 183211
5 | 40:42.62 | 5:54.35 | 183212 | 209796
6 | 46:37.22 | 4:07.38 | 209797 | 228359
7 | 50:44.60 | 8:21.32 | 228360 | 265966
8 | 59:06.17 | 5:25.13 | 265967 | 290354
Range status and errors
Selected range
Filename D:\Media Files\Music\Various - Classic FM Hall of Fame GOLD [Disc 1].wav
Peak level 87.0 %
Range quality 100.0 %
Test CRC A2C728E1
Copy CRC A2C728E1
Copy OK
No errors occurred
AccurateRip summary
Track 1 accurately ripped (confidence 9) [5DF8ED0F]
Track 2 accurately ripped (confidence 9) [47177049]
Track 3 accurately ripped (confidence 9) [B5BA4CFD]
Track 4 accurately ripped (confidence 8) [DA56E844]
Track 5 accurately ripped (confidence 9) [755AD9CA]
Track 6 accurately ripped (confidence 9) [04321DB1]
Track 7 accurately ripped (confidence 9) [EE3B213D]
Track 8 accurately ripped (confidence 10) [C2106702]
All tracks accurately ripped
End of status report

CD2

Exact Audio Copy V0.99 prebeta 5 from 4. May 2009
EAC extraction logfile from 11. April 2010, 15:01
Various / Classic FM: Hall of Fame GOLD [Disc 2]
Used drive : MATSHITADVD-RAM UJ870BJ Adapter: 0 ID: 1
Read mode : Secure
Utilize accurate stream : Yes
Defeat audio cache : Yes
Make use of C2 pointers : No
Read offset correction : 102
Overread into Lead-In and Lead-Out : No
Fill up missing offset samples with silence : Yes
Delete leading and trailing silent blocks : No
Null samples used in CRC calculations : Yes
Used interface : Native Win32 interface for Win NT & 2000
Used output format : Internal WAV Routines
Sample format : 44.100 Hz; 16 Bit; Stereo
TOC of the extracted CD
Track | Start | Length | Start sector | End sector
---------------------------------------------------------
1 | 0:00.00 | 3:51.55 | 0 | 17379
2 | 3:51.55 | 4:23.07 | 17380 | 37111
3 | 8:14.62 | 3:23.08 | 37112 | 52344
4 | 11:37.70 | 5:59.52 | 52345 | 79321
5 | 17:37.47 | 4:38.45 | 79322 | 100216
6 | 22:16.17 | 7:15.43 | 100217 | 132884
7 | 29:31.60 | 4:47.10 | 132885 | 154419
8 | 34:18.70 | 6:15.52 | 154420 | 182596
9 | 40:34.47 | 5:37.60 | 182597 | 207931
10 | 46:12.32 | 3:08.68 | 207932 | 222099
11 | 49:21.25 | 2:52.65 | 222100 | 235064
12 | 52:14.15 | 4:42.42 | 235065 | 256256
13 | 56:56.57 | 2:58.23 | 256257 | 269629
14 | 59:55.05 | 3:56.05 | 269630 | 287334
15 | 63:51.10 | 2:37.60 | 287335 | 299169
Range status and errors
Selected range
Filename D:\Media Files\Music\Various - Classic FM Hall of Fame GOLD [Disc 2].wav
Peak level 93.1 %
Range quality 100.0 %
Test CRC 134E1F04
Copy CRC 134E1F04
Copy OK
No errors occurred
AccurateRip summary
Track 1 accurately ripped (confidence 8) [13DBA1E0]
Track 2 accurately ripped (confidence 8) [61386330]
Track 3 accurately ripped (confidence 8) [2D1EA1D6]
Track 4 accurately ripped (confidence 8) [7D91AE09]
Track 5 accurately ripped (confidence 8) [CB31E607]
Track 6 accurately ripped (confidence 8) [7670F147]
Track 7 accurately ripped (confidence 8) [8E65217E]
Track 8 accurately ripped (confidence 7) [AB3C7FE7]
Track 9 accurately ripped (confidence 8) [3500F083]
Track 10 accurately ripped (confidence 8) [12F11DF5]
Track 11 accurately ripped (confidence 8) [E3655020]
Track 12 accurately ripped (confidence 9) [DDCB7ECA]
Track 13 accurately ripped (confidence 8) [452419D7]
Track 14 accurately ripped (confidence 8) [D66292F5]
Track 15 accurately ripped (confidence 9) [DD1CDDC6]
All tracks accurately ripped
End of status report

CD3

Exact Audio Copy V0.99 prebeta 5 from 4. May 2009
EAC extraction logfile from 11. April 2010, 17:04
Various / Classic FM: Hall of Fame GOLD [Disc 3]
Used drive : MATSHITADVD-RAM UJ870BJ Adapter: 0 ID: 1
Read mode : Secure
Utilize accurate stream : Yes
Defeat audio cache : Yes
Make use of C2 pointers : No
Read offset correction : 102
Overread into Lead-In and Lead-Out : No
Fill up missing offset samples with silence : Yes
Delete leading and trailing silent blocks : No
Null samples used in CRC calculations : Yes
Used interface : Native Win32 interface for Win NT & 2000
Used output format : Internal WAV Routines
Sample format : 44.100 Hz; 16 Bit; Stereo
TOC of the extracted CD
Track | Start | Length | Start sector | End sector
---------------------------------------------------------
1 | 0:00.00 | 7:39.00 | 0 | 34424
2 | 7:39.00 | 6:59.57 | 34425 | 65906
3 | 14:38.57 | 7:23.20 | 65907 | 99151
4 | 22:02.02 | 10:32.28 | 99152 | 146579
5 | 32:34.30 | 6:43.05 | 146580 | 176809
6 | 39:17.35 | 2:37.30 | 176810 | 188614
7 | 41:54.65 | 12:40.52 | 188615 | 245666
8 | 54:35.42 | 12:27.03 | 245667 | 301694
Range status and errors
Selected range
Filename D:\Media Files\Music\Various - Classic FM Hall of Fame GOLD [Disc 3].wav
Peak level 98.8 %
Range quality 100.0 %
Test CRC 91ED85DA
Copy CRC 91ED85DA
Copy OK
No errors occurred
AccurateRip summary
Track 1 accurately ripped (confidence 9) [2F6DA3E6]
Track 2 accurately ripped (confidence 9) [C089A290]
Track 3 accurately ripped (confidence 10) [F19691FD]
Track 4 accurately ripped (confidence 9) [A3E6BE70]
Track 5 accurately ripped (confidence 9) [D5467BFC]
Track 6 accurately ripped (confidence 10) [9BE9749D]
Track 7 accurately ripped (confidence 9) [98030B6F]
Track 8 accurately ripped (confidence 9) [2BDA320A]
All tracks accurately ripped
End of status report
[teatrix.ru].t9790.torrent 
Торрент: Зарегистрирован [ 2015-10-23 17:26 ] · C9735436627EFA205807D2E2595E73DCF7C67526

Скачать .torrent

Скачать

17 KB

Статус: проверено
Скачан: 0 раз
Размер: 782 MB
terms.php



Быстрый ответ

Имя:

      
Для отправки сообщений необходимо включить JavaScript
Показать сообщения:    

Текущее время: 21-Янв 11:37

Часовой пояс: UTC + 3


Вы можете начинать темы
Вы можете отвечать на сообщения
Вы не можете редактировать свои сообщения
Вы не можете удалять свои сообщения
Вы не можете голосовать в опросах
Вы не можете прикреплять файлы к сообщениям
Вы можете скачивать файлы