(Classical) Frederic Chopin - The Complete Works / Фредерик Шопен - Полное собрание произведений (Garrick Ohlsson / Гаррик Олссон, Kazimierz Kord) [16CD]- 2008, FLAC (image+.cue), lossless


Статистика раздачи [Обновить пиров]
Размер:  3.42 GB   |    Зарегистрирован:  1 год 1 месяц   |    Скачан:  1 раз
Сидов:  34  [  0 KB/s  ]   Личеров:  2  [  0 KB/s  ]   Подробная статистика пиров
 
   
 
 

[Цитировать]

Frederic Chopin - The Complete Works (Garrick Ohlsson)
Жанр: Classical
Год выпуска диска: 2008
Производитель диска: Poland / Hyperion
Аудио кодек: FLAC
Тип рипа: image+.cue
Битрейт аудио: lossless
Продолжительность: 19ч 13мин
Трэклист:Frederic Chopin

CD1 - Piano Sonatas 1-3

Piano Sonata No 1 in C minor Op 4 [24'46]
1. Allegro maestoso [8'30]
2. Menuetto [4'50]
3. Larghetto [4'41]
4. Presto [6'43]
Piano Sonata No 2 in B flat minor Op 35 [21'10]
5. Grave – Doppio movimento [5'14]
6. Scherzo [7'11]
7. Marche funèbre [7'09]
8. Presto [1'33]
Piano Sonata No 3 in B minor Op 58 [27'30]
9. Allegro maestoso [9'35]
10. Scherzo Molto vivace [2'29]
11. Largo [10'47]
12. Finale Presto non tanto [4'38]
Recorded at Concordia College,
Bronxville, New York
on 12–14 June 1990

CD2 - Twenty-Four Preludes

Twenty-Four Preludes Op 28 [41'52]
1. No 1 in C major Agitato [0'38]
2. No 2 in A minor Lento [2'19]
3. No 3 in G major Vivace [0'59]
4. No 4 in E minor Largo [2'25]
5. No 5 in D major Allegro molto [0'40]
6. No 6 in B minor Lento assai [2'30]
7. No 7 in A major Andantino [1'12]
8. No 8 in F sharp minor Molto agitato [2'00]
9. No 9 in E major Largo [1'19]
10. No 10 in C sharp minor Allegro molto [0'25]
11. No 11 in B major Vivace [0'43]
12. No 12 in G sharp minor Presto [1'11]
13. No 13 in F sharp major Lento [3'49]
14. No 14 in E flat minor Allegro [0'29]
15. No 15 in D flat major Sostenuto [5'41]
16. No 16 in B flat minor Presto con fuoco [1'08]
17. No 17 in A flat major Allegretto [3'40]
18. No 18 in F minor Allegro molto [1'05]
19. No 19 in E flat major Vivace [1'16]
20. No 20 in C minor Largo [1'45]
21. No 21 in B flat major Cantabile [1'51]
22. No 22 in G minor Molto agitato [0'52]
23. No 23 in F major Moderato [1'14]
24. No 24 in D minor Allegro appassionato [2'30]
1–26 & 30 –31 Recorded at Concordia
College, Bronxville, New York
on 17–19 August 1989

27 –29 Recorded at Performing Arts Center,
urchase College, State University of New York
in 1995

CD3 - Études, Nouvelles études

Études Op 10 [28'55]
1. No 1 in C major [1'51]
2. No 2 in A minor [1'34]
3. No 3 in E major [4'20]
4. No 4 in C sharp minor [2'01]
5. No 5 in G flat major [1'40]
6. No 6 in E flat minor [3'40]
7. No 7 in C major [1'27]
8. No 8 in F major [2'28]
9. No 9 in F minor [2'12]
10. No 10 in A flat major [2'10]
11. No 11 in E flat major [2'44]
12. No 12 in C minor [2'41]
Études Op 25 [31'38]
13. No 1 in A flat major [2'36]
14. No 2 in F minor [1'37]
15. No 3 in F major [1'50]
16. No 4 in A minor [1'59]
17. No 5 in E minor [3'29]
18. No 6 in G sharp minor [2'00]
19. No 7 in C sharp minor [5'45]
20. No 8 in D flat major [1'09]
21. No 9 in G flat major [0'57]
22. No 10 in B minor [4'08]
23. No 11 in A minor [3'35]
24. No 12 in C minor [2'29]
Nouvelles études KKIIb/3 [6'32]
No 1 in F minor [2'17]
No 2 in D flat major [2'03]
No 3 in A flat major [2'11]
Recorded at Performing Arts Center,
Purchase College, State University of New York
on 27, 28, 30 & 31 October 1996

CD4 - Fantasy in F minor, Ballades 1-4, Rondo

1. Fantasy in F minor Op 49 [13'20]
2. Ballade No 1 in G minor Op 23 [10'19]
3. Ballade No 2 in A minor Op 38 [8'36]
4. Ballade No 3 in A flat major Op 47 [8'27]
5. Ballade No 4 in F minor Op 52 [12'14]
6. Introduction and Rondo in E flat major Op 16 [11'11]
7. Rondo in C major Op 73 [10'22]
1 Recorded at Performing Arts Center,
Purchase College, State University of New York
in 1995
2–7 Recorded at Concordia College,
Bronxville, New York
on 27–29 December 1989

CD5 - Scherzo 1-4, Hexaméron , Variations brillantes

1. Scherzo No 1 in B minor Op 20 [11'24]
2. Scherzo No 2 in B flat minor Op 31 [12'21]
3. Scherzo No 3 in C sharp minor Op 39 [9'14]
4. Scherzo No 4 in E major Op 54 [12'31]
5. Hexaméron – Morceau de Concert
Variation VI Largo KKIIb/2 [2'21]
from Liszt’s Grandes Variations de Bravoure pour Piano
sur la Marche des Puritains de Bellini, S392
written in collaboration with Chopin, Czerny, Herz, Pixis and Thalberg
6. Introduction and Variations in E major KKIVa/4 [8'41]
on a German national air ‘Der Schweizerbub’
7. Variations brillantes in B flat major Op 12 [9'00]
on ‘Je vends des scapulaires’ from Hérold’s Ludovic
8. Allegro de concert in A major Op 46 [12'20]
Recorded at Performing Arts Center,
Purchase College, State University of New York
1–7 on 8–10 June 1992, 8 in 1995

CD6 - Polonaises

1. Polonaise in G minor KKIIa/1 [3'42]
2. Polonaise in B flat major KKIVa/1 [3'45]
3. Polonaise in A flat major KKIVa/2 [5'07]
4. Polonaise in G sharp minor KKIVa/3 [6'56]
5. Polonaise in B flat minor KKIVa/5 [4'49]
6. Polonaise in G flat major KKIVa/8 [7'10]
7. Polonaise in D minor Op 71 No 1 [6'04]
8. Polonaise in B flat major Op 71 No 2 [7'38]
9. Polonaise in F minor Op 71 No 3 [9'45]
10. Polonaise in C sharp minor Op 26 No 1 [8'11]
11. Polonaise in E flat minor Op 26 No 2 [7'51]

CD7 - Polonaises, Tarantelle , Impromptus 1-3, Fantasy Impromptu

1. Polonaise in A major Op 40 No 1 [3'48]
2. Polonaise in C minor Op 40 No 2 [8'30]
3. Polonaise in F sharp minor Op 44 [10'40]
4. Polonaise in A flat major Op 53 [7'00]
5. Polonaise-Fantasy in A flat major Op 61 [14'20]
6. Introduction and Bolero in A minor Op 19 [7'45]
7. Tarantelle in A flat major Op 43 [3'02]
8. Impromptu No 1 in A flat major Op 29 [4'21]
9. Impromptu No 2 in F sharp major Op 36 [6'21]
10. Impromptu No 3 in G flat major Op 51 [5'54]
11. Fantasy Impromptu in C sharp minor Op 66 [5'12]
Recorded at Performing Arts Center,
Purchase College, State University of New York
1–5 & 8–11 on 24–26 March &
23–25 August 1993,
6–7 in 1995

CD8 - Nocturnes

1. Nocturne in B flat minor Op 9 No 1 [6'38]
2. Nocturne in E flat major Op 9 No 2 [5'14]
3. Nocturne in B major Op 9 No 3 [6'50]
4. Nocturne in F major Op 15 No 1 [5'33]
5. Nocturne in F sharp major Op 15 No 2 [4'17]
6. Nocturne in G minor Op 15 No 3 [5'00]
7. Nocturne in C sharp minor Op 27 No 1 [5'40]
8. Nocturne in D flat major Op 27 No 2 [6'07]
9. Nocturne in B major Op 32 No 1 [5'46]
10. Nocturne in A flat major Op 32 No 2 [5'48]
11. Nocturne in G minor Op 37 No 1 [8'05]
12. Nocturne in G major Op 37 No 2 [7'44]
Recorded at Performing Arts Center,
Purchase College, State University of New York
on 13–15 June & 3–5 October 1994

CD9 - Nocturnes, Berceuse , Barcarolle, Variations in A major Souvenir de Paganini

1. Nocturne in C minor Op 48 No 1 [8'04]
2. Nocturne in F sharp minor Op 48 No 2 [8'39]
3. Nocturne in F minor Op 55 No 1 [5'45]
4. Nocturne in E flat major Op 55 No 2 [5'12]
5. Nocturne in B major Op 62 No 1 [9'09]
6. Nocturne in E major Op 62 No 2 [7'30]
7. Nocturne in E minor Op 72 No 1 [4'50]
8. Nocturne in C minor KKIVb/8 [3'31]
9 Lento con espressione in C sharp minor [4'46] Nocturne, KKIVa/16
10. Cantabile in B flat major KKIVb/6 [1'00]
11. Moderato in E major Albumblatt, KKIVb/12 [1'26]
12. Largo in E flat major KKIVb/5 [1'37]
13. Variations in A major Souvenir de Paganini, KKIVa/10 [3'32]
14. Berceuse in D flat major Op 57 [5'57]
15. Barcarolle in F sharp major Op 60 [8'47]
Recorded at Performing Arts Center,
Purchase College, State University of New York
1–9 on 13–15 June & 3–5 October 1994,
10 –15 in 1995

CD10 - Waltzes, Ecossaises

1. Waltz in E flat major Op 18 [5'38]
2. Waltz in A flat major Op 34 No 1 [5'54]
3. Waltz in A minor Op 34 No 2 [7'00]
4. Waltz in F major Op 34 No 3 [2'40]
5. Waltz in A flat major Op 42 [4'03]
6. Waltz in D flat major Op 64 No 1 [1'54]
7. Waltz in C sharp minor Op 64 No 2 [4'02]
8. Waltz in A flat major Op 64 No 3 [3'15]
9. Waltz in A flat major Op 69 No 1 [4'36]
10. Waltz in B minor Op 69 No 2 [3'56]
11. Waltz in G flat major Op 70 No 1 [2'26]
12. Waltz in F minor Op 70 No 2 [3'45]
13. Waltz in D flat major Op 70 No 3 [3'07]
14. Waltz in A flat major KKIVa/13 [1'46]
15. Waltz in E major KKIVa/12 [2'48]
16. Waltz in E minor KKIVa/15 [3'04]
17. Waltz in A minor KKIVb/11 [2'16]
18. Sostenuto in E flat major Waltz, KKIVb/10 [2'18]
19. Waltz in E flat major KKIVa/14 [2'51]
20. Waltz in F sharp minor Valse mélancolique, KKIb/7 [3'37]
21. Contredanse in G flat major KKAnh.Ia/4 [2'11]
Ecossaises Op 72 No 3 [2'13]
22. No 1 in D major [0'53]
23. No 2 in G major [0'38]
24. No 3 in D flat major [0'42]
Recorded at Performing Arts Center,
Purchase College, State University of New York
1–20 in September & November 1995,
21 –24 in 1995

CD11 - Mazurkas

1. Mazurka in F sharp minor Op 6 No 1 [2'44]
2. Mazurka in C sharp minor Op 6 No 2 [2'40]
3. Mazurka in E major Op 6 No 3 [1'48]
4. Mazurka in E flat minor Op 6 No 4 [0'43]
5. Mazurka in B flat major Op 7 No 1 [2'19]
6. Mazurka in A minor Op 7 No 2 [3'12]
7. Mazurka in F minor Op 7 No 3 [1'56]
8. Mazurka in A flat major Op 7 No 4 [1'09]
9. Mazurka in C major Op 7 No 5 [0'36]
10. Mazurka in B flat major Op 17 No 1 [2'14]
11. Mazurka in E minor Op 17 No 2 [2'12]
12. Mazurka in A flat major Op 17 No 3 [4'23]
13. Mazurka in A minor Op 17 No 4 [4'18]
14. Mazurka in G minor Op 24 No 1 [2'53]
15. Mazurka in C major Op 24 No 2 [2'03]
16. Mazurka in A flat major Op 24 No 3 [2'13]
17. Mazurka in B flat minor Op 24 No 4 [4'20]
18. Mazurka in C minor Op 30 No 1 [2'00]
19. Mazurka in B minor Op 30 No 2 [1'12]
20. Mazurka in D flat major Op 30 No 3 [2'55]
21. Mazurka in C sharp minor Op 30 No 4 [3'48]
22. Mazurka in G sharp minor Op 33 No 1 [2'06]
23. Mazurka in D major Op 33 No 2 [2'22]
24. Mazurka in C major Op 33 No 3 [1'36]
25. Mazurka in B minor Op 33 No 4 [4'26]
26. Mazurka in E minor Op 41 No 1 [2'37]
27. Mazurka in B major Op 41 No 2 [1'09]
28. Mazurka in A flat major Op 41 No 3 [1'52]
29. Mazurka in C sharp minor Op 41 No 4 [3'15]
Recorded at Performing Arts Center,
Purchase College, State University of New York
in 1998

CD12 - Mazurkas

1. Mazurka in G major Op 50 No 1 [2'14]
2. Mazurka in A flat major Op 50 No 2 [3'23]
3. Mazurka in C sharp minor Op 50 No 3 [4'54]
4. Mazurka in B major Op 56 No 1 [4'19]
5. Mazurka in C major Op 56 No 2 [1'38]
6. Mazurka in C minor Op 56 No 3 [6'14]
7. Mazurka in A minor Op 59 No 1 [4'05]
8. Mazurka in A flat major Op 59 No 2 [2'48]
9. Mazurka in F sharp minor Op 59 No 3 [3'26]
10. Mazurka in B major Op 63 No 1 [2'18]
11. Mazurka in F minor Op 63 No 2 [1'52]
12. Mazurka in C sharp minor Op 63 No 3 [2'13]
13. Mazurka in A minor KKIIb/5 [2'19]
14. Mazurka in A minor KKIIb/4 [3'29]
15. Mazurka in G major Op 67 No 1 [1'14]
16. Mazurka in G minor Op 67 No 2 [2'00]
17. Mazurka in C major Op 67 No 3 [1'25]
18. Mazurka in A minor Op 67 No 4 [2'43]
19. Mazurka in C major Op 68 No 1 [1'26]
20. Mazurka in A minor Op 68 No 2 [2'42]
21. Mazurka in F major Op 68 No 3 [1'42]
22. Mazurka in F minor Op 68 No 4 [2'04]
23. Mazurka in B flat major KKIIa/3 [1'07]
24. Mazurka in G major KKIIa/2 [1'24]
25. Mazurka in D major KKAnh.Ia/1 [1'21]
26. Mazurka in B flat major KKIVb/1 [1'08]
27. Mazurka in C major KKIVb/3 [2'27]
28. Mazurka in A flat major KKIVb/4 [1'17]
Recorded at Performing Arts Center,
Purchase College, State University of New York
in 1998

CD13 - Piano Concertos 1, 2

Piano Concerto No 2 in F minor Op 21 [32'41]
1. Maestoso [14'33]
2. Larghetto [9'38]
3. Allegro vivace [8'29]
Piano Concerto No 1 in E minor Op 11 [39'51]
4. Allegro maestoso [20'12]
5. Romance Larghetto [10'27]
6. Rondo Vivace [9'11]
Recorded at National Philharmonic
Concert Hall, Warsaw
on 13–18 June 1997

CD14 - Variations in B flat major, Rondo à la krakowiak, Fantasy on Polish Airs, Grande Polonaise

Variations in B flat major Op 2 [18'50]
on ‘Là ci darem la mano’ from Mozart’s Don Giovanni
1. Introduction Largo – Poco più mosso [5'13]
2. Theme Allegretto [1'29]
3. Variation I Brillante [1'06]
4. Variation II Veloce ma accuratamente [1'03]
5. Variation III [1'28]
6. Variation IV [1'16]
7. Variation V Adagio – Alla Polacca [7'11]
8. Fantasy on Polish Airs Op 13 [15'00]
9. Rondo à la krakowiak Op 14 [14'23]
Andante spianato and Grande Polonaise Op 22 [14'09]
10. Andante spianato [4'38]
11. Grande Polonaise [9'30]
Recorded at National Philharmonic
Concert Hall, Warsaw
on 13–18 June 1997

CD15 - Cello Sonata, Grand Duo, Piano Trio, Introduction and Polonaise brillante

Cello Sonata in G minor Op 65 [25'51]
1. Allegro moderato [10'45]
2. Scherzo Allegro con brio [5'06]
3. Largo [3'59]
4. Finale Allegro [5'59]
5. Introduction and Polonaise brillante in C Op 3 [9'27]
for cello and piano
6. Grand Duo in E major [14'19]
on themes from Meyerbeer’s Robert Le Diable, KKIIb/1
for cello and piano
Piano Trio in G minor Op 8 [26'34]
7. Allegro con fuoco [7'49]
8. Scherzo Con moto, ma non troppo [7'22]
9. Adagio sostenuto [6'12]
10. Finale Allegretto [5'10]
Recorded at Performing Arts Center,
Purchase College, State University of New York
on 25–28 July 2000

CD16 - Zyczenie, Wiosna, Melodya , Spiew grobowy

1. Zyczenie The Maiden’s Wish, Op 74 No 1 [1'48]
2. Wiosna Spring, Op 74 No 2 [2'21]
3. Smutna rzeka Sad river, Op 74 No 3 [3'17]
4. Hulanka Drinking song, Op 74 No 4 [2'31]
5. Gdzie lubi There where she loves, Op 74 No 5 [1'19]
6. Precz z moich oczu! Out of my sight!, Op 74 No 6 [3'25]
7. Posel The messenger, Op 74 No 7 [2'42]
8. Sliczny chlopiec Handsome lad, Op 74 No 8 [3'00]
9. Melodya Op 74 No 9 [2'46]
10. Wojak The warrior, Op 74 No 10 [2'09]
11. Dwojaki koniec The double end, Op 74 No 11 [1'47]
12. Moja pieszczotka My darling, Op 74 No 12 [2'03]
13. Nie ma czego trzeba Faded and vanished, Op 74 No 13 [5'32]
14. Pierscien The ring, Op 74 No 14 [1'57]
15. Narzeczony The bridegroom, Op 74 No 15 [2'26]
16. Piosnka Litewska Lithuanian song, Op 74 No 16 [2'08]
17. Spiew grobowy Hymn from the tomb, Op 74 No 17 [4'44]
18. Czary Witchcraft, KKIVa/11 [2'44]
19. Dumka Reverie, KKIVb/9 [1'26]
20. Variations in E major KKAnh.Ia/5 [7'21]
on ‘Non più mesta’ from Rossini’s La Cenerentola
for flute and piano
Recorded at Performing Arts Center,
Purchase College, State University of New York
on 20–23 April 1999

-
-
-

Garrick Ohlsson

Гаррик Олссон (англ. Garrick Ohlsson; род. 3 апреля 1948, Нью-Йорк) — американский пианист.
Окончил Джульярдскую школу, где занимался сначала у Саши Городницкого, а в 1968—1971 гг. у Розины Левиной и Ольги Барабини. Консультировался также у Клаудио Аррау и Ирмы Вольпе.
Обладатель первых премий двух престижных международных конкурсов: имени Бузони (1966) и имени Шопена (1970). В 1969 г. по инициативе своего продюсера Сола Юрока предпринял большое европейское турне, а на волне шопеновского успеха в Варшаве — ещё и американское, включавшее концерты в более чем 40 городах. Лауреат Премии Эвери Фишера (1994) за выдающиеся заслуги в исполнении академической музыки.
Доп. информация:
Garrick Ohlsson - piano
Ewa Podles - soprano
Leila Josefowicz - violin
Carter Brey - cello
Elizabeth Mann - flute
Warsaw Philharmonic Orchestra
Conductor: Kazimierz Kord

Отчёт EACCD1

Exact Audio Copy V0.99 prebeta 4 from 23. January 2008
EAC extraction logfile from 6. April 2010, 13:04
Garrick Ohlsson / Chopin: The Complete Works [Disc 01]
Used drive : ASUS DRW-1814BLT Adapter: 2 ID: 2
Read mode : Secure
Utilize accurate stream : Yes
Defeat audio cache : Yes
Make use of C2 pointers : No
Read offset correction : 6
Overread into Lead-In and Lead-Out : No
Fill up missing offset samples with silence : Yes
Delete leading and trailing silent blocks : No
Null samples used in CRC calculations : Yes
Used interface : Native Win32 interface for Win NT & 2000
Used output format : Internal WAV Routines
Sample format : 44.100 Hz; 16 Bit; Stereo
TOC of the extracted CD
Track | Start | Length | Start sector | End sector
---------------------------------------------------------
1 | 0:00.00 | 8:30.50 | 0 | 38299
2 | 8:30.50 | 4:50.37 | 38300 | 60086
3 | 13:21.12 | 4:39.45 | 60087 | 81056
4 | 18:00.57 | 6:45.40 | 81057 | 111471
5 | 24:46.22 | 5:14.68 | 111472 | 135089
6 | 30:01.15 | 7:11.52 | 135090 | 167466
7 | 37:12.67 | 7:09.70 | 167467 | 199711
8 | 44:22.62 | 1:33.48 | 199712 | 206734
9 | 45:56.35 | 9:35.15 | 206735 | 249874
10 | 55:31.50 | 2:29.00 | 249875 | 261049
11 | 58:00.50 | 10:47.37 | 261050 | 309611
12 | 68:48.12 | 4:38.70 | 309612 | 330531
Range status and errors
Selected range
Filename D:\EAC\Garrick Ohlsson - Chopin The Complete Works [Disc 01].wav
Peak level 94.9 %
Range quality 100.0 %
Copy CRC 14CF7670
Copy OK
No errors occurred
AccurateRip summary
Track 1 accurately ripped (confidence 6) [28DCB048]
Track 2 accurately ripped (confidence 6) [76C27A6F]
Track 3 accurately ripped (confidence 6) [7C434A30]
Track 4 accurately ripped (confidence 6) [01D25B5E]
Track 5 accurately ripped (confidence 6) [4C3F7C68]
Track 6 accurately ripped (confidence 6) [A662A9B1]
Track 7 accurately ripped (confidence 6) [6F6F30EA]
Track 8 accurately ripped (confidence 6) [654D4ECA]
Track 9 accurately ripped (confidence 6) [B746ECDB]
Track 10 accurately ripped (confidence 6) [DF186EF2]
Track 11 accurately ripped (confidence 6) [3C43AE78]
Track 12 accurately ripped (confidence 6) [EA59FAEB]
All tracks accurately ripped
End of status report

CD2

Exact Audio Copy V0.99 prebeta 4 from 23. January 2008
EAC extraction logfile from 6. April 2010, 13:21
Garrick Ohlsson / Chopin: The Complete Works [Disc 02]
Used drive : ASUS DRW-1814BLT Adapter: 2 ID: 2
Read mode : Secure
Utilize accurate stream : Yes
Defeat audio cache : Yes
Make use of C2 pointers : No
Read offset correction : 6
Overread into Lead-In and Lead-Out : No
Fill up missing offset samples with silence : Yes
Delete leading and trailing silent blocks : No
Null samples used in CRC calculations : Yes
Used interface : Native Win32 interface for Win NT & 2000
Used output format : Internal WAV Routines
Sample format : 44.100 Hz; 16 Bit; Stereo
TOC of the extracted CD
Track | Start | Length | Start sector | End sector
---------------------------------------------------------
1 | 0:00.00 | 0:38.57 | 0 | 2906
2 | 0:38.57 | 2:19.00 | 2907 | 13331
3 | 2:57.57 | 0:59.20 | 13332 | 17776
4 | 3:57.02 | 2:25.13 | 17777 | 28664
5 | 6:22.15 | 0:40.17 | 28665 | 31681
6 | 7:02.32 | 2:30.28 | 31682 | 42959
7 | 9:32.60 | 1:12.17 | 42960 | 48376
8 | 10:45.02 | 2:00.40 | 48377 | 57416
9 | 12:45.42 | 1:19.73 | 57417 | 63414
10 | 14:05.40 | 0:25.55 | 63415 | 65344
11 | 14:31.20 | 0:43.07 | 65345 | 68576
12 | 15:14.27 | 1:11.65 | 68577 | 73966
13 | 16:26.17 | 3:49.73 | 73967 | 91214
14 | 20:16.15 | 0:29.52 | 91215 | 93441
15 | 20:45.67 | 5:41.70 | 93442 | 119086
16 | 26:27.62 | 1:08.50 | 119087 | 124236
17 | 27:36.37 | 3:40.28 | 124237 | 140764
18 | 31:16.65 | 1:05.32 | 140765 | 145671
19 | 32:22.22 | 1:16.18 | 145672 | 151389
20 | 33:38.40 | 1:45.00 | 151390 | 159264
21 | 35:23.40 | 1:51.22 | 159265 | 167611
22 | 37:14.62 | 0:52.13 | 167612 | 171524
23 | 38:07.00 | 1:14.52 | 171525 | 177126
24 | 39:21.52 | 2:30.48 | 177127 | 188424
25 | 41:52.25 | 1:08.12 | 188425 | 193536
26 | 43:00.37 | 0:40.70 | 193537 | 196606
27 | 43:41.32 | 5:48.10 | 196607 | 222716
28 | 49:29.42 | 4:33.72 | 222717 | 243263
29 | 54:03.39 | 2:54.70 | 243264 | 256383
30 | 56:58.34 | 9:27.43 | 256384 | 298951
31 | 66:26.02 | 9:58.10 | 298952 | 343811
Range status and errors
Selected range
Filename D:\EAC\Garrick Ohlsson - Chopin The Complete Works [Disc 02].wav
Peak level 100.0 %
Range quality 99.9 %
Copy CRC 10820C07
Copy OK
No errors occurred
AccurateRip summary
Track 1 accurately ripped (confidence 6) [5650A1A5]
Track 2 accurately ripped (confidence 6) [F64F9FB2]
Track 3 accurately ripped (confidence 6) [1B14E044]
Track 4 accurately ripped (confidence 6) [2B352BD5]
Track 5 accurately ripped (confidence 6) [3976BED4]
Track 6 accurately ripped (confidence 6) [C785B325]
Track 7 accurately ripped (confidence 6) [593AA9B2]
Track 8 accurately ripped (confidence 6) [72DC86DB]
Track 9 accurately ripped (confidence 7) [7F33AD6B]
Track 10 accurately ripped (confidence 6) [4C87426F]
Track 11 accurately ripped (confidence 6) [82031E0F]
Track 12 accurately ripped (confidence 6) [25B70573]
Track 13 accurately ripped (confidence 6) [93587816]
Track 14 accurately ripped (confidence 6) [098642D0]
Track 15 accurately ripped (confidence 6) [8F2E5A2D]
Track 16 accurately ripped (confidence 6) [564646BE]
Track 17 accurately ripped (confidence 6) [B94EBFDC]
Track 18 accurately ripped (confidence 6) [7E9D941C]
Track 19 accurately ripped (confidence 6) [3D6A0485]
Track 20 accurately ripped (confidence 6) [35D7EA5A]
Track 21 accurately ripped (confidence 6) [2662D102]
Track 22 accurately ripped (confidence 6) [DF5B534E]
Track 23 accurately ripped (confidence 6) [C94B92A1]
Track 24 accurately ripped (confidence 6) [9EC9FC9E]
Track 25 accurately ripped (confidence 6) [454124EA]
Track 26 accurately ripped (confidence 6) [2835F0D3]
Track 27 accurately ripped (confidence 6) [68D57D10]
Track 28 accurately ripped (confidence 6) [23C8A101]
Track 29 accurately ripped (confidence 6) [A7FF24CA]
Track 30 accurately ripped (confidence 6) [9F1DE743]
Track 31 accurately ripped (confidence 6) [1C7B5DD6]
All tracks accurately ripped
End of status report

CD3

Exact Audio Copy V0.99 prebeta 4 from 23. January 2008
EAC extraction logfile from 6. April 2010, 13:35
Garrick Ohlsson / Chopin: The Complete Works [Disc 03]
Used drive : ASUS DRW-1814BLT Adapter: 2 ID: 2
Read mode : Secure
Utilize accurate stream : Yes
Defeat audio cache : Yes
Make use of C2 pointers : No
Read offset correction : 6
Overread into Lead-In and Lead-Out : No
Fill up missing offset samples with silence : Yes
Delete leading and trailing silent blocks : No
Null samples used in CRC calculations : Yes
Used interface : Native Win32 interface for Win NT & 2000
Used output format : Internal WAV Routines
Sample format : 44.100 Hz; 16 Bit; Stereo
TOC of the extracted CD
Track | Start | Length | Start sector | End sector
---------------------------------------------------------
1 | 0:00.00 | 1:51.35 | 0 | 8359
2 | 1:51.35 | 1:34.37 | 8360 | 15446
3 | 3:25.72 | 4:20.68 | 15447 | 35014
4 | 7:46.65 | 2:01.22 | 35015 | 44111
5 | 9:48.12 | 1:40.60 | 44112 | 51671
6 | 11:28.72 | 3:40.13 | 51672 | 68184
7 | 15:09.10 | 1:27.65 | 68185 | 74774
8 | 16:37.00 | 2:28.72 | 74775 | 85946
9 | 19:05.72 | 2:12.73 | 85947 | 95919
10 | 21:18.70 | 2:10.32 | 95920 | 105701
11 | 23:29.27 | 2:44.15 | 105702 | 118016
12 | 26:13.42 | 2:41.68 | 118017 | 130159
13 | 28:55.35 | 2:36.12 | 130160 | 141871
14 | 31:31.47 | 1:37.15 | 141872 | 149161
15 | 33:08.62 | 1:50.10 | 149162 | 157421
16 | 34:58.72 | 1:59.38 | 157422 | 166384
17 | 36:58.35 | 3:29.65 | 166385 | 182124
18 | 40:28.25 | 2:00.10 | 182125 | 191134
19 | 42:28.35 | 5:45.02 | 191135 | 217011
20 | 48:13.37 | 1:09.25 | 217012 | 222211
21 | 49:22.62 | 0:57.60 | 222212 | 226546
22 | 50:20.47 | 4:08.25 | 226547 | 245171
23 | 54:28.72 | 3:35.45 | 245172 | 261341
24 | 58:04.42 | 2:29.30 | 261342 | 272546
25 | 60:33.72 | 2:17.03 | 272547 | 282824
26 | 62:51.00 | 2:03.35 | 282825 | 292084
27 | 64:54.35 | 2:11.70 | 292085 | 301979
Range status and errors
Selected range
Filename D:\EAC\Garrick Ohlsson - Chopin The Complete Works [Disc 03].wav
Peak level 97.7 %
Range quality 100.0 %
Copy CRC 265F55DD
Copy OK
No errors occurred
AccurateRip summary
Track 1 accurately ripped (confidence 7) [E685A534]
Track 2 accurately ripped (confidence 6) [A8B7A327]
Track 3 accurately ripped (confidence 7) [FF4AA217]
Track 4 accurately ripped (confidence 6) [79A1FD0B]
Track 5 accurately ripped (confidence 7) [910549BB]
Track 6 accurately ripped (confidence 6) [76CDB6A0]
Track 7 accurately ripped (confidence 6) [AD1630C7]
Track 8 accurately ripped (confidence 6) [CBE54399]
Track 9 accurately ripped (confidence 6) [9CEC5750]
Track 10 accurately ripped (confidence 6) [D0A79408]
Track 11 accurately ripped (confidence 6) [2CD99A30]
Track 12 accurately ripped (confidence 7) [00C377BB]
Track 13 accurately ripped (confidence 7) [45A2A1A0]
Track 14 accurately ripped (confidence 6) [E0C9F8F4]
Track 15 accurately ripped (confidence 6) [6B69CBA5]
Track 16 accurately ripped (confidence 6) [9ACE958A]
Track 17 accurately ripped (confidence 6) [75435F8C]
Track 18 accurately ripped (confidence 6) [598E0320]
Track 19 accurately ripped (confidence 6) [FA5D374F]
Track 20 accurately ripped (confidence 6) [0C458528]
Track 21 accurately ripped (confidence 7) [F4C70790]
Track 22 accurately ripped (confidence 6) [45827465]
Track 23 accurately ripped (confidence 6) [B8948314]
Track 24 accurately ripped (confidence 7) [CEC77F2B]
Track 25 accurately ripped (confidence 6) [C46125B7]
Track 26 accurately ripped (confidence 6) [72E65746]
Track 27 accurately ripped (confidence 6) [2CE93E1E]
All tracks accurately ripped
End of status report

CD4

Exact Audio Copy V0.99 prebeta 4 from 23. January 2008
EAC extraction logfile from 6. April 2010, 14:30
Garrick Ohlsson / Chopin: The Complete Works [Disc 04]
Used drive : ASUS DRW-1814BLT Adapter: 2 ID: 2
Read mode : Secure
Utilize accurate stream : Yes
Defeat audio cache : Yes
Make use of C2 pointers : No
Read offset correction : 6
Overread into Lead-In and Lead-Out : No
Fill up missing offset samples with silence : Yes
Delete leading and trailing silent blocks : No
Null samples used in CRC calculations : Yes
Used interface : Native Win32 interface for Win NT & 2000
Used output format : Internal WAV Routines
Sample format : 44.100 Hz; 16 Bit; Stereo
TOC of the extracted CD
Track | Start | Length | Start sector | End sector
---------------------------------------------------------
1 | 0:00.00 | 13:20.30 | 0 | 60029
2 | 13:20.30 | 10:19.05 | 60030 | 106459
3 | 23:39.35 | 8:36.35 | 106460 | 145194
4 | 32:15.70 | 8:27.21 | 145195 | 183240
5 | 40:43.16 | 12:14.45 | 183241 | 238335
6 | 52:57.61 | 11:11.40 | 238336 | 288700
7 | 64:09.26 | 10:22.30 | 288701 | 335380
Range status and errors
Selected range
Filename D:\EAC\Garrick Ohlsson - Chopin The Complete Works [Disc 04].wav
Peak level 100.0 %
Range quality 100.0 %
Copy CRC 25DAD3C9
Copy OK
No errors occurred
AccurateRip summary
Track 1 accurately ripped (confidence 6) [7691355C]
Track 2 accurately ripped (confidence 6) [ADD7047C]
Track 3 accurately ripped (confidence 6) [07D0657D]
Track 4 accurately ripped (confidence 6) [F873D169]
Track 5 accurately ripped (confidence 6) [B1F1C00A]
Track 6 accurately ripped (confidence 6) [B444BAFC]
Track 7 accurately ripped (confidence 6) [0CEACA5F]
All tracks accurately ripped
End of status report

CD5

Exact Audio Copy V0.99 prebeta 4 from 23. January 2008
EAC extraction logfile from 7. April 2010, 12:55
Garrick Ohlsson / Chopin: The Complete Works [Disc 05]
Used drive : ASUS DRW-1814BLT Adapter: 2 ID: 2
Read mode : Secure
Utilize accurate stream : Yes
Defeat audio cache : Yes
Make use of C2 pointers : No
Read offset correction : 6
Overread into Lead-In and Lead-Out : No
Fill up missing offset samples with silence : Yes
Delete leading and trailing silent blocks : No
Null samples used in CRC calculations : Yes
Used interface : Native Win32 interface for Win NT & 2000
Used output format : Internal WAV Routines
Sample format : 44.100 Hz; 16 Bit; Stereo
TOC of the extracted CD
Track | Start | Length | Start sector | End sector
---------------------------------------------------------
1 | 0:00.65 | 11:24.25 | 65 | 51389
2 | 11:25.15 | 12:21.32 | 51390 | 106996
3 | 23:46.47 | 9:14.60 | 106997 | 148606
4 | 33:01.32 | 12:31.63 | 148607 | 204994
5 | 45:33.20 | 2:21.37 | 204995 | 215606
6 | 47:54.57 | 8:41.08 | 215607 | 254689
7 | 56:35.65 | 9:00.10 | 254690 | 295199
8 | 65:36.00 | 12:20.50 | 295200 | 350749
Range status and errors
Selected range
Filename D:\EAC\Garrick Ohlsson - Chopin The Complete Works [Disc 05].wav
Peak level 95.9 %
Range quality 100.0 %
Copy CRC FBBC0FFC
Copy OK
No errors occurred
AccurateRip summary
Track 1 accurately ripped (confidence 6) [173F44CA]
Track 2 accurately ripped (confidence 6) [EA5E4FC5]
Track 3 accurately ripped (confidence 6) [C671A111]
Track 4 accurately ripped (confidence 6) [2E2FE429]
Track 5 accurately ripped (confidence 6) [8DD4F680]
Track 6 accurately ripped (confidence 6) [6B2B7AB7]
Track 7 accurately ripped (confidence 6) [34D0370C]
Track 8 accurately ripped (confidence 6) [7CA76ECA]
All tracks accurately ripped
End of status report

CD6

Exact Audio Copy V0.99 prebeta 4 from 23. January 2008
EAC extraction logfile from 7. April 2010, 13:25
Garrick Ohlsson / Chopin: The Complete Works [Disc 06]
Used drive : ASUS DRW-1814BLT Adapter: 2 ID: 2
Read mode : Secure
Utilize accurate stream : Yes
Defeat audio cache : Yes
Make use of C2 pointers : No
Read offset correction : 6
Overread into Lead-In and Lead-Out : No
Fill up missing offset samples with silence : Yes
Delete leading and trailing silent blocks : No
Null samples used in CRC calculations : Yes
Used interface : Native Win32 interface for Win NT & 2000
Used output format : Internal WAV Routines
Sample format : 44.100 Hz; 16 Bit; Stereo
TOC of the extracted CD
Track | Start | Length | Start sector | End sector
---------------------------------------------------------
1 | 0:00.00 | 3:42.30 | 0 | 16679
2 | 3:42.30 | 3:45.03 | 16680 | 33557
3 | 7:27.33 | 5:07.00 | 33558 | 56582
4 | 12:34.33 | 6:56.27 | 56583 | 87809
5 | 19:30.60 | 4:49.20 | 87810 | 109504
6 | 24:20.05 | 7:10.48 | 109505 | 141802
7 | 31:30.53 | 6:04.19 | 141803 | 169121
8 | 37:34.72 | 7:38.51 | 169122 | 203522
9 | 45:13.48 | 9:45.70 | 203523 | 247467
10 | 54:59.43 | 8:11.07 | 247468 | 284299
11 | 63:10.50 | 7:51.25 | 284300 | 319649
Range status and errors
Selected range
Filename D:\EAC\Garrick Ohlsson - Chopin The Complete Works [Disc 06].wav
Peak level 94.3 %
Range quality 100.0 %
Copy CRC DAB5FF24
Copy OK
No errors occurred
AccurateRip summary
Track 1 accurately ripped (confidence 6) [6036FFC1]
Track 2 accurately ripped (confidence 6) [34AFFF4B]
Track 3 accurately ripped (confidence 6) [D2DACC1A]
Track 4 accurately ripped (confidence 6) [494A125C]
Track 5 accurately ripped (confidence 6) [B59825BE]
Track 6 accurately ripped (confidence 6) [5C64F57A]
Track 7 accurately ripped (confidence 6) [01B07C8A]
Track 8 accurately ripped (confidence 6) [C43E2858]
Track 9 accurately ripped (confidence 6) [ADAB94FC]
Track 10 accurately ripped (confidence 6) [845C7BE8]
Track 11 accurately ripped (confidence 6) [C6D95019]
All tracks accurately ripped
End of status report

CD7

Exact Audio Copy V0.99 prebeta 4 from 23. January 2008
EAC extraction logfile from 7. April 2010, 13:39
Garrick Ohlsson / Chopin: The Complete Works [Disc 07]
Used drive : ASUS DRW-1814BLT Adapter: 2 ID: 2
Read mode : Secure
Utilize accurate stream : Yes
Defeat audio cache : Yes
Make use of C2 pointers : No
Read offset correction : 6
Overread into Lead-In and Lead-Out : No
Fill up missing offset samples with silence : Yes
Delete leading and trailing silent blocks : No
Null samples used in CRC calculations : Yes
Used interface : Native Win32 interface for Win NT & 2000
Used output format : Internal WAV Routines
Sample format : 44.100 Hz; 16 Bit; Stereo
TOC of the extracted CD
Track | Start | Length | Start sector | End sector
---------------------------------------------------------
1 | 0:00.00 | 3:48.10 | 0 | 17109
2 | 3:48.10 | 8:30.73 | 17110 | 55432
3 | 12:19.08 | 10:40.37 | 55433 | 103469
4 | 22:59.45 | 7:00.12 | 103470 | 134981
5 | 29:59.57 | 14:20.31 | 134982 | 199512
6 | 44:20.13 | 7:45.08 | 199513 | 234395
7 | 52:05.21 | 3:02.55 | 234396 | 248100
8 | 55:08.01 | 4:21.27 | 248101 | 267702
9 | 59:29.28 | 6:21.53 | 267703 | 296330
10 | 65:51.06 | 5:54.42 | 296331 | 322922
11 | 71:45.48 | 5:12.53 | 322923 | 346375
Range status and errors
Selected range
Filename D:\EAC\Garrick Ohlsson - Chopin The Complete Works [Disc 07].wav
Peak level 94.8 %
Range quality 99.9 %
Copy CRC 661D5438
Copy OK
No errors occurred
AccurateRip summary
Track 1 accurately ripped (confidence 6) [D11C09A8]
Track 2 accurately ripped (confidence 6) [3DA58E3B]
Track 3 accurately ripped (confidence 6) [6149286F]
Track 4 accurately ripped (confidence 6) [BA755CB8]
Track 5 accurately ripped (confidence 6) [2709C894]
Track 6 accurately ripped (confidence 6) [F5787B92]
Track 7 accurately ripped (confidence 6) [7E4FE2E0]
Track 8 accurately ripped (confidence 6) [07059E1D]
Track 9 accurately ripped (confidence 6) [F3724028]
Track 10 accurately ripped (confidence 6) [8BF1563A]
Track 11 accurately ripped (confidence 6) [611A4636]
All tracks accurately ripped
End of status report

CD8

Exact Audio Copy V0.99 prebeta 4 from 23. January 2008
EAC extraction logfile from 7. April 2010, 13:56
Garrick Ohlsson / Chopin: The Complete Works [Disc 08]
Used drive : ASUS DRW-1814BLT Adapter: 2 ID: 2
Read mode : Secure
Utilize accurate stream : Yes
Defeat audio cache : Yes
Make use of C2 pointers : No
Read offset correction : 6
Overread into Lead-In and Lead-Out : No
Fill up missing offset samples with silence : Yes
Delete leading and trailing silent blocks : No
Null samples used in CRC calculations : Yes
Used interface : Native Win32 interface for Win NT & 2000
Used output format : Internal WAV Routines
Sample format : 44.100 Hz; 16 Bit; Stereo
TOC of the extracted CD
Track | Start | Length | Start sector | End sector
---------------------------------------------------------
1 | 0:00.00 | 6:34.45 | 0 | 29594
2 | 6:34.45 | 5:18.70 | 29595 | 53514
3 | 11:53.40 | 6:49.57 | 53515 | 84246
4 | 18:43.22 | 5:34.05 | 84247 | 109301
5 | 24:17.27 | 4:13.27 | 109302 | 128303
6 | 28:30.54 | 5:04.58 | 128304 | 151161
7 | 33:35.37 | 5:38.48 | 151162 | 176559
8 | 39:14.10 | 6:09.55 | 176560 | 204289
9 | 45:23.65 | 5:45.37 | 204290 | 230201
10 | 51:09.27 | 5:49.13 | 230202 | 256389
11 | 56:58.40 | 8:01.10 | 256390 | 292474
12 | 64:59.50 | 7:48.12 | 292475 | 327586
Range status and errors
Selected range
Filename D:\EAC\Garrick Ohlsson - Chopin The Complete Works [Disc 08].wav
Peak level 95.7 %
Range quality 100.0 %
Copy CRC AE05DC78
Copy OK
No errors occurred
AccurateRip summary
Track 1 accurately ripped (confidence 6) [39C734AC]
Track 2 accurately ripped (confidence 6) [632E6154]
Track 3 accurately ripped (confidence 6) [5D1E0411]
Track 4 accurately ripped (confidence 6) [49E4BB82]
Track 5 accurately ripped (confidence 6) [F4A3A23D]
Track 6 accurately ripped (confidence 6) [C701EB8A]
Track 7 accurately ripped (confidence 6) [EA40844C]
Track 8 accurately ripped (confidence 6) [D17CD418]
Track 9 accurately ripped (confidence 6) [B450E644]
Track 10 accurately ripped (confidence 6) [5C5F95D5]
Track 11 accurately ripped (confidence 6) [582DBA6A]
Track 12 accurately ripped (confidence 6) [352D02A9]
All tracks accurately ripped
End of status report

CD9

Exact Audio Copy V0.99 prebeta 4 from 23. January 2008
EAC extraction logfile from 7. April 2010, 14:08
Garrick Ohlsson / Chopin: The Complete Works [Disc 09]
Used drive : ASUS DRW-1814BLT Adapter: 2 ID: 2
Read mode : Secure
Utilize accurate stream : Yes
Defeat audio cache : Yes
Make use of C2 pointers : No
Read offset correction : 6
Overread into Lead-In and Lead-Out : No
Fill up missing offset samples with silence : Yes
Delete leading and trailing silent blocks : No
Null samples used in CRC calculations : Yes
Used interface : Native Win32 interface for Win NT & 2000
Used output format : Internal WAV Routines
Sample format : 44.100 Hz; 16 Bit; Stereo
TOC of the extracted CD
Track | Start | Length | Start sector | End sector
---------------------------------------------------------
1 | 0:00.00 | 8:04.45 | 0 | 36344
2 | 8:04.45 | 8:39.55 | 36345 | 75324
3 | 16:44.25 | 5:45.60 | 75325 | 101259
4 | 22:30.10 | 5:12.12 | 101260 | 124671
5 | 27:42.22 | 9:09.25 | 124672 | 165871
6 | 36:51.47 | 7:30.23 | 165872 | 199644
7 | 44:21.70 | 4:50.52 | 199645 | 221446
8 | 49:12.47 | 3:31.70 | 221447 | 237341
9 | 52:44.42 | 4:46.53 | 237342 | 258844
10 | 57:31.20 | 1:00.13 | 258845 | 263357
11 | 58:31.33 | 1:26.07 | 263358 | 269814
12 | 59:57.40 | 1:37.00 | 269815 | 277089
13 | 61:34.40 | 3:32.57 | 277090 | 293046
14 | 65:07.22 | 5:57.27 | 293047 | 319848
15 | 71:04.49 | 8:47.20 | 319849 | 359393
Range status and errors
Selected range
Filename D:\EAC\Garrick Ohlsson - Chopin The Complete Works [Disc 09].wav
Peak level 99.5 %
Range quality 100.0 %
Copy CRC D7F2678F
Copy OK
No errors occurred
AccurateRip summary
Track 1 accurately ripped (confidence 6) [58D15233]
Track 2 accurately ripped (confidence 6) [86685A7F]
Track 3 accurately ripped (confidence 6) [FF70FCC5]
Track 4 accurately ripped (confidence 6) [66B4845B]
Track 5 accurately ripped (confidence 6) [89DC6136]
Track 6 accurately ripped (confidence 6) [CA2A50AD]
Track 7 accurately ripped (confidence 6) [FB289F8A]
Track 8 accurately ripped (confidence 6) [03606E51]
Track 9 accurately ripped (confidence 6) [A5F1EA9B]
Track 10 accurately ripped (confidence 6) [F3CFD7B4]
Track 11 accurately ripped (confidence 6) [ABFD0145]
Track 12 accurately ripped (confidence 6) [93501D90]
Track 13 accurately ripped (confidence 6) [82794A7A]
Track 14 accurately ripped (confidence 6) [6D568C5C]
Track 15 accurately ripped (confidence 6) [12E77F9C]
All tracks accurately ripped
End of status report

CD10

Exact Audio Copy V0.99 prebeta 4 from 23. January 2008
EAC extraction logfile from 7. April 2010, 14:20
Garrick Ohlsson / Chopin: The Complete Works [Disc 10]
Used drive : ASUS DRW-1814BLT Adapter: 2 ID: 2
Read mode : Secure
Utilize accurate stream : Yes
Defeat audio cache : Yes
Make use of C2 pointers : No
Read offset correction : 6
Overread into Lead-In and Lead-Out : No
Fill up missing offset samples with silence : Yes
Delete leading and trailing silent blocks : No
Null samples used in CRC calculations : Yes
Used interface : Native Win32 interface for Win NT & 2000
Used output format : Internal WAV Routines
Sample format : 44.100 Hz; 16 Bit; Stereo
TOC of the extracted CD
Track | Start | Length | Start sector | End sector
---------------------------------------------------------
1 | 0:00.00 | 5:38.52 | 0 | 25401
2 | 5:38.52 | 5:54.23 | 25402 | 51974
3 | 11:33.00 | 7:00.05 | 51975 | 83479
4 | 18:33.05 | 2:40.37 | 83480 | 95516
5 | 21:13.42 | 4:03.65 | 95517 | 113806
6 | 25:17.32 | 1:54.53 | 113807 | 122409
7 | 27:12.10 | 4:02.15 | 122410 | 140574
8 | 31:14.25 | 3:15.40 | 140575 | 155239
9 | 34:29.65 | 4:36.55 | 155240 | 175994
10 | 39:06.45 | 3:56.62 | 175995 | 193756
11 | 43:03.32 | 2:26.10 | 193757 | 204716
12 | 45:29.42 | 3:45.58 | 204717 | 221649
13 | 49:15.25 | 3:07.20 | 221650 | 235694
14 | 52:22.45 | 1:46.15 | 235695 | 243659
15 | 54:08.60 | 2:48.49 | 243660 | 256308
16 | 56:57.34 | 3:04.61 | 256309 | 270169
17 | 60:02.20 | 2:16.05 | 270170 | 280374
18 | 62:18.25 | 2:18.45 | 280375 | 290769
19 | 64:36.70 | 2:51.20 | 290770 | 303614
20 | 67:28.15 | 3:37.22 | 303615 | 319911
21 | 71:05.37 | 2:11.30 | 319912 | 329766
22 | 73:16.67 | 0:53.03 | 329767 | 333744
23 | 74:09.70 | 0:38.65 | 333745 | 336659
24 | 74:48.60 | 0:42.00 | 336660 | 339809
Range status and errors
Selected range
Filename D:\EAC\Garrick Ohlsson - Chopin The Complete Works [Disc 10].wav
Peak level 96.6 %
Range quality 100.0 %
Copy CRC 77FE6B4E
Copy OK
No errors occurred
AccurateRip summary
Track 1 accurately ripped (confidence 7) [4B7097A5]
Track 2 accurately ripped (confidence 7) [01E1AF26]
Track 3 accurately ripped (confidence 7) [A68A9436]
Track 4 accurately ripped (confidence 6) [A3A54711]
Track 5 accurately ripped (confidence 6) [5E941DC3]
Track 6 accurately ripped (confidence 7) [5AD35DB3]
Track 7 accurately ripped (confidence 7) [E90F8CCE]
Track 8 accurately ripped (confidence 6) [209D8900]
Track 9 accurately ripped (confidence 7) [4C8FD062]
Track 10 accurately ripped (confidence 7) [58A2DB55]
Track 11 accurately ripped (confidence 7) [06D894CB]
Track 12 accurately ripped (confidence 6) [8016F713]
Track 13 accurately ripped (confidence 6) [E8E5156F]
Track 14 accurately ripped (confidence 6) [052D4CBD]
Track 15 accurately ripped (confidence 6) [4B6447C6]
Track 16 accurately ripped (confidence 6) [A1D649D9]
Track 17 accurately ripped (confidence 6) [3B5D0633]
Track 18 accurately ripped (confidence 6) [D5B99325]
Track 19 accurately ripped (confidence 6) [463D7192]
Track 20 accurately ripped (confidence 6) [19FC68D7]
Track 21 accurately ripped (confidence 6) [DA7151D6]
Track 22 accurately ripped (confidence 6) [0F194161]
Track 23 accurately ripped (confidence 6) [E30C1D33]
Track 24 accurately ripped (confidence 6) [5EA2E4CA]
All tracks accurately ripped
End of status report

CD11

Exact Audio Copy V0.99 prebeta 4 from 23. January 2008
EAC extraction logfile from 7. April 2010, 14:45
Garrick Ohlsson / Chopin: The Complete Works [Disc 11]
Used drive : ASUS DRW-1814BLT Adapter: 2 ID: 2
Read mode : Secure
Utilize accurate stream : Yes
Defeat audio cache : Yes
Make use of C2 pointers : No
Read offset correction : 6
Overread into Lead-In and Lead-Out : No
Fill up missing offset samples with silence : Yes
Delete leading and trailing silent blocks : No
Null samples used in CRC calculations : Yes
Used interface : Native Win32 interface for Win NT & 2000
Used output format : Internal WAV Routines
Sample format : 44.100 Hz; 16 Bit; Stereo
TOC of the extracted CD
Track | Start | Length | Start sector | End sector
---------------------------------------------------------
1 | 0:00.00 | 2:43.00 | 0 | 12224
2 | 2:43.00 | 2:40.50 | 12225 | 24274
3 | 5:23.50 | 1:48.37 | 24275 | 32411
4 | 7:12.12 | 0:43.68 | 32412 | 35704
5 | 7:56.05 | 2:21.03 | 35705 | 46282
6 | 10:17.08 | 3:12.00 | 46283 | 60682
7 | 13:29.08 | 1:56.17 | 60683 | 69399
8 | 15:25.25 | 1:09.71 | 69400 | 74645
9 | 16:35.21 | 0:37.05 | 74646 | 77425
10 | 17:12.26 | 2:14.31 | 77426 | 87506
11 | 19:26.57 | 2:12.28 | 87507 | 97434
12 | 21:39.10 | 4:22.67 | 97435 | 117151
13 | 26:02.02 | 4:18.74 | 117152 | 136575
14 | 30:21.01 | 2:53.60 | 136576 | 149610
15 | 33:14.61 | 2:03.62 | 149611 | 158897
16 | 35:18.48 | 2:13.58 | 158898 | 168930
17 | 37:32.31 | 4:20.01 | 168931 | 188431
18 | 41:52.32 | 2:00.44 | 188432 | 197475
19 | 43:53.01 | 1:13.01 | 197476 | 202951
20 | 45:06.02 | 2:55.02 | 202952 | 216078
21 | 48:01.04 | 3:48.71 | 216079 | 233249
22 | 51:50.00 | 2:06.40 | 233250 | 242739
23 | 53:56.40 | 2:22.02 | 242740 | 253391
24 | 56:18.42 | 1:36.39 | 253392 | 260630
25 | 57:55.06 | 4:26.41 | 260631 | 280621
26 | 62:21.47 | 2:38.28 | 280622 | 292499
27 | 65:00.00 | 1:08.40 | 292500 | 297639
28 | 66:08.40 | 1:52.39 | 297640 | 306078
29 | 68:01.04 | 3:17.00 | 306079 | 320853
Range status and errors
Selected range
Filename D:\EAC\Garrick Ohlsson - Chopin The Complete Works [Disc 11].wav
Peak level 97.7 %
Range quality 100.0 %
Copy CRC 8739611E
Copy OK
No errors occurred
AccurateRip summary
Track 1 accurately ripped (confidence 6) [1265D98E]
Track 2 accurately ripped (confidence 6) [AD1FF059]
Track 3 accurately ripped (confidence 6) [FD39C551]
Track 4 accurately ripped (confidence 6) [CD92FB4F]
Track 5 accurately ripped (confidence 6) [1A640065]
Track 6 accurately ripped (confidence 6) [C359040E]
Track 7 accurately ripped (confidence 6) [CF71AD5A]
Track 8 accurately ripped (confidence 6) [EB314729]
Track 9 accurately ripped (confidence 6) [0DE519AB]
Track 10 accurately ripped (confidence 6) [4F9051F1]
Track 11 accurately ripped (confidence 6) [2668D79D]
Track 12 accurately ripped (confidence 6) [5D33CF16]
Track 13 accurately ripped (confidence 7) [B49E1ADB]
Track 14 accurately ripped (confidence 6) [7934F4AB]
Track 15 accurately ripped (confidence 7) [68674CDF]
Track 16 accurately ripped (confidence 6) [85BBA673]
Track 17 accurately ripped (confidence 6) [27129B77]
Track 18 accurately ripped (confidence 6) [7DE24179]
Track 19 accurately ripped (confidence 7) [A3B5F74E]
Track 20 accurately ripped (confidence 6) [53922DA9]
Track 21 accurately ripped (confidence 6) [7642908B]
Track 22 accurately ripped (confidence 6) [D6E47A02]
Track 23 accurately ripped (confidence 7) [8034F0E2]
Track 24 accurately ripped (confidence 6) [88DCA020]
Track 25 accurately ripped (confidence 6) [D6B07F67]
Track 26 accurately ripped (confidence 6) [D497FD1F]
Track 27 accurately ripped (confidence 6) [1C1F3836]
Track 28 accurately ripped (confidence 6) [05BF8512]
Track 29 accurately ripped (confidence 6) [97DEF60A]
All tracks accurately ripped
End of status report

CD12

Exact Audio Copy V0.99 prebeta 4 from 23. January 2008
EAC extraction logfile from 7. April 2010, 15:04
Garrick Ohlsson / Chopin: The Complete Works [Disc 12]
Used drive : ASUS DRW-1814BLT Adapter: 2 ID: 2
Read mode : Secure
Utilize accurate stream : Yes
Defeat audio cache : Yes
Make use of C2 pointers : No
Read offset correction : 6
Overread into Lead-In and Lead-Out : No
Fill up missing offset samples with silence : Yes
Delete leading and trailing silent blocks : No
Null samples used in CRC calculations : Yes
Used interface : Native Win32 interface for Win NT & 2000
Used output format : Internal WAV Routines
Sample format : 44.100 Hz; 16 Bit; Stereo
TOC of the extracted CD
Track | Start | Length | Start sector | End sector
---------------------------------------------------------
1 | 0:00.00 | 2:13.00 | 0 | 9974
2 | 2:13.00 | 3:24.12 | 9975 | 25286
3 | 5:37.12 | 4:54.62 | 25287 | 47398
4 | 10:31.74 | 4:20.01 | 47399 | 66899
5 | 14:52.00 | 1:37.69 | 66900 | 74243
6 | 16:29.69 | 6:14.33 | 74244 | 102326
7 | 22:44.27 | 4:05.58 | 102327 | 120759
8 | 26:50.10 | 2:48.06 | 120760 | 133365
9 | 29:38.16 | 3:26.72 | 133366 | 148887
10 | 33:05.13 | 2:17.68 | 148888 | 159230
11 | 35:23.06 | 1:52.18 | 159231 | 167648
12 | 37:15.24 | 2:13.12 | 167649 | 177635
13 | 39:28.36 | 2:19.51 | 177636 | 188111
14 | 41:48.12 | 3:29.39 | 188112 | 203825
15 | 45:17.51 | 1:14.07 | 203826 | 209382
16 | 46:31.58 | 2:01.23 | 209383 | 218480
17 | 48:33.06 | 1:25.15 | 218481 | 224870
18 | 49:58.21 | 2:43.37 | 224871 | 237132
19 | 52:41.58 | 1:26.53 | 237133 | 243635
20 | 54:08.36 | 2:42.13 | 243636 | 255798
21 | 56:50.49 | 1:42.38 | 255799 | 263486
22 | 58:33.12 | 2:05.02 | 263487 | 272863
23 | 60:38.14 | 1:07.09 | 272864 | 277897
24 | 61:45.23 | 1:24.03 | 277898 | 284200
25 | 63:09.26 | 1:21.49 | 284201 | 290324
26 | 64:31.00 | 1:08.08 | 290325 | 295432
27 | 65:39.08 | 2:27.22 | 295433 | 306479
28 | 68:06.30 | 1:18.57 | 306480 | 312386
Range status and errors
Selected range
Filename D:\EAC\Garrick Ohlsson - Chopin The Complete Works [Disc 12].wav
Peak level 97.7 %
Range quality 100.0 %
Copy CRC 96AD2A19
Copy OK
No errors occurred
AccurateRip summary
Track 1 accurately ripped (confidence 6) [CFDC9885]
Track 2 accurately ripped (confidence 6) [233B3722]
Track 3 accurately ripped (confidence 7) [266F921F]
Track 4 accurately ripped (confidence 6) [76928174]
Track 5 accurately ripped (confidence 6) [FAF8599A]
Track 6 accurately ripped (confidence 6) [B32B69E9]
Track 7 accurately ripped (confidence 6) [3A5C73E5]
Track 8 accurately ripped (confidence 6) [6DC35550]
Track 9 accurately ripped (confidence 6) [3FA1EDD4]
Track 10 accurately ripped (confidence 6) [F3049E59]
Track 11 accurately ripped (confidence 7) [4BD55B1F]
Track 12 accurately ripped (confidence 6) [217459D8]
Track 13 accurately ripped (confidence 6) [69AF4BB9]
Track 14 accurately ripped (confidence 6) [FCAC3481]
Track 15 accurately ripped (confidence 6) [E59F9F4B]
Track 16 accurately ripped (confidence 6) [AE0B4D79]
Track 17 accurately ripped (confidence 6) [768595FB]
Track 18 accurately ripped (confidence 6) [6CA7D4CB]
Track 19 accurately ripped (confidence 6) [0F178966]
Track 20 accurately ripped (confidence 7) [51BF6CA5]
Track 21 accurately ripped (confidence 7) [C3D851B3]
Track 22 accurately ripped (confidence 6) [C16F2E22]
Track 23 accurately ripped (confidence 6) [91255749]
Track 24 accurately ripped (confidence 6) [A5B5FA80]
Track 25 accurately ripped (confidence 6) [AF3D8881]
Track 26 accurately ripped (confidence 6) [C1885516]
Track 27 accurately ripped (confidence 6) [D19841C9]
Track 28 accurately ripped (confidence 6) [798CDF01]
All tracks accurately ripped
End of status report

CD13

Exact Audio Copy V0.99 prebeta 4 from 23. January 2008
EAC extraction logfile from 7. April 2010, 15:25
Garrick Ohlsson; Kazimierz Kord: Warsaw Philharmonic Orchestra / Chopin: The Complete Works [Disc 13]
Used drive : ASUS DRW-1814BLT Adapter: 2 ID: 2
Read mode : Secure
Utilize accurate stream : Yes
Defeat audio cache : Yes
Make use of C2 pointers : No
Read offset correction : 6
Overread into Lead-In and Lead-Out : No
Fill up missing offset samples with silence : Yes
Delete leading and trailing silent blocks : No
Null samples used in CRC calculations : Yes
Used interface : Native Win32 interface for Win NT & 2000
Used output format : Internal WAV Routines
Sample format : 44.100 Hz; 16 Bit; Stereo
TOC of the extracted CD
Track | Start | Length | Start sector | End sector
---------------------------------------------------------
1 | 0:00.00 | 14:31.25 | 0 | 65349
2 | 14:31.25 | 9:40.35 | 65350 | 108884
3 | 24:11.60 | 8:26.17 | 108885 | 146851
4 | 32:38.02 | 20:14.60 | 146852 | 237961
5 | 52:52.62 | 10:28.70 | 237962 | 285131
6 | 63:21.57 | 9:11.10 | 285132 | 326466
Range status and errors
Selected range
Filename D:\EAC\Garrick Ohlsson; Kazimierz Kord Warsaw Philharmonic Orchestra - Chopin The Complete Works [Disc 13].wav
Peak level 98.3 %
Range quality 100.0 %
Copy CRC 22C352A9
Copy OK
No errors occurred
AccurateRip summary
Track 1 accurately ripped (confidence 5) [778FE8D9]
Track 2 accurately ripped (confidence 5) [23D577C3]
Track 3 accurately ripped (confidence 5) [7DFCCB3B]
Track 4 accurately ripped (confidence 5) [63674978]
Track 5 accurately ripped (confidence 5) [E4335AA0]
Track 6 accurately ripped (confidence 5) [FAB5BF58]
All tracks accurately ripped
End of status report

CD14

Exact Audio Copy V0.99 prebeta 4 from 23. January 2008
EAC extraction logfile from 7. April 2010, 15:49
Garrick Ohlsson / Chopin: The Complete Works [Disc 14]
Used drive : ASUS DRW-1814BLT Adapter: 2 ID: 2
Read mode : Secure
Utilize accurate stream : Yes
Defeat audio cache : Yes
Make use of C2 pointers : No
Read offset correction : 6
Overread into Lead-In and Lead-Out : No
Fill up missing offset samples with silence : Yes
Delete leading and trailing silent blocks : No
Null samples used in CRC calculations : Yes
Used interface : Native Win32 interface for Win NT & 2000
Used output format : Internal WAV Routines
Sample format : 44.100 Hz; 16 Bit; Stereo
TOC of the extracted CD
Track | Start | Length | Start sector | End sector
---------------------------------------------------------
1 | 0:00.00 | 5:13.05 | 0 | 23479
2 | 5:13.05 | 1:29.60 | 23480 | 30214
3 | 6:42.65 | 1:06.40 | 30215 | 35204
4 | 7:49.30 | 1:03.62 | 35205 | 39991
5 | 8:53.17 | 1:28.40 | 39992 | 46631
6 | 10:21.57 | 1:16.38 | 46632 | 52369
7 | 11:38.20 | 7:10.12 | 52370 | 84631
8 | 18:48.32 | 14:59.63 | 84632 | 152119
9 | 33:48.20 | 14:24.30 | 152120 | 216949
10 | 48:12.50 | 4:39.00 | 216950 | 237874
11 | 52:51.50 | 9:30.70 | 237875 | 280694
Range status and errors
Selected range
Filename D:\EAC\Garrick Ohlsson - Chopin The Complete Works [Disc 14].wav
Peak level 90.3 %
Range quality 100.0 %
Copy CRC C0D73074
Copy OK
No errors occurred
AccurateRip summary
Track 1 accurately ripped (confidence 6) [33CCBCD3]
Track 2 accurately ripped (confidence 6) [254565BE]
Track 3 accurately ripped (confidence 6) [2108AFF3]
Track 4 accurately ripped (confidence 6) [BE9EC766]
Track 5 accurately ripped (confidence 6) [CD0024E0]
Track 6 accurately ripped (confidence 6) [951874A9]
Track 7 accurately ripped (confidence 6) [447D49A2]
Track 8 accurately ripped (confidence 6) [A2FB0769]
Track 9 accurately ripped (confidence 6) [39269694]
Track 10 accurately ripped (confidence 6) [D7DFA838]
Track 11 accurately ripped (confidence 6) [0D2D55BA]
All tracks accurately ripped
End of status report

CD15

Exact Audio Copy V0.99 prebeta 4 from 23. January 2008
EAC extraction logfile from 7. April 2010, 16:01
Garrick Ohlsson / Chopin: The Complete Works [Disc 15]
Used drive : ASUS DRW-1814BLT Adapter: 2 ID: 2
Read mode : Secure
Utilize accurate stream : Yes
Defeat audio cache : Yes
Make use of C2 pointers : No
Read offset correction : 6
Overread into Lead-In and Lead-Out : No
Fill up missing offset samples with silence : Yes
Delete leading and trailing silent blocks : No
Null samples used in CRC calculations : Yes
Used interface : Native Win32 interface for Win NT & 2000
Used output format : Internal WAV Routines
Sample format : 44.100 Hz; 16 Bit; Stereo
TOC of the extracted CD
Track | Start | Length | Start sector | End sector
---------------------------------------------------------
1 | 0:00.00 | 10:44.00 | 0 | 48299
2 | 10:44.00 | 5:08.46 | 48300 | 71445
3 | 15:52.46 | 3:58.53 | 71446 | 89348
4 | 19:51.24 | 5:59.28 | 89349 | 116301
5 | 25:50.52 | 9:28.64 | 116302 | 158965
6 | 35:19.41 | 14:18.34 | 158966 | 223349
7 | 49:38.00 | 7:49.28 | 223350 | 258552
8 | 57:27.28 | 7:23.05 | 258553 | 291782
9 | 64:50.33 | 6:11.31 | 291783 | 319638
10 | 71:01.64 | 5:11.34 | 319639 | 342997
Range status and errors
Selected range
Filename D:\EAC\Garrick Ohlsson - Chopin The Complete Works [Disc 15].wav
Peak level 96.6 %
Range quality 100.0 %
Copy CRC F94B506D
Copy OK
No errors occurred
AccurateRip summary
Track 1 accurately ripped (confidence 6) [DFC3DCDF]
Track 2 accurately ripped (confidence 6) [EB8A7E10]
Track 3 accurately ripped (confidence 6) [B85A65D6]
Track 4 accurately ripped (confidence 6) [C62368FB]
Track 5 accurately ripped (confidence 6) [905677F6]
Track 6 accurately ripped (confidence 6) [617E4FAA]
Track 7 accurately ripped (confidence 6) [AAF06ED1]
Track 8 accurately ripped (confidence 6) [112751A7]
Track 9 accurately ripped (confidence 6) [49F415E6]
Track 10 accurately ripped (confidence 6) [6AF15FA6]
All tracks accurately ripped
End of status report

CD16

Exact Audio Copy V0.99 prebeta 4 from 23. January 2008
EAC extraction logfile from 7. April 2010, 16:15
Garrick Ohlsson / Chopin: The Complete Works [Disc 16]
Used drive : ASUS DRW-1814BLT Adapter: 2 ID: 2
Read mode : Secure
Utilize accurate stream : Yes
Defeat audio cache : Yes
Make use of C2 pointers : No
Read offset correction : 6
Overread into Lead-In and Lead-Out : No
Fill up missing offset samples with silence : Yes
Delete leading and trailing silent blocks : No
Null samples used in CRC calculations : Yes
Used interface : Native Win32 interface for Win NT & 2000
Used output format : Internal WAV Routines
Sample format : 44.100 Hz; 16 Bit; Stereo
TOC of the extracted CD
Track | Start | Length | Start sector | End sector
---------------------------------------------------------
1 | 0:00.00 | 1:47.50 | 0 | 8074
2 | 1:47.50 | 2:22.06 | 8075 | 18730
3 | 4:09.56 | 3:16.19 | 18731 | 33449
4 | 7:26.00 | 2:31.68 | 33450 | 44842
5 | 9:57.68 | 1:17.74 | 44843 | 50691
6 | 11:15.67 | 3:26.00 | 50692 | 66141
7 | 14:41.67 | 2:41.17 | 66142 | 78233
8 | 17:23.09 | 3:01.57 | 78234 | 91865
9 | 20:24.66 | 2:45.12 | 91866 | 104252
10 | 23:10.03 | 2:10.26 | 104253 | 114028
11 | 25:20.29 | 1:46.46 | 114029 | 122024
12 | 27:07.00 | 2:03.48 | 122025 | 131297
13 | 29:10.48 | 5:31.60 | 131298 | 156182
14 | 34:42.33 | 1:58.46 | 156183 | 165078
15 | 36:41.04 | 2:25.73 | 165079 | 176026
16 | 39:07.02 | 2:09.20 | 176027 | 185721
17 | 41:16.22 | 4:43.65 | 185722 | 207011
18 | 46:00.12 | 2:45.21 | 207012 | 219407
19 | 48:45.33 | 1:23.42 | 219408 | 225674
20 | 50:09.00 | 7:24.42 | 225675 | 259016
Range status and errors
Selected range
Filename D:\EAC\Garrick Ohlsson - Chopin The Complete Works [Disc 16].wav
Peak level 97.7 %
Range quality 100.0 %
Copy CRC E4644441
Copy OK
No errors occurred
AccurateRip summary
Track 1 accurately ripped (confidence 6) [8E38C0FA]
Track 2 accurately ripped (confidence 6) [D1F75F2A]
Track 3 accurately ripped (confidence 6) [4F00FEE6]
Track 4 accurately ripped (confidence 6) [37AF501F]
Track 5 accurately ripped (confidence 6) [58772AC0]
Track 6 accurately ripped (confidence 6) [DD98AE5E]
Track 7 accurately ripped (confidence 6) [66A6A844]
Track 8 accurately ripped (confidence 6) [55FFD9B7]
Track 9 accurately ripped (confidence 6) [24A9D608]
Track 10 accurately ripped (confidence 6) [8E2E8E92]
Track 11 accurately ripped (confidence 6) [C79DE4CB]
Track 12 accurately ripped (confidence 6) [FB382D03]
Track 13 accurately ripped (confidence 6) [E0D71199]
Track 14 accurately ripped (confidence 6) [6CA448A1]
Track 15 accurately ripped (confidence 6) [D7D6CC8A]
Track 16 accurately ripped (confidence 6) [035B4BA7]
Track 17 accurately ripped (confidence 6) [46370723]
Track 18 accurately ripped (confidence 6) [791E589E]
Track 19 accurately ripped (confidence 6) [0C0D61FC]
Track 20 accurately ripped (confidence 6) [FEE8C098]
All tracks accurately ripped
End of status report
[teatrix.ru].t9793.torrent 
Торрент: Зарегистрирован [ 2015-10-23 17:26 ] · A51017DF179ECC1C6B23F365B5AAA83D9176EF4D

Скачать .torrent

Скачать

22 KB

Статус: проверено
Скачан: 1 раз
Размер: 3.42 GB
terms.php



Быстрый ответ

Имя:

      
Для отправки сообщений необходимо включить JavaScript
Показать сообщения:    

Текущее время: 03-Дек 07:40

Часовой пояс: UTC + 3


Вы можете начинать темы
Вы можете отвечать на сообщения
Вы не можете редактировать свои сообщения
Вы не можете удалять свои сообщения
Вы не можете голосовать в опросах
Вы не можете прикреплять файлы к сообщениям
Вы можете скачивать файлы