(Classical) Otmar Suitner - Legendary Recordings (Mozart, Bizet, Weber, Tchaikovsky / Чайковский, Lanner, Strauss, Suppe, Volkmann, Mahler, Hindemith, Stravinsky, Debussy) [10CD] - 2006, FLAC (image+.cue), lossless


Статистика раздачи [Обновить пиров]
Размер:  3.09 GB   |    Зарегистрирован:  1 год 1 месяц   |    Скачан:  0 раз

Полного источника не было: Никогда

Личеров:  1  [  0 KB/s  ]   Подробная статистика пиров
 
   
 
 
 

[Цитировать]

Otmar Suitner - Legendary Recordings (Mozart, Bizet, Weber, Tchaikovsky / Чайковский, Lanner, Strauss, Suppe, Volkmann, Mahler, Hindemith, Stravinsky, Debussy)
Жанр: Classical
Год выпуска диска: 2006
Производитель диска: Otmar Suitner Legendary Recordings
Аудио кодек: FLAC
Тип рипа: image+.cue
Битрейт аудио: lossless
Продолжительность: 63:18+66:28+73:41+78:07+72:50+50:50+76:50+56:00+75:37+65:50
Трэклист:

CD1

Wolfgang Amadeus Mozart
Symphony N 28 C-Dur KV200
1. Allegro spiritoso
2. Andante
3. Menuetto: Allegretto
4. Presto
Symphony N 29 A-Dur KV201
5. Allegro moderato
6. Andante
7. Menuetto
8. Allegro con spirito
Symphony N 30 D-Dur KV202
9. Molto allegro
10. Andantino con moto
11. Menuetto
12. Presto

CD2

Wolfgang Amadeus Mozart
Symphony N 31 D-Dur KV297 'Pariser'
1. Allegro assai
2. Andante
3. Allegro
Symphony N 32 G-Dur KV318
4. Allegro spiritoso - Andante
Symphony N 33 B-Dur KV319
5. Allegro assai
6. Andante moderato
7. Menuetto
8. Finale. Allegro assai
Symphony N 34 C-Dur KV338
9. Allegro vivace
10. Andante di molto
11. Finale. Allegro vivace

CD3

Wolfgang Amadeus Mozart
Symphony N 35 "Haffner"
1. Allegro con spirito
2. Andante
3. Menuetto
4. Finale. Presto
Symphony N 36 "Linz"
5. Adagio - Allegro spiritoso
6. Andante
7. Menuetto
8. Presto
Symphony N 38 "Prague"
9. Adagio - Allegro
10. Andante
11. Finale. Presto

CD4

Wolfgang Amadeus Mozart
Symphony N 39 Es-Dur KV 543
1. Adagio - Allegro
2. Andante Con Moto
3. Menuetto: Allegretto
4. Finale. Allegro
Symphony N 40 g-Moll KV 550
5. Molto Allegro
6. Andante
7. Menuetto: Allegretto
8. Allegro Assai
Symphony N 41 C-Dur KV 551 "Jupiter"
9. Allegro Vivace
10. Andante Cantabile
11. Menuetto: Allegretto
12. Finale. Molto Allegro

CD5

Wolfgang Amadeus Mozart
Serenade N 13 in G-Gur KV525 "Eine kleine Nachtmusik"
1. Allegro
2. Romanze. Andante
3. Menuetto. Allegretto
4. Rondo. Allegro
Serenade N 6 D-Dur KV239 "Serenata notturna"
5. Marcia. Maestoso
6. Menuetto
7. Rondo. Allegretto - Adagio - Allegro
Serenade N 2 F-Dur KV101
8. (Contre danse)
9. Andantino
10. (Presto)
11. (Gavotte)
Notturno D-Dur KV286
12. Andante
13. Allegretto grazioso
14. Menuetto
Mozart Ein musikalischer Spas F-Dur KV522
15. Allegro
16. Menuetto. Maestoso
17. Andante cantabile
18. Presto

CD6

Georges Bizet
Symphony in C major
1. Allegro-Allegrovivo
2. Andante-Adagio
3. Scherzo , Allegro vivace
4. Finale , Allegro vivace
Carl Maria von Weber
Symphony N 1 in C major
5. Allegro con fuoco
6. Andante
7. Scherzo , Presto
8. Finale , Presto

CD7

Peter Tchaikovsky
Serenade Op.48
1. Pezzo in forma di Sonatina
2. Walzer
3. Elegie
4. Finale (Tema Russo)
Joseph Lanner
5. Steyrische Tanze Op. 165
6. Die Schonbrunner Op.200
7. Hofballtanze Op.161
Josef Strauss
8. Pizzicato-Polka
9. Auf Ferienreisen Op.133
10. Frauenherz-Polka Op.166
11. Moulinet-Polka Op.57
12. Die Libelle Op.204
13. Feuerfest-Polka
14. Plappermaulchen

CD8

Franz von Suppe
1. Overture Die schone Galathee
2. Overture Dichter und Bauer
3. Overture Banditenstreiche
4. Overture Leichte Kavallerie
5. Overture Flotte Bursche
6. Overture Pique Dame
Robert Volkmann
Serenade N 2 Op.63
7. Allegro moderato
8. Molto vivace
9. Walzer: Allegro moderato
10. Marsch: Allegro marcato

CD9

Gustav Mahler
Symphony №1
1. Langsam. Schleppend
2. Kraftig bewegt
3. Feierlich gemessen, ohne zu schleppen
4. Sturmisch bewegt
Richard Strauss
5. Metamorphosen

CD10

Paul Hindemith
Sinfonische Metamorphosen
1. Allegro
2. Turandot. Scherzo-Moderato-Lebhaft
3. Andantino
4. Marsch
Igor Stravinsky
Le Sacre du Printemps
5. Adoraciуn de la Tierra
6. Sacrificio
Claude Debussy
7. Prelude а l'apres-midi d'un faune
Доп. информация:
Fritz Rucker - flute
Staatskapele Dresden
Conductor: Otmar Suitner

Отчёт EACCD1

Exact Audio Copy V0.99 prebeta 4 from 23. January 2008
EAC extraction logfile from 19. March 2010, 19:38
Staatskapelle Dresden & Otmar Suitner / Suitner conducts Mozart (Disc 1)
Used drive : ASUS DRW-1814BLT Adapter: 2 ID: 2
Read mode : Secure
Utilize accurate stream : Yes
Defeat audio cache : Yes
Make use of C2 pointers : No
Read offset correction : 6
Overread into Lead-In and Lead-Out : No
Fill up missing offset samples with silence : Yes
Delete leading and trailing silent blocks : No
Null samples used in CRC calculations : Yes
Used interface : Native Win32 interface for Win NT & 2000
Used output format : Internal WAV Routines
Sample format : 44.100 Hz; 16 Bit; Stereo
TOC of the extracted CD
Track | Start | Length | Start sector | End sector
---------------------------------------------------------
1 | 0:00.00 | 5:16.57 | 0 | 23756
2 | 5:16.57 | 5:50.74 | 23757 | 50080
3 | 11:07.56 | 4:11.27 | 50081 | 68932
4 | 15:19.08 | 3:47.67 | 68933 | 86024
5 | 19:07.00 | 8:46.09 | 86025 | 125483
6 | 27:53.09 | 7:24.12 | 125484 | 158795
7 | 35:17.21 | 3:58.11 | 158796 | 176656
8 | 39:15.32 | 5:45.46 | 176657 | 202577
9 | 45:01.03 | 6:18.72 | 202578 | 230999
10 | 51:20.00 | 4:11.73 | 231000 | 249897
11 | 55:31.73 | 4:03.35 | 249898 | 268157
12 | 59:35.33 | 3:42.10 | 268158 | 284817
Range status and errors
Selected range
Filename D:\EAC\Staatskapelle Dresden & Otmar Suitner - Suitner conducts Mozart (Disc 1).wav
Peak level 96.3 %
Range quality 100.0 %
Copy CRC EAC9FE99
Copy OK
No errors occurred
AccurateRip summary
Track 1 accurately ripped (confidence 3) [C8349AB2]
Track 2 accurately ripped (confidence 3) [71A541D3]
Track 3 accurately ripped (confidence 3) [96DCA8F3]
Track 4 accurately ripped (confidence 3) [81CCD7C6]
Track 5 accurately ripped (confidence 3) [F92ADF1E]
Track 6 accurately ripped (confidence 3) [E43CDAB9]
Track 7 accurately ripped (confidence 3) [5489ABC7]
Track 8 accurately ripped (confidence 3) [32224452]
Track 9 accurately ripped (confidence 3) [80BF6EA7]
Track 10 accurately ripped (confidence 3) [CD4BE9B9]
Track 11 accurately ripped (confidence 3) [56FFCCFA]
Track 12 accurately ripped (confidence 3) [9192CDDC]
All tracks accurately ripped
End of status report

CD2

Exact Audio Copy V0.99 prebeta 4 from 23. January 2008
EAC extraction logfile from 19. March 2010, 22:28
Staatskapelle Dresden & Otmar Suitner / Suitner conducts Mozart (Disc 2)
Used drive : ASUS DRW-1814BLT Adapter: 2 ID: 2
Read mode : Secure
Utilize accurate stream : Yes
Defeat audio cache : Yes
Make use of C2 pointers : No
Read offset correction : 6
Overread into Lead-In and Lead-Out : No
Fill up missing offset samples with silence : Yes
Delete leading and trailing silent blocks : No
Null samples used in CRC calculations : Yes
Used interface : Native Win32 interface for Win NT & 2000
Used output format : Internal WAV Routines
Sample format : 44.100 Hz; 16 Bit; Stereo
TOC of the extracted CD
Track | Start | Length | Start sector | End sector
---------------------------------------------------------
1 | 0:00.00 | 7:03.33 | 0 | 31757
2 | 7:03.33 | 5:56.32 | 31758 | 58489
3 | 12:59.65 | 3:52.32 | 58490 | 75921
4 | 16:52.22 | 8:37.32 | 75922 | 114728
5 | 25:29.54 | 7:23.66 | 114729 | 148019
6 | 32:53.45 | 4:58.52 | 148020 | 170421
7 | 37:52.22 | 2:57.69 | 170422 | 183765
8 | 40:50.16 | 7:03.12 | 183766 | 215502
9 | 47:53.28 | 7:10.64 | 215503 | 247816
10 | 55:04.17 | 7:04.55 | 247817 | 279671
11 | 62:08.72 | 4:18.57 | 279672 | 299078
Range status and errors
Selected range
Filename D:\EAC\Staatskapelle Dresden & Otmar Suitner - Suitner conducts Mozart (Disc 2).wav
Peak level 99.0 %
Range quality 100.0 %
Copy CRC 72EE8CC7
Copy OK
No errors occurred
AccurateRip summary
Track 1 accurately ripped (confidence 3) [F4620DD2]
Track 2 accurately ripped (confidence 3) [AF1D6757]
Track 3 accurately ripped (confidence 3) [4451B6E2]
Track 4 accurately ripped (confidence 3) [03B018E6]
Track 5 accurately ripped (confidence 3) [6DC8263C]
Track 6 accurately ripped (confidence 3) [60685B1E]
Track 7 accurately ripped (confidence 3) [94B03503]
Track 8 accurately ripped (confidence 3) [0ACB18E0]
Track 9 accurately ripped (confidence 3) [48D37255]
Track 10 accurately ripped (confidence 3) [FA27F466]
Track 11 accurately ripped (confidence 3) [58D8FBBF]
All tracks accurately ripped
End of status report

CD3

Exact Audio Copy V0.99 prebeta 4 from 23. January 2008
EAC extraction logfile from 20. March 2010, 19:16
Staatskapelle Dresden & Otmar Suitner / Suitner conducts Mozart (Disc 3)
Used drive : ASUS DRW-1814BLT Adapter: 2 ID: 2
Read mode : Secure
Utilize accurate stream : Yes
Defeat audio cache : Yes
Make use of C2 pointers : No
Read offset correction : 6
Overread into Lead-In and Lead-Out : No
Fill up missing offset samples with silence : Yes
Delete leading and trailing silent blocks : No
Null samples used in CRC calculations : Yes
Used interface : Native Win32 interface for Win NT & 2000
Used output format : Internal WAV Routines
Sample format : 44.100 Hz; 16 Bit; Stereo
TOC of the extracted CD
Track | Start | Length | Start sector | End sector
---------------------------------------------------------
1 | 0:00.00 | 4:55.66 | 0 | 22190
2 | 4:55.66 | 4:29.69 | 22191 | 42434
3 | 9:25.60 | 3:30.39 | 42435 | 58223
4 | 12:56.24 | 3:58.14 | 58224 | 76087
5 | 16:54.38 | 10:25.09 | 76088 | 122971
6 | 27:19.47 | 7:43.52 | 122972 | 157748
7 | 35:03.24 | 4:02.62 | 157749 | 175960
8 | 39:06.11 | 7:52.24 | 175961 | 211384
9 | 46:58.35 | 11:58.37 | 211385 | 265271
10 | 58:56.72 | 8:47.59 | 265272 | 304855
11 | 67:44.56 | 5:55.53 | 304856 | 331533
Range status and errors
Selected range
Filename D:\EAC\Staatskapelle Dresden & Otmar Suitner - Suitner conducts Mozart (Disc 3).wav
Peak level 99.2 %
Range quality 99.9 %
Copy CRC 460EA456
Copy OK
No errors occurred
AccurateRip summary
Track 1 accurately ripped (confidence 3) [BF0214EC]
Track 2 accurately ripped (confidence 3) [24D64E36]
Track 3 accurately ripped (confidence 3) [1779BF8A]
Track 4 accurately ripped (confidence 3) [34100401]
Track 5 accurately ripped (confidence 3) [4BC7A194]
Track 6 accurately ripped (confidence 3) [2C9F32A9]
Track 7 accurately ripped (confidence 3) [680A5203]
Track 8 accurately ripped (confidence 3) [4FAF689D]
Track 9 accurately ripped (confidence 3) [12B2C1B5]
Track 10 accurately ripped (confidence 3) [3329A25C]
Track 11 accurately ripped (confidence 3) [44C5A8FB]
All tracks accurately ripped
End of status report

CD4

Exact Audio Copy V0.99 prebeta 4 from 23. January 2008
EAC extraction logfile from 20. March 2010, 21:24
W. A. Mozart / "Jupiter" (Symphonien Nr. 39-41) (Berlin-Classics)
Used drive : ASUS DRW-1814BLT Adapter: 2 ID: 2
Read mode : Secure
Utilize accurate stream : Yes
Defeat audio cache : Yes
Make use of C2 pointers : No
Read offset correction : 6
Overread into Lead-In and Lead-Out : No
Fill up missing offset samples with silence : Yes
Delete leading and trailing silent blocks : No
Null samples used in CRC calculations : Yes
Used interface : Native Win32 interface for Win NT & 2000
Used output format : Internal WAV Routines
Sample format : 44.100 Hz; 16 Bit; Stereo
TOC of the extracted CD
Track | Start | Length | Start sector | End sector
---------------------------------------------------------
1 | 0:00.00 | 8:23.54 | 0 | 37778
2 | 8:23.54 | 8:03.27 | 37779 | 74030
3 | 16:27.06 | 4:00.73 | 74031 | 92103
4 | 20:28.04 | 4:01.46 | 92104 | 110224
5 | 24:29.50 | 8:07.52 | 110225 | 146801
6 | 32:37.27 | 7:32.55 | 146802 | 180756
7 | 40:10.07 | 4:45.63 | 180757 | 202194
8 | 44:55.70 | 4:55.13 | 202195 | 224332
9 | 49:51.08 | 7:41.21 | 224333 | 258928
10 | 57:32.29 | 8:11.12 | 258929 | 295765
11 | 65:43.41 | 4:13.51 | 295766 | 314791
12 | 69:57.17 | 8:09.40 | 314792 | 351506
Range status and errors
Selected range
Filename D:\EAC\W. A. Mozart - Jupiter (Symphonien Nr. 39-41) (Berlin-Classics).wav
Peak level 99.0 %
Range quality 99.9 %
Copy CRC CDC4AD66
Copy OK
No errors occurred
AccurateRip summary
Track 1 accurately ripped (confidence 4) [42304C7F]
Track 2 accurately ripped (confidence 4) [29AFCA0B]
Track 3 accurately ripped (confidence 4) [FBA33DAA]
Track 4 accurately ripped (confidence 4) [CFF7ABA1]
Track 5 accurately ripped (confidence 4) [E79C87AF]
Track 6 accurately ripped (confidence 4) [C744178B]
Track 7 accurately ripped (confidence 4) [F2DF4123]
Track 8 accurately ripped (confidence 4) [136C633A]
Track 9 accurately ripped (confidence 4) [AB8C8460]
Track 10 accurately ripped (confidence 4) [32961A39]
Track 11 accurately ripped (confidence 4) [AE4DB7B4]
Track 12 accurately ripped (confidence 3) [DB58BDB9]
All tracks accurately ripped
End of status report

CD5

Exact Audio Copy V0.99 prebeta 4 from 23. January 2008
EAC extraction logfile from 20. March 2010, 22:54
Staatskapelle Dresden / Suitner conducts Mozart (Disc 5)
Used drive : ASUS DRW-1814BLT Adapter: 2 ID: 2
Read mode : Secure
Utilize accurate stream : Yes
Defeat audio cache : Yes
Make use of C2 pointers : No
Read offset correction : 6
Overread into Lead-In and Lead-Out : No
Fill up missing offset samples with silence : Yes
Delete leading and trailing silent blocks : No
Null samples used in CRC calculations : Yes
Used interface : Native Win32 interface for Win NT & 2000
Used output format : Internal WAV Routines
Sample format : 44.100 Hz; 16 Bit; Stereo
TOC of the extracted CD
Track | Start | Length | Start sector | End sector
---------------------------------------------------------
1 | 0:00.00 | 4:32.72 | 0 | 20471
2 | 4:32.72 | 5:59.35 | 20472 | 47431
3 | 10:32.32 | 2:17.70 | 47432 | 57776
4 | 12:50.27 | 3:57.65 | 57777 | 75616
5 | 16:48.17 | 4:17.35 | 75617 | 94926
6 | 21:05.52 | 4:12.28 | 94927 | 113854
7 | 25:18.05 | 4:39.55 | 113855 | 134834
8 | 29:57.60 | 1:09.07 | 134835 | 140016
9 | 31:06.67 | 1:48.05 | 140017 | 148121
10 | 32:54.72 | 2:17.60 | 148122 | 158456
11 | 35:12.57 | 1:30.45 | 158457 | 165251
12 | 36:43.27 | 4:44.00 | 165252 | 186551
13 | 41:27.27 | 2:52.20 | 186552 | 199471
14 | 44:19.47 | 7:12.25 | 199472 | 231896
15 | 51:31.72 | 3:26.48 | 231897 | 247394
16 | 54:58.45 | 6:41.55 | 247395 | 277524
17 | 61:40.25 | 5:48.62 | 277525 | 303686
18 | 67:29.12 | 5:18.65 | 303687 | 327601
Range status and errors
Selected range
Filename D:\EAC\Staatskapelle Dresden - Suitner conducts Mozart (Disc 5).wav
Peak level 99.4 %
Range quality 100.0 %
Copy CRC 4A14D0DC
Copy OK
No errors occurred
AccurateRip summary
Track 1 accurately ripped (confidence 2) [79FF437B]
Track 2 accurately ripped (confidence 2) [8DD16544]
Track 3 accurately ripped (confidence 2) [764C2C84]
Track 4 accurately ripped (confidence 2) [C70AC0A3]
Track 5 accurately ripped (confidence 2) [F0EDE156]
Track 6 accurately ripped (confidence 2) [F12BB066]
Track 7 accurately ripped (confidence 2) [E51BC07F]
Track 8 accurately ripped (confidence 2) [05C54B1E]
Track 9 accurately ripped (confidence 2) [B4D2B50E]
Track 10 accurately ripped (confidence 2) [F81CA0B2]
Track 11 accurately ripped (confidence 2) [9C657D0E]
Track 12 accurately ripped (confidence 2) [8079D4C4]
Track 13 accurately ripped (confidence 2) [0C7F63ED]
Track 14 accurately ripped (confidence 2) [B9EB3154]
Track 15 accurately ripped (confidence 2) [CC46EC30]
Track 16 accurately ripped (confidence 2) [6AF14CC7]
Track 17 accurately ripped (confidence 2) [345E6400]
Track 18 accurately ripped (confidence 2) [4A0EFFDD]
All tracks accurately ripped
End of status report

CD6

Exact Audio Copy V0.99 prebeta 4 from 23. January 2008
EAC extraction logfile from 21. March 2010, 8:39
Staatskapelle Dresden < Otmar Suitner > / Bizet & Weber : Symphonie Nr.1
Used drive : ASUS DRW-1814BLT Adapter: 2 ID: 2
Read mode : Secure
Utilize accurate stream : Yes
Defeat audio cache : Yes
Make use of C2 pointers : No
Read offset correction : 6
Overread into Lead-In and Lead-Out : No
Fill up missing offset samples with silence : Yes
Delete leading and trailing silent blocks : No
Null samples used in CRC calculations : Yes
Used interface : Native Win32 interface for Win NT & 2000
Used output format : Internal WAV Routines
Sample format : 44.100 Hz; 16 Bit; Stereo
TOC of the extracted CD
Track | Start | Length | Start sector | End sector
---------------------------------------------------------
1 | 0:00.00 | 7:53.17 | 0 | 35491
2 | 7:53.17 | 9:28.25 | 35492 | 78116
3 | 17:21.42 | 4:36.73 | 78117 | 98889
4 | 21:58.40 | 6:12.17 | 98890 | 126806
5 | 28:10.57 | 7:50.70 | 126807 | 162126
6 | 36:01.52 | 6:12.60 | 162127 | 190086
7 | 42:14.37 | 3:48.18 | 190087 | 207204
8 | 46:02.55 | 4:45.10 | 207205 | 228589
Range status and errors
Selected range
Filename D:\EAC\Staatskapelle Dresden Otmar Suitner - Bizet & Weber Symphonie Nr.1.wav
Peak level 98.0 %
Range quality 100.0 %
Copy CRC 6E88FF96
Copy OK
No errors occurred
AccurateRip summary
Track 1 accurately ripped (confidence 1) [C32F2B26]
Track 2 accurately ripped (confidence 1) [ABDED552]
Track 3 accurately ripped (confidence 1) [44253B02]
Track 4 accurately ripped (confidence 1) [73E8119E]
Track 5 accurately ripped (confidence 1) [2E052A13]
Track 6 accurately ripped (confidence 1) [5874B821]
Track 7 accurately ripped (confidence 1) [DE461362]
Track 8 accurately ripped (confidence 1) [F07221B5]
All tracks accurately ripped
End of status report

CD7

Exact Audio Copy V0.99 prebeta 4 from 23. January 2008
EAC extraction logfile from 21. March 2010, 10:37
Staatskapelle Dresden & Otmar Suitner / Suitner conducts Mozart (Disc 7)
Used drive : ASUS DRW-1814BLT Adapter: 2 ID: 2
Read mode : Secure
Utilize accurate stream : Yes
Defeat audio cache : Yes
Make use of C2 pointers : No
Read offset correction : 6
Overread into Lead-In and Lead-Out : No
Fill up missing offset samples with silence : Yes
Delete leading and trailing silent blocks : No
Null samples used in CRC calculations : Yes
Used interface : Native Win32 interface for Win NT & 2000
Used output format : Internal WAV Routines
Sample format : 44.100 Hz; 16 Bit; Stereo
TOC of the extracted CD
Track | Start | Length | Start sector | End sector
---------------------------------------------------------
1 | 0:00.00 | 9:48.60 | 0 | 44159
2 | 9:48.60 | 4:07.23 | 44160 | 62707
3 | 13:56.08 | 9:19.07 | 62708 | 104639
4 | 23:15.15 | 7:45.36 | 104640 | 139550
5 | 31:00.51 | 6:31.19 | 139551 | 168894
6 | 37:31.70 | 7:15.22 | 168895 | 201541
7 | 44:47.17 | 7:42.39 | 201542 | 236230
8 | 52:29.56 | 3:05.61 | 236231 | 250166
9 | 55:35.42 | 2:22.64 | 250167 | 260880
10 | 57:58.31 | 4:53.62 | 260881 | 282917
11 | 62:52.18 | 2:56.65 | 282918 | 296182
12 | 65:49.08 | 4:53.39 | 296183 | 318196
13 | 70:42.47 | 2:58.26 | 318197 | 331572
14 | 73:40.73 | 3:08.04 | 331573 | 345676
Range status and errors
Selected range
Filename D:\EAC\Staatskapelle Dresden & Otmar Suitner - Suitner conducts Mozart (Disc 7).wav
Peak level 98.3 %
Range quality 100.0 %
Copy CRC F69F3CE8
Copy OK
No errors occurred
AccurateRip summary
Track 1 accurately ripped (confidence 1) [0245B62B]
Track 2 accurately ripped (confidence 1) [60D31F52]
Track 3 accurately ripped (confidence 1) [9351CD4C]
Track 4 accurately ripped (confidence 1) [E8647B2D]
Track 5 accurately ripped (confidence 1) [E18F19E3]
Track 6 accurately ripped (confidence 1) [F8FF097C]
Track 7 accurately ripped (confidence 1) [13025AFE]
Track 8 accurately ripped (confidence 1) [20D6FC4D]
Track 9 accurately ripped (confidence 1) [ED8FDD7A]
Track 10 accurately ripped (confidence 1) [A9405BFF]
Track 11 accurately ripped (confidence 1) [461D350B]
Track 12 accurately ripped (confidence 1) [40F9813F]
Track 13 accurately ripped (confidence 1) [EB702B3A]
Track 14 accurately ripped (confidence 1) [0650B660]
All tracks accurately ripped
End of status report

CD8

Exact Audio Copy V0.99 prebeta 4 from 23. January 2008
EAC extraction logfile from 21. March 2010, 13:46
Otmar Suitner - Staatskapelle Dresden / Suitner conducts Suppe, Volkmann (Disk 8)
Used drive : ASUS DRW-1814BLT Adapter: 2 ID: 2
Read mode : Secure
Utilize accurate stream : Yes
Defeat audio cache : Yes
Make use of C2 pointers : No
Read offset correction : 6
Overread into Lead-In and Lead-Out : No
Fill up missing offset samples with silence : Yes
Delete leading and trailing silent blocks : No
Null samples used in CRC calculations : Yes
Used interface : Native Win32 interface for Win NT & 2000
Used output format : Internal WAV Routines
Sample format : 44.100 Hz; 16 Bit; Stereo
TOC of the extracted CD
Track | Start | Length | Start sector | End sector
---------------------------------------------------------
1 | 0:00.00 | 6:50.08 | 0 | 30757
2 | 6:50.08 | 9:17.08 | 30758 | 72540
3 | 16:07.16 | 6:19.28 | 72541 | 100993
4 | 22:26.44 | 7:13.43 | 100994 | 133511
5 | 29:40.12 | 5:47.13 | 133512 | 159549
6 | 35:27.25 | 7:35.27 | 159550 | 193701
7 | 43:02.52 | 5:52.31 | 193702 | 220132
8 | 48:55.08 | 2:30.63 | 220133 | 231445
9 | 51:25.71 | 2:12.54 | 231446 | 241399
10 | 53:38.50 | 2:21.22 | 241400 | 251996
Range status and errors
Selected range
Filename D:\EAC\Otmar Suitner - Staatskapelle Dresden - Suitner conducts Suppe, Volkmann (Disk 8).wav
Peak level 99.1 %
Range quality 100.0 %
Copy CRC CE1BEFF6
Copy OK
No errors occurred
AccurateRip summary
Track 1 accurately ripped (confidence 1) [B63A8EB9]
Track 2 accurately ripped (confidence 1) [FEEBD4FA]
Track 3 accurately ripped (confidence 1) [189BEA7A]
Track 4 accurately ripped (confidence 1) [78C87657]
Track 5 accurately ripped (confidence 1) [A8A5446B]
Track 6 accurately ripped (confidence 1) [EF1E9E9B]
Track 7 accurately ripped (confidence 1) [FA6F8340]
Track 8 accurately ripped (confidence 1) [FD14D78E]
Track 9 accurately ripped (confidence 1) [54C5ED64]
Track 10 accurately ripped (confidence 1) [24EC0029]
All tracks accurately ripped
End of status report

CD9

Exact Audio Copy V0.99 prebeta 4 from 23. January 2008
EAC extraction logfile from 21. March 2010, 14:52
Otmar Suitner - Staatskapelle Dresden / Suitner conducts Mahler, Strauss (Disk 9)
Used drive : ASUS DRW-1814BLT Adapter: 2 ID: 2
Read mode : Secure
Utilize accurate stream : Yes
Defeat audio cache : Yes
Make use of C2 pointers : No
Read offset correction : 6
Overread into Lead-In and Lead-Out : No
Fill up missing offset samples with silence : Yes
Delete leading and trailing silent blocks : No
Null samples used in CRC calculations : Yes
Used interface : Native Win32 interface for Win NT & 2000
Used output format : Internal WAV Routines
Sample format : 44.100 Hz; 16 Bit; Stereo
TOC of the extracted CD
Track | Start | Length | Start sector | End sector
---------------------------------------------------------
1 | 0:00.00 | 13:28.15 | 0 | 60614
2 | 13:28.15 | 8:11.10 | 60615 | 97449
3 | 21:39.25 | 10:28.37 | 97450 | 144586
4 | 32:07.62 | 19:06.44 | 144587 | 230580
5 | 51:14.31 | 24:27.46 | 230581 | 340651
Range status and errors
Selected range
Filename D:\EAC\Otmar Suitner - Staatskapelle Dresden - Suitner conducts Mahler, Strauss (Disk 9).wav
Peak level 99.0 %
Range quality 100.0 %
Copy CRC 256F81A3
Copy OK
No errors occurred
AccurateRip summary
Track 1 accurately ripped (confidence 1) [0A664B0C]
Track 2 accurately ripped (confidence 1) [73D0165B]
Track 3 accurately ripped (confidence 1) [684EADB9]
Track 4 accurately ripped (confidence 1) [B679615A]
Track 5 accurately ripped (confidence 1) [54553F88]
All tracks accurately ripped
End of status report

CD10

Exact Audio Copy V0.99 prebeta 4 from 23. January 2008
EAC extraction logfile from 21. March 2010, 16:44
Otmar Suitner - Staatskapelle Dresden / Suitner conducts Hindemith, Stravinsky, Debussy(Disk 10)
Used drive : ASUS DRW-1814BLT Adapter: 2 ID: 2
Read mode : Secure
Utilize accurate stream : Yes
Defeat audio cache : Yes
Make use of C2 pointers : No
Read offset correction : 6
Overread into Lead-In and Lead-Out : No
Fill up missing offset samples with silence : Yes
Delete leading and trailing silent blocks : No
Null samples used in CRC calculations : Yes
Used interface : Native Win32 interface for Win NT & 2000
Used output format : Internal WAV Routines
Sample format : 44.100 Hz; 16 Bit; Stereo
TOC of the extracted CD
Track | Start | Length | Start sector | End sector
---------------------------------------------------------
1 | 0:00.00 | 4:20.57 | 0 | 19556
2 | 4:20.57 | 7:50.40 | 19557 | 54846
3 | 12:11.22 | 4:12.33 | 54847 | 73779
4 | 16:23.55 | 4:25.08 | 73780 | 93662
5 | 20:48.63 | 16:52.60 | 93663 | 169622
6 | 37:41.48 | 18:40.60 | 169623 | 253682
7 | 56:22.33 | 9:27.14 | 253683 | 296221
Range status and errors
Selected range
Filename D:\EAC\Otmar Suitner - Staatskapelle Dresden - Suitner conducts Hindemith, Stravinsky, Debussy(Disk 10).wav
Peak level 99.4 %
Range quality 100.0 %
Copy CRC 7CCC7EFE
Copy OK
No errors occurred
AccurateRip summary
Track 1 accurately ripped (confidence 1) [81C70344]
Track 2 accurately ripped (confidence 1) [53D37F3A]
Track 3 accurately ripped (confidence 1) [FC051FD5]
Track 4 accurately ripped (confidence 1) [BF482626]
Track 5 accurately ripped (confidence 1) [52D18D3E]
Track 6 accurately ripped (confidence 1) [606CE158]
Track 7 accurately ripped (confidence 1) [53A8C9FB]
All tracks accurately ripped
End of status report
Otmar Suitner - Legendary Recordings (Bruckner - Symph. 1, 4, 5, 7, 8; Mahler - Symph. 2, 5; Reger, Wolf, Pfitzner, Strauss, Weber, Grieg)
[teatrix.ru].t9794.torrent 
Торрент: Зарегистрирован [ 2015-10-23 17:26 ] · 38EE8735BE4624204EBEE1F5A0D8BA7332B2C244

Скачать .torrent

Скачать

20 KB

Статус: проверено
Скачан: 0 раз
Размер: 3.09 GB
terms.php



Быстрый ответ

Имя:

      
Для отправки сообщений необходимо включить JavaScript
Показать сообщения:    

Текущее время: 08-Дек 19:10

Часовой пояс: UTC + 3


Вы можете начинать темы
Вы можете отвечать на сообщения
Вы не можете редактировать свои сообщения
Вы не можете удалять свои сообщения
Вы не можете голосовать в опросах
Вы не можете прикреплять файлы к сообщениям
Вы можете скачивать файлы