(Classical / Violin) Victor Pikaizen violin solo / Виктор Пикайзен - скрипка соло {Johann Sebastian Bach / Бах, Paganini / Паганини, Мострас, Хачатурян, Левитин, Вайнберг} - 2006, FLAC (image+.cue), lossless


Статистика раздачи [Обновить пиров]
Размер:  1.67 GB   |    Зарегистрирован:  1 год 1 месяц   |    Скачан:  0 раз

Полного источника не было: Никогда

Личеров:  1  [  0 KB/s  ]   Подробная статистика пиров
 
   
 
 
 

[Цитировать]

Victor Pikaizen violin solo
Жанр: Classical / скрипка
Год выпуска диска: 2006
Производитель диска: Россия (Мелодия)
Аудио кодек: FLAC
Тип рипа: image+.cue
Битрейт аудио: lossless
Продолжительность: 5CD, 05:36:33
Содержание:
Johann Sebastian Bach (1685 - 1750)
Sonatas Nos. 1-3 for violin solo
Partitas Nos. 1-3 for violin solo
Niccolò Paganini (1782 - 1840)
24 caprices for violin solo, Op. 1
Introduction and Variations on «God Save The King» (Haendel)
Variations on «Pria ch'io l'impegno» (Veigl)
Introduction and Variations on «Non più mesta» from Rossini's «La Cenerentola»
Konstantin Mostras (1886 - 1965)
«Caprice» (Recitativ and Toccata)
Aram Khachaturian (1903 - 1978)
Sonata-monologue for violin solo
Yury Levitin (1912 - 1993)
Variations , Op. 45
Moisei Vainberg (1919 - 1996)
Sonata No. 3 for violin solo, Op. 126
Доп. информация: В составе торрента также сканы всего содержимого.
Трэклист:

CD1: J.S. Bach - Sonatas №№1-3 for violin solo

Johann Sebastian Bach (1685 - 1750)
Sonata №1 for violin solo in G minor B.1001
1. Adagio (5:03)
2. Fuga (6:29)
3. Siciliana (4:18)
4. Presto (3:15)
Sonata №2 for violin solo in A minor B.1003
5. Grave (5:12)
6. Fuga (9:29)
7. Andante (7:07)
8. Allegro (4:20)
Sonata №3 for violin solo in C major B.1005
9. Adagio (6:23)
10. Fuga (12:29)
11. Largo (4:18)
12. Allegro (4:23)

CD2: J.S. Bach - Partitas №№1-2 for violin solo

J.S. Bach (1685 - 1750)
Partita №1 for violin solo in H minor B.1002
1. Allemande (5:54)
2. Double (2:22)
3. Courante (3:10)
4. Double (3:19)
5. Sarabande (3:10)
6. Double (1:28)
7. Tempo di Bourrée (2:44)
8. Double (3:01)
Partita №2 for violin solo in D minor B.1004
9. Allemande (5:32)
10. Courante (2:11)
11. Sarabande (5:16)
12. Gigue (3:45)
13. Chaconne (17:37)

CD3: Bach - Partita №3, Khachaturian, Levitin, Vainberg

Johann Sebastian Bach (1685 - 1750)
Partita №3 for violin solo in E major B.1006
1. Preludio (4:25)
2. Loure (4:35)
3. Gavotte en Rondeau (3:26)
4. Menuetto I e II (5:07)
5. Bourrée (1:36)
6. Giga (2:09)
Aram Khachaturian (1903 - 1978)
Sonata-monologue for violin solo (1975)
7. Allegro non troppo (6:39)
8. Allegro agitato (6:50)
9. Allegro mosso (2:48)
Yury Levitin (1912 - 1993)
10. Variations op.45 (9:43)
Moisei Vainberg (1919 - 1996)
11. Sonata №3 for violin solo op.126 (23:15)

CD4: Paganini - caprices №№1-20 for violin solo op.1

Niccolò Paganini (1782 - 1840)
1. Caprice №1 E major (2:05)
2. Caprice №2 H minor (2:48)
3. Caprice №3 E minor (3:02)
4. Caprice №4 C minor (7:09)
5. Caprice №5 A minor (2:46)
6. Caprice №6 G minor (6:41)
7. Caprice №7 A minor (4:19)
8. Caprice №8 E flat major (3:36)
9. Caprice №9 E major (2:43)
10. Caprice №10 G minor (2:24)
11. Caprice №11 C major (4:52)
12. Caprice №12 A flat major (2:29)
13. Caprice №13 H flat major (2:29)
14. Caprice №14 E flat major (1:34)
15. Caprice №15 E minor (3:31)
16. Caprice №16 G minor (1:51)
17. Caprice №17 E flat major (4:14)
18. Caprice №18 C major (3:00)
19. Caprice №19 E flat major (3:27)
20. Caprice №20 D major (4:24)

CD5: Paganini - caprices №№21-24 & other, Mostras

Niccolò Paganini (1782 - 1840)
1. Caprice №21 A major (4:04)
2. Caprice №22 F major (2:58)
3. Caprice №23 E flat major (3:54)
4. Caprice №24 A minor (5:30)
5. Introduction and Variations on «God Save The King» (Haendel) (15:33)
6. Variations on «Pria ch'io l'impegno» (Veigl) (10:38)
7. Introduction and Variations on «Non più mesta» from Rossini's «La Cenerentola» (13:41)
Konstantin Mostras (1886 - 1965)
8. «Caprice» (Recitativ and Toccata) (4:57)
Кое-что интересное:

Виктор Пикайзен

Немногим выпадает высокая честь — играть на инструменте, при­надлежащем великому Паганини. Этого права удостоился в 1965 г. заме­чательный скрипач Виктор Пикайзен после конкурсной победы на родине итальянского виртуоза. К тому време­ни за его плечами был почти двадцати­летний артистический путь, хотя ему тогда едва минуло тридцать лет.
Виктор Пикайзен родился в 1933 году в Киеве. Уже в раннем дет­стве проявились его незаурядные музыкальные данные. Рано началась и артистическая деятельность. В 9-летнем возрасте он играл в сопро­вождении симфонического оркестра, а через два года начались и его успеш­ные сольные выступления — сначала в Киеве, а затем в Москве. Особенное восхищение вызывали виртуозные данные юного скрипача. На его великолепные возможности обратил внимание выдающийся педагог и музыкант Давид Федорович Ойстрах. Под его руководством в Московской консерватории и в аспирантуре фор­мировался творческий облик артиста. Ойстрах не ошибся, предсказывая сво­ему ученику большое будущее.
С конца 40-х гг. начинаются конкурсные выступлениея Виктора Пикайзена. В 16 лет он становится лауреатом Международного конкурса им. Яна Кубелика в Праге (1949), а за период учебы в консерватории триж­ды завоевывает звание лауреата - на Международных конкурсах имени бельгийской королевы Елизаветы в Брюсселе (1955), имени М. Лонг и Ж. Тибо в Париже (1957) и имени П.И. Чайковского в Москве (1958). Своеобразным подведением итогов конкурсных завоеваний стала триум­фальная победа на конкурсе имени Н. Паганини в Генуе (1965).
Виктор Пикайзен - интенсивно концертирующий артист. С неизмен­ным успехом проходили его гастроли за рубежом: в Англии, Франции, Ита­лии, Голландии, Швеции, ГДР, Чехо­словакии, Югославии, ФРГ, Японии, странах Латинской Америки, во Вьет­наме. Отечественная и зарубежная пресса называла Пикайзена одним из лучших скрипачей России, блиста­тельным виртуозом, глубоким и мно­гогранным музыкантом. Если в юно­сти он покорял слушателей прежде всего ошеломляющей виртуозностью, темпераментной непосредственнос­тью, то теперь в его игре безупречное мастерство сочетается с поэтической одухотворенностью, логической цель­ностью исполнительских замыслов.
С 1957 года Виктор Пикайзен является солистом Московской филармонии. В 1966-1986 гг. препода­вал в Московской консерватории.
Обширный и разнообразный репертуар скрипача включает произ­ведения русской и зарубежной класси­ческой музыки, произведения совре­менных композиторов. Глубокое впе­чатление производит на слушателей интерпретация бессмертных шедевров Баха, Моцарта, Бетховена, Шуберта, Брамса, Грига, Бартока, Чайковского. Исполнительскому искусству Пикайзена присуще в высшей степени чувство формы, умение единым взглядом охва­тить монументальные полотна. Ярко и масштабно трактует он скрипичные концерты Баха, Бетховена, Брамса, Чайковского, Паганини, Венявско-го, Сибелиуса. Значительное место в репертуаре исполнителя принадлежит сочинениям современных авторов. Тонко чувствующий особенности современной музыки, ее интеллекту­альную насыщенность, Пикайзен, по общему признанию, является одним из лучших исполнителей концертов Прокофьева и Шостаковича, Хачату­ряна и Хренникова, Кабалевского и Б. Чайковского. В 1969 году за записи произведений Н. Паганини француз­ская фирма «Шан дю монд» наградила его «Гран При».
За большие заслуги в развитии скрипичного искусства Виктор Пикайзен удостоен в 1989 г. почетно­го звания «Народный артист России».

Обложки дисков


В составе торрента обложки в лучшем качестве.
Логи EAC:

CD1

Exact Audio Copy V0.99 prebeta 5 from 4. May 2009
Отчёт EAC об извлечении, выполненном 6. марта 2010, 20:05
Victor Pikaizen / Violin Solo Disc 1
Дисковод: ATAPI   iHAS220   6   Adapter: 2  ID: 0
Режим чтения                 : Достоверность
Использование точного потока : Да
Отключение кэша аудио        : Да
Использование указателей C2  : Нет
Коррекция смещения при чтении                     : 6
Способность читать области Lead-in и Lead-out     : Нет
Заполнение пропущенных сэмплов тишиной            : Да
Удаление блоков с тишиной в начале и конце        : Нет
При вычислениях CRC использовались нулевые сэмплы : Нет
Интерфейс                                         : Установленный внешний ASPI-интерфейс
Выходной формат          : Пользовательский кодировщик
Выбранный битрейт        : 768 kBit/s
Качество                 : Высокий
Добавление ID3-тэга      : Нет
Утилита сжатия           : C:\Program Files\Exact Audio Copy\FLAC\FLAC.EXE
Дополнительные параметры : -6 -V -T "ARTIST=%a" -T "TITLE=%t" -T "ALBUM=%g" -T "DATE=%y" -T "TRACKNUMBER=%n" -T "GENRE=%m" -T "COMMENT=%e" %s -o %d
TOC извлечённого CD
     Трек |   Старт  | Длительность | Начальный сектор | Конечный сектор
    ---------------------------------------------------------------------
       1  |  0:00.00 |    5:07.31   |           0      |      23055
       2  |  5:07.31 |    6:33.18   |       23056      |      52548
       3  | 11:40.49 |    4:22.62   |       52549      |      72260
       4  | 16:03.36 |    3:21.43   |       72261      |      87378
       5  | 19:25.04 |    5:16.26   |       87379      |     111104
       6  | 24:41.30 |    9:33.32   |      111105      |     154111
       7  | 34:14.62 |    7:11.26   |      154112      |     186462
       8  | 41:26.13 |    4:26.45   |      186463      |     206457
       9  | 45:52.58 |    6:27.12   |      206458      |     235494
      10  | 52:19.70 |   12:32.59   |      235495      |     291953
      11  | 64:52.54 |    4:22.42   |      291954      |     311645
      12  | 69:15.21 |    4:23.60   |      311646      |     331430
Характеристики диапазона извлечения и сообщения об ошибках
Выбранный диапазон
     Имя файла T:\music\Victor Pikaizen - Violin Solo Disc 1.wav
     Пиковый уровень 67.1 %
     Качество диапазона 100.0 %
     CRC теста FEF2839C
     CRC копии FEF2839C
     Копирование... OK
Ошибок не произошло
AccurateRip: сводка
Трек  1  точное извлечение (доверие 1)  [77BB2BBC]
Трек  2  точное извлечение (доверие 1)  [3E43C5BC]
Трек  3  точное извлечение (доверие 1)  [3B0142F1]
Трек  4  точное извлечение (доверие 1)  [8352F937]
Трек  5  точное извлечение (доверие 1)  [4A8CB227]
Трек  6  точное извлечение (доверие 1)  [76837E6E]
Трек  7  точное извлечение (доверие 1)  [16D546B6]
Трек  8  точное извлечение (доверие 1)  [B32915F6]
Трек  9  точное извлечение (доверие 1)  [E2949D23]
Трек 10  точное извлечение (доверие 1)  [3E075BED]
Трек 11  точное извлечение (доверие 1)  [E7E0450F]
Трек 12  точное извлечение (доверие 1)  [9A73FE99]
Все треки извлечены точно
Конец отчёта

CD2

Exact Audio Copy V0.99 prebeta 5 from 4. May 2009
Отчёт EAC об извлечении, выполненном 6. марта 2010, 21:33
Victor Pikaizen / Violin Solo Disc 2
Дисковод: ATAPI   iHAS220   6   Adapter: 2  ID: 0
Режим чтения                 : Достоверность
Использование точного потока : Да
Отключение кэша аудио        : Да
Использование указателей C2  : Нет
Коррекция смещения при чтении                     : 6
Способность читать области Lead-in и Lead-out     : Нет
Заполнение пропущенных сэмплов тишиной            : Да
Удаление блоков с тишиной в начале и конце        : Нет
При вычислениях CRC использовались нулевые сэмплы : Нет
Интерфейс                                         : Установленный внешний ASPI-интерфейс
Выходной формат          : Пользовательский кодировщик
Выбранный битрейт        : 768 kBit/s
Качество                 : Высокий
Добавление ID3-тэга      : Нет
Утилита сжатия           : C:\Program Files\Exact Audio Copy\FLAC\FLAC.EXE
Дополнительные параметры : -6 -V -T "ARTIST=%a" -T "TITLE=%t" -T "ALBUM=%g" -T "DATE=%y" -T "TRACKNUMBER=%n" -T "GENRE=%m" -T "COMMENT=%e" %s -o %d
TOC извлечённого CD
     Трек |   Старт  | Длительность | Начальный сектор | Конечный сектор
    ---------------------------------------------------------------------
       1  |  0:00.00 |    5:54.00   |           0      |      26549
       2  |  5:54.00 |    2:22.66   |       26550      |      37265
       3  |  8:16.66 |    3:10.00   |       37266      |      51515
       4  | 11:26.66 |    3:19.32   |       51516      |      66472
       5  | 14:46.23 |    3:10.62   |       66473      |      80784
       6  | 17:57.10 |    1:28.49   |       80785      |      87433
       7  | 19:25.59 |    2:44.53   |       87434      |      99786
       8  | 22:10.37 |    3:01.00   |       99787      |     113361
       9  | 25:11.37 |    5:32.34   |      113362      |     138295
      10  | 30:43.71 |    2:11.62   |      138296      |     148182
      11  | 32:55.58 |    5:16.49   |      148183      |     171931
      12  | 38:12.32 |    3:45.40   |      171932      |     188846
      13  | 41:57.72 |   17:37.65   |      188847      |     268186
Характеристики диапазона извлечения и сообщения об ошибках
Выбранный диапазон
     Имя файла T:\music\Victor Pikaizen - Violin Solo Disc 2.wav
     Пиковый уровень 65.5 %
     Качество диапазона 100.0 %
     CRC теста 8D58864F
     CRC копии 8D58864F
     Копирование... OK
Ошибок не произошло
AccurateRip: сводка
Трек  1  точное извлечение (доверие 1)  [22E2A2D8]
Трек  2  точное извлечение (доверие 1)  [2FABC139]
Трек  3  точное извлечение (доверие 1)  [34A366E6]
Трек  4  точное извлечение (доверие 1)  [8B6BC401]
Трек  5  точное извлечение (доверие 1)  [3B497F47]
Трек  6  точное извлечение (доверие 1)  [C8DFA448]
Трек  7  точное извлечение (доверие 1)  [C886BF0D]
Трек  8  точное извлечение (доверие 1)  [C63B6A87]
Трек  9  точное извлечение (доверие 1)  [44489CB4]
Трек 10  точное извлечение (доверие 1)  [8678660A]
Трек 11  точное извлечение (доверие 1)  [C7B58F88]
Трек 12  точное извлечение (доверие 1)  [E308CA02]
Трек 13  точное извлечение (доверие 1)  [934465AA]
Все треки извлечены точно
Конец отчёта

CD3

Exact Audio Copy V0.99 prebeta 5 from 4. May 2009
Отчёт EAC об извлечении, выполненном 6. марта 2010, 23:59
Victor Pikaizen / Violin Solo Disc 3
Дисковод: ATAPI   iHAS220   6   Adapter: 2  ID: 0
Режим чтения                 : Достоверность
Использование точного потока : Да
Отключение кэша аудио        : Да
Использование указателей C2  : Нет
Коррекция смещения при чтении                     : 6
Способность читать области Lead-in и Lead-out     : Нет
Заполнение пропущенных сэмплов тишиной            : Да
Удаление блоков с тишиной в начале и конце        : Нет
При вычислениях CRC использовались нулевые сэмплы : Нет
Интерфейс                                         : Установленный внешний ASPI-интерфейс
Выходной формат          : Пользовательский кодировщик
Выбранный битрейт        : 768 kBit/s
Качество                 : Высокий
Добавление ID3-тэга      : Нет
Утилита сжатия           : C:\Program Files\Exact Audio Copy\FLAC\FLAC.EXE
Дополнительные параметры : -6 -V -T "ARTIST=%a" -T "TITLE=%t" -T "ALBUM=%g" -T "DATE=%y" -T "TRACKNUMBER=%n" -T "GENRE=%m" -T "COMMENT=%e" %s -o %d
TOC извлечённого CD
     Трек |   Старт  | Длительность | Начальный сектор | Конечный сектор
    ---------------------------------------------------------------------
       1  |  0:00.00 |    4:28.69   |           0      |      20168
       2  |  4:28.69 |    4:40.20   |       20169      |      41188
       3  |  9:09.14 |    3:29.60   |       41189      |      56923
       4  | 12:38.74 |    5:11.24   |       56924      |      80272
       5  | 17:50.23 |    1:40.04   |       80273      |      87776
       6  | 19:30.27 |    2:13.39   |       87777      |      97790
       7  | 21:43.66 |    6:39.22   |       97791      |     127737
       8  | 28:23.13 |    6:50.16   |      127738      |     158503
       9  | 35:13.29 |    2:52.02   |      158504      |     171405
      10  | 38:05.31 |    9:47.47   |      171406      |     215477
      11  | 47:53.03 |   23:15.56   |      215478      |     320158
Характеристики диапазона извлечения и сообщения об ошибках
Выбранный диапазон
     Имя файла T:\music\Victor Pikaizen - Violin Solo Disc 3.wav
     Пиковый уровень 67.9 %
     Качество диапазона 99.9 %
     CRC теста 0285CB4A
     CRC копии 0285CB4A
     Копирование... OK
Ошибок не произошло
AccurateRip: сводка
Трек  1  точное извлечение (доверие 1)  [5CDC3A9A]
Трек  2  точное извлечение (доверие 1)  [5AD26FA1]
Трек  3  точное извлечение (доверие 1)  [A55BEBCB]
Трек  4  точное извлечение (доверие 1)  [C901A9B8]
Трек  5  точное извлечение (доверие 1)  [5372A1F7]
Трек  6  точное извлечение (доверие 1)  [44E70489]
Трек  7  точное извлечение (доверие 1)  [ED680271]
Трек  8  точное извлечение (доверие 1)  [D5303758]
Трек  9  точное извлечение (доверие 1)  [52D67353]
Трек 10  точное извлечение (доверие 1)  [BF288375]
Трек 11  точное извлечение (доверие 1)  [466FF8F5]
Все треки извлечены точно
Конец отчёта

CD4

Exact Audio Copy V0.99 prebeta 5 from 4. May 2009
Отчёт EAC об извлечении, выполненном 7. марта 2010, 10:16
Victor Pikaizen / Violin Solo Disc 4
Дисковод: ATAPI   iHAS220   6   Adapter: 2  ID: 0
Режим чтения                 : Достоверность
Использование точного потока : Да
Отключение кэша аудио        : Да
Использование указателей C2  : Нет
Коррекция смещения при чтении                     : 6
Способность читать области Lead-in и Lead-out     : Нет
Заполнение пропущенных сэмплов тишиной            : Да
Удаление блоков с тишиной в начале и конце        : Нет
При вычислениях CRC использовались нулевые сэмплы : Нет
Интерфейс                                         : Установленный внешний ASPI-интерфейс
Выходной формат          : Пользовательский кодировщик
Выбранный битрейт        : 768 kBit/s
Качество                 : Высокий
Добавление ID3-тэга      : Нет
Утилита сжатия           : C:\Program Files\Exact Audio Copy\FLAC\FLAC.EXE
Дополнительные параметры : -6 -V -T "ARTIST=%a" -T "TITLE=%t" -T "ALBUM=%g" -T "DATE=%y" -T "TRACKNUMBER=%n" -T "GENRE=%m" -T "COMMENT=%e" %s -o %d
TOC извлечённого CD
     Трек |   Старт  | Длительность | Начальный сектор | Конечный сектор
    ---------------------------------------------------------------------
       1  |  0:00.00 |    2:07.72   |           0      |       9596
       2  |  2:07.72 |    2:50.48   |        9597      |      22394
       3  |  4:58.45 |    3:04.19   |       22395      |      36213
       4  |  8:02.64 |    7:11.64   |       36214      |      68602
       5  | 15:14.53 |    2:48.37   |       68603      |      81239
       6  | 18:03.15 |    6:43.69   |       81240      |     111533
       7  | 24:47.09 |    4:21.67   |      111534      |     131175
       8  | 29:09.01 |    3:38.39   |      131176      |     147564
       9  | 32:47.40 |    2:45.19   |      147565      |     159958
      10  | 35:32.59 |    2:26.47   |      159959      |     170955
      11  | 37:59.31 |    4:54.71   |      170956      |     193076
      12  | 42:54.27 |    2:45.42   |      193077      |     205493
      13  | 45:39.69 |    2:31.14   |      205494      |     216832
      14  | 48:11.08 |    1:36.38   |      216833      |     224070
      15  | 49:47.46 |    3:33.55   |      224071      |     240100
      16  | 53:21.26 |    1:53.67   |      240101      |     248642
      17  | 55:15.18 |    4:16.12   |      248643      |     267854
      18  | 59:31.30 |    3:02.67   |      267855      |     281571
      19  | 62:34.22 |    3:29.37   |      281572      |     297283
      20  | 66:03.59 |    4:24.47   |      297284      |     317130
Характеристики диапазона извлечения и сообщения об ошибках
Выбранный диапазон
     Имя файла T:\music\Victor Pikaizen - Violin Solo Disc 4.wav
     Пиковый уровень 93.0 %
     Качество диапазона 100.0 %
     CRC теста F54353ED
     CRC копии F54353ED
     Копирование... OK
Ошибок не произошло
AccurateRip: сводка
Трек  1  точное извлечение (доверие 1)  [9FBDDE51]
Трек  2  точное извлечение (доверие 1)  [39390356]
Трек  3  точное извлечение (доверие 1)  [F425EFD4]
Трек  4  точное извлечение (доверие 1)  [6D2C4EBE]
Трек  5  точное извлечение (доверие 1)  [0459AD55]
Трек  6  точное извлечение (доверие 1)  [F5F929E4]
Трек  7  точное извлечение (доверие 1)  [CA8F9330]
Трек  8  точное извлечение (доверие 1)  [9BB73AEC]
Трек  9  точное извлечение (доверие 1)  [53F8B8AB]
Трек 10  точное извлечение (доверие 1)  [C501B0A5]
Трек 11  точное извлечение (доверие 1)  [567F3D53]
Трек 12  точное извлечение (доверие 1)  [AB44FB48]
Трек 13  точное извлечение (доверие 1)  [462778DB]
Трек 14  точное извлечение (доверие 1)  [D109C996]
Трек 15  точное извлечение (доверие 1)  [2A7E543B]
Трек 16  точное извлечение (доверие 1)  [99491E44]
Трек 17  точное извлечение (доверие 1)  [DA4C3440]
Трек 18  точное извлечение (доверие 1)  [FCE3ACEA]
Трек 19  точное извлечение (доверие 1)  [B31A2385]
Трек 20  точное извлечение (доверие 1)  [0A8EF8A7]
Все треки извлечены точно
Конец отчёта

CD5

Exact Audio Copy V0.99 prebeta 5 from 4. May 2009
Отчёт EAC об извлечении, выполненном 7. марта 2010, 12:06
Victor Pikaizen / Violin Solo Disc 5
Дисковод: ATAPI   iHAS220   6   Adapter: 2  ID: 0
Режим чтения                 : Достоверность
Использование точного потока : Да
Отключение кэша аудио        : Да
Использование указателей C2  : Нет
Коррекция смещения при чтении                     : 6
Способность читать области Lead-in и Lead-out     : Нет
Заполнение пропущенных сэмплов тишиной            : Да
Удаление блоков с тишиной в начале и конце        : Нет
При вычислениях CRC использовались нулевые сэмплы : Нет
Интерфейс                                         : Установленный внешний ASPI-интерфейс
Выходной формат          : Пользовательский кодировщик
Выбранный битрейт        : 768 kBit/s
Качество                 : Высокий
Добавление ID3-тэга      : Нет
Утилита сжатия           : C:\Program Files\Exact Audio Copy\FLAC\FLAC.EXE
Дополнительные параметры : -6 -V -T "ARTIST=%a" -T "TITLE=%t" -T "ALBUM=%g" -T "DATE=%y" -T "TRACKNUMBER=%n" -T "GENRE=%m" -T "COMMENT=%e" %s -o %d
TOC извлечённого CD
     Трек |   Старт  | Длительность | Начальный сектор | Конечный сектор
    ---------------------------------------------------------------------
       1  |  0:00.00 |    4:06.25   |           0      |      18474
       2  |  4:06.25 |    3:00.56   |       18475      |      32030
       3  |  7:07.06 |    3:56.32   |       32031      |      49762
       4  | 11:03.38 |    5:32.73   |       49763      |      74735
       5  | 16:36.36 |   15:35.15   |       74736      |     144875
       6  | 32:11.51 |   10:40.35   |      144876      |     192910
       7  | 42:52.11 |   13:43.16   |      192911      |     254651
       8  | 56:35.27 |    4:57.70   |      254652      |     276996
Характеристики диапазона извлечения и сообщения об ошибках
Выбранный диапазон
     Имя файла T:\music\Victor Pikaizen - Violin Solo Disc 5.wav
     Пиковый уровень 98.4 %
     Качество диапазона 100.0 %
     CRC теста 7B5F0E9F
     CRC копии 7B5F0E9F
     Копирование... OK
Ошибок не произошло
AccurateRip: сводка
Трек  1  точное извлечение (доверие 1)  [EEEB7DAF]
Трек  2  точное извлечение (доверие 1)  [FCB7097F]
Трек  3  точное извлечение (доверие 1)  [023B2C5A]
Трек  4  точное извлечение (доверие 1)  [7B1F9D85]
Трек  5  точное извлечение (доверие 1)  [F9806C46]
Трек  6  точное извлечение (доверие 1)  [18D549E8]
Трек  7  точное извлечение (доверие 1)  [2FAA2CE2]
Трек  8  точное извлечение (доверие 1)  [F2CFD29B]
Все треки извлечены точно
Конец отчёта
[teatrix.ru].t9795.torrent 
Торрент: Зарегистрирован [ 2015-10-23 17:26 ] · 3689F6F6DF8F8A660987422CD7790EC51B7F3463

Скачать .torrent

Скачать

36 KB

Статус: проверено
Скачан: 0 раз
Размер: 1.67 GB
terms.php



Быстрый ответ

Имя:

      
Для отправки сообщений необходимо включить JavaScript
Показать сообщения:    

Текущее время: 11-Дек 09:05

Часовой пояс: UTC + 3


Вы можете начинать темы
Вы можете отвечать на сообщения
Вы не можете редактировать свои сообщения
Вы не можете удалять свои сообщения
Вы не можете голосовать в опросах
Вы не можете прикреплять файлы к сообщениям
Вы можете скачивать файлы