(Classical) Ludwig van Beethoven - The Complete Symphonies and Piano Concertos / Людвиг ван Бетховен (Daniel Barenboim, Otto Klemperer) 9CD - 2000, FLAC (image+.cue), lossless


Статистика раздачи [Обновить пиров]
Размер:  3.05 GB   |    Зарегистрирован:  1 год 1 месяц   |    Скачан:  0 раз

Полного источника не было: Никогда

Личеров:  1  [  0 KB/s  ]   Подробная статистика пиров
 
   
 
 
 

[Цитировать]

Beethoven - The Complete Symphonies and Piano Concertos (Barenboim, Klemperer) 9CD
Жанр: Classical
Год выпуска диска: 2000
Производитель диска: EMI Classics
Аудио кодек: FLAC
Тип рипа: image+.cue
Битрейт аудио: lossless
Продолжительность: 75:21+70:08+77:34+74:47+74:44+77:56+69:22+77:17+64:06
Трэклист:

CD1

Symphony 1 C major op.21
1. Adagio molto Allegro con brio
2. Andante cantabile con moto
3. Menuetto and Trio. Allegro molto e vivace
4. Adagio Allegro molto e vivace
Symphony 6 F major op.68 "Pastoral"
5. Allegro ma non troppo
6. Andante molto mosso
7. Allegro - In tempo d'allegro Tempo 1
8. Allegro
9. Allegretto

CD2

Symphony 3 E flat major op 55 "Eroica"
1. Allegro con brio
2. Marcia funebre Adagio assai
3. Scherzo und Trio Allegro vivace
4. Finale: Allegro molto - Poco andante Presto
5. Grosae Fuge op 133

CD3

Symphony 2 D major op 36
1. Adagio molto Allegro con brio
2. Larghetto
3. Scherzo and Trio. Allegro
4. Allegro molto
Symphony 5 C minor op 67
5. Allegro con brio
6. Andante con moto - Piu mosso Tem...
7. Allegro
8. Allegro Presto

CD4

Symphony 4 B flat major op 60
1. Adagio Allegro vivace
2. Adagio
3. Menuetto Allegro vivace Trio Un poco meno allegro
4. Allegro ma non troppo
Symphony 7 A major op 92
5. Poco sostenuto Vivace
6. Allegretto
7. Presto Assai meno presto
8. Allegro con brio

CD5

Symphony 8 F major op 93
1. Allegro vivace con brio
2. Allegretto scherzando
3. Tempo di Menuetto
4. Allegro vivace
5. Overture: Leonore 1 C op 138
6. Overture: Leonore 2 C op 72
7. Overture: Leonore 3 C op 72a
8. Overture: Coriolan op 62

CD6

Symphony 9 d minor op 125 "Choral"
1. Allegro non troppo, un poco maestos
2. Molto vivace Presto
3. Adagio molto e cantabile Andante moderato
4. Finale
5. Overture: Prometheus op 43

CD7

Piano Concerto 1 C major op 15
1. Allegro con brio
2. Largo
3. Rondo. Allegro scherzando
Piano Concerto 2 B flat major op 19
4. Allegro con brio
5. Adagio
6. Rondo. Molto allegro

CD8

Piano Concerto 3 C minor op 37
1. Allegro con brio
2. Largo
3. Rondo (Allegro)
Piano Concerto 4 G major op 58
4. Allegro moderato
5. Andante con moto
6. Rondo (Vivace)

CD9

1. Fantasie c op 80 / Fantasie fuer Klavier, Chor und Orchester
Piano Concerto 5 E flat major op 73
2. Allegro
3. Adagio un poco mosso
4. Rondo (Allegro)
Доп. информация:
Aase Nordmo-Lowberg - CD6
Christa Ludwig - CD6
Waldemar Kmentt - CD6
Hans Hotter - CD6
Philharmonia Chorus - CD6
John Alldis Chor - CD9
Daniel Barenboim - piano
Philharmonia Orchestra - CD1-CD6
New Philharmonia Orchestra - CD7-CD9
Conductor: Otto Klemperer

Отчёт EACCD1

Exact Audio Copy V0.99 prebeta 4 from 23. January 2008
EAC extraction logfile from 9. March 2010, 13:36
Ludwig van Beethoven / Symphonies (Klemperer/Philharmonia Orchestra)
Used drive : ASUS DRW-1814BLT Adapter: 2 ID: 2
Read mode : Secure
Utilize accurate stream : Yes
Defeat audio cache : Yes
Make use of C2 pointers : No
Read offset correction : 6
Overread into Lead-In and Lead-Out : No
Fill up missing offset samples with silence : Yes
Delete leading and trailing silent blocks : No
Null samples used in CRC calculations : Yes
Used interface : Native Win32 interface for Win NT & 2000
Used output format : Internal WAV Routines
Sample format : 44.100 Hz; 16 Bit; Stereo
TOC of the extracted CD
Track | Start | Length | Start sector | End sector
---------------------------------------------------------
1 | 0:00.00 | 9:55.02 | 0 | 44626
2 | 9:55.02 | 8:53.28 | 44627 | 84629
3 | 18:48.30 | 4:04.25 | 84630 | 102954
4 | 22:52.55 | 6:29.00 | 102955 | 132129
5 | 29:21.55 | 13:05.25 | 132130 | 191029
6 | 42:27.05 | 13:22.10 | 191030 | 251189
7 | 55:49.15 | 6:33.50 | 251190 | 280714
8 | 62:22.65 | 3:43.60 | 280715 | 297499
9 | 66:06.50 | 9:13.05 | 297500 | 338979
Range status and errors
Selected range
Filename D:\EAC\Ludwig van Beethoven - Symphonies (Klemperer Philharmonia Orchestra) CD1.wav
Peak level 95.6 %
Range quality 99.9 %
Copy CRC F33E5E59
Copy OK
No errors occurred
AccurateRip summary
Track 1 accurately ripped (confidence 22) [8BFAD719]
Track 2 accurately ripped (confidence 22) [B2592036]
Track 3 accurately ripped (confidence 22) [D95C98A7]
Track 4 accurately ripped (confidence 22) [DDA7DA17]
Track 5 accurately ripped (confidence 22) [2DD67B8D]
Track 6 accurately ripped (confidence 22) [4A4E11F4]
Track 7 accurately ripped (confidence 22) [E401E377]
Track 8 accurately ripped (confidence 22) [BF06C1DB]
Track 9 accurately ripped (confidence 22) [78B7FCEA]
All tracks accurately ripped
End of status report

CD2

Exact Audio Copy V0.99 prebeta 4 from 23. January 2008
EAC extraction logfile from 9. March 2010, 14:58
Ludwig van Beethoven_Otto Klemperer_Philharmonia Orchestra / Symphony 3 Es op 55 Eroika, Grosae Fuge B flat op 133
Used drive : ASUS DRW-1814BLT Adapter: 2 ID: 2
Read mode : Secure
Utilize accurate stream : Yes
Defeat audio cache : Yes
Make use of C2 pointers : No
Read offset correction : 6
Overread into Lead-In and Lead-Out : No
Fill up missing offset samples with silence : Yes
Delete leading and trailing silent blocks : No
Null samples used in CRC calculations : Yes
Used interface : Native Win32 interface for Win NT & 2000
Used output format : Internal WAV Routines
Sample format : 44.100 Hz; 16 Bit; Stereo
TOC of the extracted CD
Track | Start | Length | Start sector | End sector
---------------------------------------------------------
1 | 0:00.00 | 16:41.10 | 0 | 75084
2 | 16:41.10 | 16:54.32 | 75085 | 151166
3 | 33:35.42 | 6:34.05 | 151167 | 180721
4 | 40:09.47 | 13:26.00 | 180722 | 241171
5 | 53:35.47 | 16:30.23 | 241172 | 315444
Range status and errors
Selected range
Filename D:\EAC\Ludwig van Beethoven_Otto Klemperer_Philharmonia Orchestra - Symphony 3 Es op 55 Eroika, Grosae Fuge B flat op 133.wav
Peak level 86.5 %
Range quality 99.9 %
Copy CRC B2F3DF4E
Copy OK
No errors occurred
AccurateRip summary
Track 1 accurately ripped (confidence 25) [6AF282D8]
Track 2 accurately ripped (confidence 26) [1464B155]
Track 3 accurately ripped (confidence 26) [1291365F]
Track 4 accurately ripped (confidence 26) [2A30D51A]
Track 5 accurately ripped (confidence 24) [686B79C8]
All tracks accurately ripped
End of status report

CD3

Exact Audio Copy V0.99 prebeta 4 from 23. January 2008
EAC extraction logfile from 9. March 2010, 16:11
Ludwig van Beethoven_Otto Klemperer_Philharmonia Orchestra / Symphonies 2 D op 36 + 5 c op 67
Used drive : ASUS DRW-1814BLT Adapter: 2 ID: 2
Read mode : Secure
Utilize accurate stream : Yes
Defeat audio cache : Yes
Make use of C2 pointers : No
Read offset correction : 6
Overread into Lead-In and Lead-Out : No
Fill up missing offset samples with silence : Yes
Delete leading and trailing silent blocks : No
Null samples used in CRC calculations : Yes
Used interface : Native Win32 interface for Win NT & 2000
Used output format : Internal WAV Routines
Sample format : 44.100 Hz; 16 Bit; Stereo
TOC of the extracted CD
Track | Start | Length | Start sector | End sector
---------------------------------------------------------
1 | 0:00.32 | 13:27.18 | 32 | 60574
2 | 13:27.50 | 13:08.05 | 60575 | 119679
3 | 26:35.55 | 3:59.67 | 119680 | 137671
4 | 30:35.47 | 7:13.08 | 137672 | 170154
5 | 37:48.55 | 8:58.17 | 170155 | 210521
6 | 46:46.72 | 11:14.45 | 210522 | 261116
7 | 58:01.42 | 6:13.63 | 261117 | 289154
8 | 64:15.30 | 13:19.52 | 289155 | 349131
Range status and errors
Selected range
Filename D:\EAC\Ludwig van Beethoven_Otto Klemperer_Philharmonia Orchestra - Symphonies 2 D op 36 + 5 c op 67.wav
Peak level 72.9 %
Range quality 100.0 %
Copy CRC 2F3156B1
Copy OK
No errors occurred
AccurateRip summary
Track 1 accurately ripped (confidence 23) [248D201F]
Track 2 accurately ripped (confidence 23) [1FCBB414]
Track 3 accurately ripped (confidence 23) [EE438510]
Track 4 accurately ripped (confidence 22) [A78BFECF]
Track 5 accurately ripped (confidence 23) [BD81DBDC]
Track 6 accurately ripped (confidence 24) [F63A4C82]
Track 7 accurately ripped (confidence 24) [9AD0B839]
Track 8 accurately ripped (confidence 24) [0B397836]
All tracks accurately ripped
End of status report

CD4

Exact Audio Copy V0.99 prebeta 4 from 23. January 2008
EAC extraction logfile from 9. March 2010, 19:25
Ludwig van Beethoven_Otto Klemperer_Philharmonia Orchestra / Symphonies 4 b flat op 60 + 7 A op 92
Used drive : ASUS DRW-1814BLT Adapter: 2 ID: 2
Read mode : Secure
Utilize accurate stream : Yes
Defeat audio cache : Yes
Make use of C2 pointers : No
Read offset correction : 6
Overread into Lead-In and Lead-Out : No
Fill up missing offset samples with silence : Yes
Delete leading and trailing silent blocks : No
Null samples used in CRC calculations : Yes
Used interface : Native Win32 interface for Win NT & 2000
Used output format : Internal WAV Routines
Sample format : 44.100 Hz; 16 Bit; Stereo
TOC of the extracted CD
Track | Start | Length | Start sector | End sector
---------------------------------------------------------
1 | 0:00.00 | 12:27.47 | 0 | 56071
2 | 12:27.47 | 10:01.33 | 56072 | 101179
3 | 22:29.05 | 5:50.20 | 101180 | 127449
4 | 28:19.25 | 7:38.42 | 127450 | 161841
5 | 35:57.67 | 12:52.00 | 161842 | 219741
6 | 48:49.67 | 9:32.00 | 219742 | 262641
7 | 58:21.67 | 8:21.65 | 262642 | 300281
8 | 66:43.57 | 8:01.33 | 300282 | 336389
Range status and errors
Selected range
Filename D:\EAC\Ludwig van Beethoven_Otto Klemperer_Philharmonia Orchestra - Symphonies 4 b flat op 60 + 7 A op 92.wav
Peak level 98.4 %
Range quality 99.9 %
Copy CRC A1FDCDE9
Copy OK
No errors occurred
AccurateRip summary
Track 1 accurately ripped (confidence 21) [0D830F2E]
Track 2 accurately ripped (confidence 21) [21D7D4DF]
Track 3 accurately ripped (confidence 21) [9ECFC31A]
Track 4 accurately ripped (confidence 21) [408923EB]
Track 5 accurately ripped (confidence 21) [ED21C17D]
Track 6 accurately ripped (confidence 21) [6238EDAD]
Track 7 accurately ripped (confidence 21) [75DCA623]
Track 8 accurately ripped (confidence 21) [F6694DD4]
All tracks accurately ripped
End of status report

CD5

Exact Audio Copy V0.99 prebeta 4 from 23. January 2008
EAC extraction logfile from 9. March 2010, 20:42
Ludwig van Beethoven_Otto Klemperer_Philharmonia Orchestra / Symphony 8 F op 93, Overture 1 - 3 C, Coriolan c
Used drive : ASUS DRW-1814BLT Adapter: 2 ID: 2
Read mode : Secure
Utilize accurate stream : Yes
Defeat audio cache : Yes
Make use of C2 pointers : No
Read offset correction : 6
Overread into Lead-In and Lead-Out : No
Fill up missing offset samples with silence : Yes
Delete leading and trailing silent blocks : No
Null samples used in CRC calculations : Yes
Used interface : Native Win32 interface for Win NT & 2000
Used output format : Internal WAV Routines
Sample format : 44.100 Hz; 16 Bit; Stereo
TOC of the extracted CD
Track | Start | Length | Start sector | End sector
---------------------------------------------------------
1 | 0:00.00 | 9:49.17 | 0 | 44191
2 | 9:49.17 | 4:28.20 | 44192 | 64311
3 | 14:17.37 | 5:16.38 | 64312 | 88049
4 | 19:34.00 | 8:26.47 | 88050 | 126046
5 | 28:00.47 | 9:55.00 | 126047 | 170671
6 | 37:55.47 | 14:01.43 | 170672 | 233789
7 | 51:57.15 | 14:45.35 | 233790 | 300199
8 | 66:42.50 | 7:59.65 | 300200 | 336189
Range status and errors
Selected range
Filename D:\EAC\Ludwig van Beethoven_Otto Klemperer_Philharmonia Orchestra - Symphony 8 F op 93, Overture 1 - 3 C, Coriolan c.wav
Peak level 98.0 %
Range quality 99.9 %
Copy CRC 7A2761B3
Copy OK
No errors occurred
AccurateRip summary
Track 1 accurately ripped (confidence 23) [0DA6A5E1]
Track 2 accurately ripped (confidence 22) [9A64FAA4]
Track 3 accurately ripped (confidence 23) [DD884930]
Track 4 accurately ripped (confidence 23) [AA621846]
Track 5 accurately ripped (confidence 21) [B49A32E9]
Track 6 accurately ripped (confidence 21) [412B8F97]
Track 7 accurately ripped (confidence 21) [37F0160E]
Track 8 accurately ripped (confidence 21) [19E93874]
All tracks accurately ripped
End of status report

CD6

Exact Audio Copy V0.99 prebeta 4 from 23. January 2008
EAC extraction logfile from 10. March 2010, 7:24
Ludwig van Beethoven_Otto Klemperer_Philharmonia Orchestra / Symphony 9 d op 125 'Choral', Overture Prometheus c op 43
Used drive : ASUS DRW-1814BLT Adapter: 2 ID: 2
Read mode : Secure
Utilize accurate stream : Yes
Defeat audio cache : Yes
Make use of C2 pointers : No
Read offset correction : 6
Overread into Lead-In and Lead-Out : No
Fill up missing offset samples with silence : Yes
Delete leading and trailing silent blocks : No
Null samples used in CRC calculations : Yes
Used interface : Native Win32 interface for Win NT & 2000
Used output format : Internal WAV Routines
Sample format : 44.100 Hz; 16 Bit; Stereo
TOC of the extracted CD
Track | Start | Length | Start sector | End sector
---------------------------------------------------------
1 | 0:00.00 | 17:02.72 | 0 | 76721
2 | 17:02.72 | 15:38.20 | 76722 | 147091
3 | 32:41.17 | 15:01.68 | 147092 | 214734
4 | 47:43.10 | 24:36.37 | 214735 | 325471
5 | 72:19.47 | 5:35.00 | 325472 | 350596
Range status and errors
Selected range
Filename D:\EAC\Ludwig van Beethoven_Otto Klemperer_Philharmonia Orchestra - Symphony 9 d op 125 'Choral', Overture Prometheus c op 43.wav
Peak level 97.4 %
Range quality 100.0 %
Copy CRC 58BF92F8
Copy OK
No errors occurred
AccurateRip summary
Track 1 accurately ripped (confidence 28) [297552D8]
Track 2 accurately ripped (confidence 28) [EA1DF938]
Track 3 accurately ripped (confidence 28) [E8284C27]
Track 4 accurately ripped (confidence 27) [FE1C83D8]
Track 5 accurately ripped (confidence 26) [8D1B4CE0]
All tracks accurately ripped
End of status report

CD7

Exact Audio Copy V0.99 prebeta 4 from 23. January 2008
EAC extraction logfile from 10. March 2010, 11:18
Ludwig van Beethoven_Otto Klemperer_New Philharmonia Orchestra / Piano Concertos 1 C op 15, 2 B flat op 19_piano Daniel Barenboim
Used drive : ASUS DRW-1814BLT Adapter: 2 ID: 2
Read mode : Secure
Utilize accurate stream : Yes
Defeat audio cache : Yes
Make use of C2 pointers : No
Read offset correction : 6
Overread into Lead-In and Lead-Out : No
Fill up missing offset samples with silence : Yes
Delete leading and trailing silent blocks : No
Null samples used in CRC calculations : Yes
Used interface : Native Win32 interface for Win NT & 2000
Used output format : Internal WAV Routines
Sample format : 44.100 Hz; 16 Bit; Stereo
TOC of the extracted CD
Track | Start | Length | Start sector | End sector
---------------------------------------------------------
1 | 0:00.33 | 16:15.55 | 33 | 73212
2 | 16:16.13 | 13:13.27 | 73213 | 132714
3 | 29:29.40 | 9:27.35 | 132715 | 175274
4 | 38:57.00 | 14:38.03 | 175275 | 241127
5 | 53:35.03 | 9:43.62 | 241128 | 284914
6 | 63:18.65 | 6:03.53 | 284915 | 312192
Range status and errors
Selected range
Filename D:\EAC\Ludwig van Beethoven_Otto Klemperer_New Philharmonia Orchestra - Piano Concertos 1 C op 15, 2 B flat op 19_piano Daniel Barenboim.wav
Peak level 95.9 %
Range quality 100.0 %
Copy CRC D336EE5D
Copy OK
No errors occurred
AccurateRip summary
Track 1 accurately ripped (confidence 25) [CFC9863E]
Track 2 accurately ripped (confidence 25) [8026244E]
Track 3 accurately ripped (confidence 25) [6613B890]
Track 4 accurately ripped (confidence 25) [E489EAB6]
Track 5 accurately ripped (confidence 23) [E5AC301A]
Track 6 accurately ripped (confidence 19) [95FF862C]
All tracks accurately ripped
End of status report

CD8

Exact Audio Copy V0.99 prebeta 4 from 23. January 2008
EAC extraction logfile from 10. March 2010, 14:26
Ludwig van Beethoven_Otto Klemperer_New Philharmonia Orchestra / Piano Concertos 3 c op 37, 4 G op 58_piano Daniel Barenboim
Used drive : ASUS DRW-1814BLT Adapter: 2 ID: 2
Read mode : Secure
Utilize accurate stream : Yes
Defeat audio cache : Yes
Make use of C2 pointers : No
Read offset correction : 6
Overread into Lead-In and Lead-Out : No
Fill up missing offset samples with silence : Yes
Delete leading and trailing silent blocks : No
Null samples used in CRC calculations : Yes
Used interface : Native Win32 interface for Win NT & 2000
Used output format : Internal WAV Routines
Sample format : 44.100 Hz; 16 Bit; Stereo
TOC of the extracted CD
Track | Start | Length | Start sector | End sector
---------------------------------------------------------
1 | 0:00.33 | 18:53.07 | 33 | 85014
2 | 18:53.40 | 10:52.33 | 85015 | 133947
3 | 29:45.73 | 9:55.45 | 133948 | 178617
4 | 39:41.43 | 20:49.20 | 178618 | 272312
5 | 60:30.63 | 5:46.35 | 272313 | 298297
6 | 66:17.23 | 11:00.17 | 298298 | 347814
Range status and errors
Selected range
Filename D:\EAC\Ludwig van Beethoven_Otto Klemperer_New Philharmonia Orchestra - Piano Concertos 3 c op 37, 4 G op 58_piano Daniel Barenboim.wav
Peak level 93.4 %
Range quality 100.0 %
Copy CRC E2487D11
Copy OK
No errors occurred
AccurateRip summary
Track 1 accurately ripped (confidence 25) [4DC26690]
Track 2 accurately ripped (confidence 25) [ED34784D]
Track 3 accurately ripped (confidence 25) [0F564B4D]
Track 4 accurately ripped (confidence 25) [D5941B98]
Track 5 accurately ripped (confidence 25) [D6A1E7C6]
Track 6 accurately ripped (confidence 24) [A42B6F95]
All tracks accurately ripped
End of status report

CD9

Exact Audio Copy V0.99 prebeta 4 from 23. January 2008
EAC extraction logfile from 10. March 2010, 23:52
Ludwig van Beethoven_Otto Klemperer_New Philharmonia Orchestra / Piano Concerto 5 Es op 73, Fantasie c op 80_piano Daniel Barenboim
Used drive : ASUS DRW-1814BLT Adapter: 2 ID: 2
Read mode : Secure
Utilize accurate stream : Yes
Defeat audio cache : Yes
Make use of C2 pointers : No
Read offset correction : 6
Overread into Lead-In and Lead-Out : No
Fill up missing offset samples with silence : Yes
Delete leading and trailing silent blocks : No
Null samples used in CRC calculations : Yes
Used interface : Native Win32 interface for Win NT & 2000
Used output format : Internal WAV Routines
Sample format : 44.100 Hz; 16 Bit; Stereo
TOC of the extracted CD
Track | Start | Length | Start sector | End sector
---------------------------------------------------------
1 | 0:00.00 | 21:08.00 | 0 | 95099
2 | 21:08.00 | 22:52.67 | 95100 | 198066
3 | 44:00.67 | 8:58.53 | 198067 | 238469
4 | 52:59.45 | 11:04.22 | 238470 | 288291
Range status and errors
Selected range
Filename D:\EAC\Ludwig van Beethoven_Otto Klemperer_New Philharmonia Orchestra - Piano Concerto 5 Es op 73, Fantasie c op 80_piano Daniel Barenboim.wav
Peak level 70.4 %
Range quality 100.0 %
Copy CRC C3CE3710
Copy OK
No errors occurred
AccurateRip summary
Track 1 accurately ripped (confidence 20) [C781617B]
Track 2 accurately ripped (confidence 19) [41E878BA]
Track 3 accurately ripped (confidence 19) [EF96098F]
Track 4 accurately ripped (confidence 19) [784EE277]
All tracks accurately ripped
End of status report
[teatrix.ru].t9797.torrent 
Торрент: Зарегистрирован [ 2015-10-23 17:26 ] · 325DE48293A39FE64371897B6BE771D874E59EBB

Скачать .torrent

Скачать

22 KB

Статус: проверено
Скачан: 0 раз
Размер: 3.05 GB
terms.php



Быстрый ответ

Имя:

      
Для отправки сообщений необходимо включить JavaScript
Показать сообщения:    

Текущее время: 08-Дек 23:13

Часовой пояс: UTC + 3


Вы можете начинать темы
Вы можете отвечать на сообщения
Вы не можете редактировать свои сообщения
Вы не можете удалять свои сообщения
Вы не можете голосовать в опросах
Вы не можете прикреплять файлы к сообщениям
Вы можете скачивать файлы