(Classical) Nikolaus Harnoncourt / The Symphony Collection - 5 CDs [Box set]: Haydn, Beethoven, Mozart, Schubert, Mendelssohn, Schumann, Brahms, Dvorak, Bruckner - 2009, Teldec, APE (image+.cue), lossless


Статистика раздачи [Обновить пиров]
Размер:  1.54 GB   |    Зарегистрирован:  1 год 1 месяц   |    Скачан:  2 раза

Полного источника не было: 13 дней

Личеров:  1  [  0 KB/s  ]   Подробная статистика пиров
 
   
 
 
 

[Цитировать]

Nikolaus Harnoncourt / The Symphony Collection - 5 CDs [Box set]: Haydn, Beethoven, Mozart, Schubert, Mendelssohn, Schumann, Brahms, Dvorak, Bruckner - 2009, Teldec
Жанр: Classical
Год выпуска диска: 2009
Производитель диска: Teldec
Аудио кодек: APE
Тип рипа: image+.cue
Битрейт аудио: lossless
Продолжительность: 6h 14' 11''

ТрэклистCD 1

CD 1 (77' 18'')
Joseph Haydn - Symphony No. 94 in G major "Surprice" *
01. I. Adagio cantabile - Vivace assai [0:09:29.66]
02. II. Andante [0:06:01.68]
03. III. Menuetto: Allegro molto [0:03:47.46]
04. IV. Allegro di molto [0:03:58.41]
Joseph Haydn -Symphony No. 104 in D major "London" *
05. I. Adagio [0:09:18.36]
06. II. Andante [0:07:23.49]
07. III. Menuetto: Allegretto [0:03:38.32]
08. IV. Finale: Spiritoso [0:06:52.32]
Ludwing van Beethoven - Symphony No. 1 in C major, op.21 **
09. I. Adagio molto - Allegro con brio [0:09:29.13]
10. II. Andante cantabile con moto [0:07:46.28]
11. III. Menuetto: Allegro molto e vivace [0:04:03.05]
12. IV. Adagio - Allegro molto e vivace [0:05:30.09]
Royal Concertgebouw Orchestra *
Chamber Orchestra of Europe **

CD 2

CD 2 (77' 27'')
Wolgang Amadeus Mozart - Symphony No. 41 in C major, K551 "Jupiter" **
01. I. Allegro vivace [0:12:35.41]
02. II. Andante cantabile [0:11:18.13]
03. III. Menuetto: Allegretto [0:05:49.18]
04. IV. Molto allegro [0:11:07.26]
Ludwing van Beethoven - Symphony No. 5 in C minor, op.67 **
05. I. Allegro con brio [0:07:18.76]
06. II. Andante con moto [0:10:00.21]
07. III. Allegro [0:08:22.50]
08. IV. Allegro [0:10:56.05]
Chamber Orchestra of Europe **

CD 3

CD 3 (79' 34'')
Franz Schubert - Symphony No. 8 in B mino, D759 "Unfinished" *
01. I. Adagio moderato [0:14:53.33]
02. II. Andante con moto [0:11:27.88]
Felix Mendelssohn - Symphony No. 4 in A major, op.90 "Italian" **
03. I. Allegro vivace [0:10:38.05]
04. II. Andante con moto [0:06:47.48]
05. III. Con moto moderato [0:05:50.72]
06. IV. Saltarello: Presto [0:05:48.70]
Robert Schumann - Symphony No. 4 in D minor, op.120 (1841 version) **
07. I. Andante con moto - Allegro di molto [0:08:42.60]
08. II. Romanza: Andante [0:03:16.49]
09. III Scherzo: Presto - Largo [0:06:16.77]
10. IV. Finale: Allegro vivace [0:05:52.06]
Royal Concertgebouw Orchestra *
Chamber Orchestra of Europe **

CD 4

CD 4 (79' 51'')
Johannes Brahms - Symphony No. 3 in F major, op.90 ***
01. I. Allegro con brio [0:13:33.16]
02. II. Andante [0:08:16.02]
03. III. Poco allegretto [0:06:25.24]
04. IV. Allegro [0:08:50.92]
Antonin Dvorak - Symphony No. 9 in E minor, op.95 "From the New World" *
05. I. Adagio - Allegro molto [0:11:17.74]
06. II. Largo [0:12:15.93]
07. III. Scherzo: Molto vivace [0:08:20.01]
08. IV. Allegro con fuoco [0:10:52.69]
Royal Concertgebouw Orchestra *
Berliner Philaharmoniker ***

CD 5

CD 5 (60' 01'')
Anton Bruckner - Symphony No. 7 in E major ****
01. I. Allegro moderato [0:19:09.52]
02. II. Adagio: Sehr feierlich und sehr langsam [0:20:48.18]
03. III. Scherzo: Sehr schnell - Trio: Etwas langsamer [0:08:53.48]
04. IV. Finale: Bewegt, doch nicht schnell [0:11:09.88]
Wiener Philharmoniker ****

Отчёт EACCD 1

Exact Audio Copy V0.99 prebeta 5 from 4. May 2009
EAC 抓取日志文件从31. 一月 2010, 19:09
Nikolaus Harnoncourt / Nikolaus Harnoncourt: THE SYMPHONY COLLECTION CD1
使用驱动器 :FREECOM_DVD+/-RW22JS8 Adapter: 4 ID: 0
读取模式 : 保护
使用精确流 : 是
废除音频缓冲 : 否
使用 C2 指针 : 否
读取偏移校正 : 6
读取 Lead-In 和 Lead-Out : 否
用静音填充抓取中丢失偏移的采样 : 是
去除首尾静音块 : 否
在 CRC 计算中使用了空样本 : 是
已用接口 : Win NT 及 2000 本地 Win32 接口
所用输出格式 : 内部 WAV 函数
样本格式 : 44.100 Hz;16 Bit;立体声
被抓轨 CD 的 TOC
音轨 | 开始 | 长度 | 起始扇区 | 结尾扇区
--------------------------------------------------
1 | 0:00.00 | 9:29.50 | 0 | 42724
2 | 9:29.50 | 6:01.51 | 42725 | 69850
3 | 15:31.26 | 3:47.35 | 69851 | 86910
4 | 19:18.61 | 3:58.31 | 86911 | 104791
5 | 23:17.17 | 9:18.27 | 104792 | 146668
6 | 32:35.44 | 7:23.37 | 146669 | 179930
7 | 39:59.06 | 3:38.24 | 179931 | 196304
8 | 43:37.30 | 6:52.24 | 196305 | 227228
9 | 50:29.54 | 9:29.10 | 227229 | 269913
10 | 59:58.64 | 7:46.21 | 269914 | 304884
11 | 67:45.10 | 4:03.04 | 304885 | 323113
12 | 71:48.14 | 5:30.07 | 323114 | 347870
范围状态及错误
已选择范围
文件名 J:\音乐\抓轨\[置顶]留声机\Nikolaus Harnoncourt - Nikolaus Harnoncourt THE SYMPHONY COLLECTION\Nikolaus Harnoncourt - Nikolaus Harnoncourt THE SYMPHONY COLLECTION CD1.wav
峰值电平 99.9 %
范围质量 99.9 %
复制 CRC 3994F6A2
复制成功
没有错误发生
AccurateRip 概要
音轨 1 数据库中未见
音轨 2 数据库中未见
音轨 3 数据库中未见
音轨 4 数据库中未见
音轨 5 数据库中未见
音轨 6 数据库中未见
音轨 7 数据库中未见
音轨 8 数据库中未见
音轨 9 数据库中未见
音轨 10 数据库中未见
音轨 11 数据库中未见
音轨 12 数据库中未见
没有任何音轨出现在 AccurateRip 数据库中
状态报告结尾

CD 2

Exact Audio Copy V0.99 prebeta 5 from 4. May 2009
EAC 抓取日志文件从6. 二月 2010, 23:54
Nikolaus Harnoncourt / Nikolaus Harnoncourt THE SYMPHONY COLLECTION CD2
使用驱动器 :FREECOM_DVD+/-RW22JS8 Adapter: 4 ID: 0
读取模式 : 保护
使用精确流 : 是
废除音频缓冲 : 否
使用 C2 指针 : 否
读取偏移校正 : 6
读取 Lead-In 和 Lead-Out : 否
用静音填充抓取中丢失偏移的采样 : 是
去除首尾静音块 : 否
在 CRC 计算中使用了空样本 : 是
已用接口 : Win NT 及 2000 本地 Win32 接口
所用输出格式 : 内部 WAV 函数
样本格式 : 44.100 Hz;16 Bit;立体声
被抓轨 CD 的 TOC
音轨 | 开始 | 长度 | 起始扇区 | 结尾扇区
--------------------------------------------------
1 | 0:00.00 | 12:35.31 | 0 | 56655
2 | 12:35.31 | 11:18.10 | 56656 | 107515
3 | 23:53.41 | 5:49.14 | 107516 | 133704
4 | 29:42.55 | 11:07.20 | 133705 | 183749
5 | 40:50.00 | 7:18.57 | 183750 | 216656
6 | 48:08.57 | 10:00.16 | 216657 | 261672
7 | 58:08.73 | 8:22.38 | 261673 | 299360
8 | 66:31.36 | 10:56.04 | 299361 | 348564
范围状态及错误
已选择范围
文件名 J:\音乐\抓轨\[置顶]留声机\Nikolaus Harnoncourt - Nikolaus Harnoncourt THE SYMPHONY COLLECTION\Nikolaus Harnoncourt - Nikolaus Harnoncourt THE SYMPHONY COLLECTION CD2.wav
可疑位置 1:17:27
峰值电平 99.3 %
范围质量 99.9 %
复制 CRC C799B0CC
复制结束
出现错误
AccurateRip 概要
音轨 1 数据库中未见
音轨 2 数据库中未见
音轨 3 数据库中未见
音轨 4 数据库中未见
音轨 5 数据库中未见
音轨 6 数据库中未见
音轨 7 数据库中未见
音轨 8 数据库中未见
没有任何音轨出现在 AccurateRip 数据库中
状态报告结尾

CD 3

Exact Audio Copy V0.99 prebeta 5 from 4. May 2009
EAC 抓取日志文件从11. 二月 2010, 23:36
Nikolaus Harnoncourt / Nikolaus Harnoncourt THE SYMPHONY COLLECTION CD3
使用驱动器 :FREECOM_DVD+/-RW22JS8 Adapter: 4 ID: 1
读取模式 : 保护
使用精确流 : 是
废除音频缓冲 : 否
使用 C2 指针 : 否
读取偏移校正 : 0
读取 Lead-In 和 Lead-Out : 否
用静音填充抓取中丢失偏移的采样 : 是
去除首尾静音块 : 否
在 CRC 计算中使用了空样本 : 是
已用接口 : Win NT 及 2000 本地 Win32 接口
所用输出格式 : 内部 WAV 函数
样本格式 : 44.100 Hz;16 Bit;立体声
被抓轨 CD 的 TOC
音轨 | 开始 | 长度 | 起始扇区 | 结尾扇区
--------------------------------------------------
1 | 0:00.00 | 14:53.25 | 0 | 66999
2 | 14:53.25 | 11:27.66 | 67000 | 118590
3 | 26:21.16 | 10:38.04 | 118591 | 166444
4 | 36:59.20 | 6:47.36 | 166445 | 197005
5 | 43:46.56 | 5:50.54 | 197006 | 223309
6 | 49:37.35 | 5:48.53 | 223310 | 249462
7 | 55:26.13 | 8:42.45 | 249463 | 288657
8 | 64:08.58 | 3:16.37 | 288658 | 303394
9 | 67:25.20 | 6:16.58 | 303395 | 331652
10 | 73:42.03 | 5:52.05 | 331653 | 358057
范围状态及错误
已选择范围
文件名 J:\音乐\抓轨\[置顶]留声机\Nikolaus Harnoncourt - Nikolaus Harnoncourt THE SYMPHONY COLLECTION\Nikolaus Harnoncourt - Nikolaus Harnoncourt THE SYMPHONY COLLECTION CD3.wav
峰值电平 99.7 %
范围质量 99.9 %
复制 CRC 7E1FE60C
复制成功
没有错误发生
状态报告结尾

CD 4

Exact Audio Copy V0.99 prebeta 5 from 4. May 2009
EAC 抓取日志文件从14. 二月 2010, 19:44
Nikolaus Harnoncourt / Nikolaus Harnoncourt THE SYMPHONY COLLECTION CD4
使用驱动器 :FREECOM_DVD+/-RW22JS8 Adapter: 4 ID: 1
读取模式 : 保护
使用精确流 : 是
废除音频缓冲 : 否
使用 C2 指针 : 否
读取偏移校正 : 0
读取 Lead-In 和 Lead-Out : 否
用静音填充抓取中丢失偏移的采样 : 是
去除首尾静音块 : 否
在 CRC 计算中使用了空样本 : 是
已用接口 : Win NT 及 2000 本地 Win32 接口
所用输出格式 : 内部 WAV 函数
样本格式 : 44.100 Hz;16 Bit;立体声
被抓轨 CD 的 TOC
音轨 | 开始 | 长度 | 起始扇区 | 结尾扇区
--------------------------------------------------
1 | 0:00.00 | 13:33.12 | 0 | 60986
2 | 13:33.12 | 8:16.02 | 60987 | 98188
3 | 21:49.14 | 6:25.18 | 98189 | 127081
4 | 28:14.32 | 8:50.69 | 127082 | 166900
5 | 37:05.26 | 11:17.56 | 166901 | 217731
6 | 48:23.07 | 12:15.70 | 217732 | 272926
7 | 60:39.02 | 8:20.01 | 272927 | 310427
8 | 68:59.03 | 10:52.52 | 310428 | 359379
范围状态及错误
已选择范围
文件名 J:\音乐\抓轨\[置顶]留声机\Nikolaus Harnoncourt - Nikolaus Harnoncourt THE SYMPHONY COLLECTION\Nikolaus Harnoncourt - Nikolaus Harnoncourt THE SYMPHONY COLLECTION CD4.wav
峰值电平 97.7 %
范围质量 100.0 %
复制 CRC 7E31207D
复制成功
没有错误发生
状态报告结尾

CD 5

Exact Audio Copy V0.99 prebeta 5 from 4. May 2009
EAC 抓取日志文件从21. 二月 2010, 0:01
Nikolaus Harnoncourt / Nikolaus Harnoncourt THE SYMPHONY COLLECTION CD5
使用驱动器 :FREECOM_DVD+/-RW22JS8 Adapter: 4 ID: 0
读取模式 : 保护
使用精确流 : 是
废除音频缓冲 : 否
使用 C2 指针 : 否
读取偏移校正 : 6
读取 Lead-In 和 Lead-Out : 否
用静音填充抓取中丢失偏移的采样 : 是
去除首尾静音块 : 否
在 CRC 计算中使用了空样本 : 是
已用接口 : Win NT 及 2000 本地 Win32 接口
所用输出格式 : 内部 WAV 函数
样本格式 : 44.100 Hz;16 Bit;立体声
被抓轨 CD 的 TOC
音轨 | 开始 | 长度 | 起始扇区 | 结尾扇区
--------------------------------------------------
1 | 0:00.00 | 19:09.39 | 0 | 86213
2 | 19:09.39 | 20:48.14 | 86214 | 179827
3 | 39:57.53 | 8:53.36 | 179828 | 219838
4 | 48:51.14 | 11:09.66 | 219839 | 270079
范围状态及错误
已选择范围
文件名 J:\音乐\抓轨\[置顶]留声机\Nikolaus Harnoncourt - Nikolaus Harnoncourt THE SYMPHONY COLLECTION\Nikolaus Harnoncourt - Nikolaus Harnoncourt THE SYMPHONY COLLECTION CD5.wav
峰值电平 99.8 %
范围质量 100.0 %
复制 CRC 9E05CF5C
复制成功
没有错误发生
AccurateRip 概要
音轨 1 数据库中未见
音轨 2 数据库中未见
音轨 3 数据库中未见
音轨 4 数据库中未见
没有任何音轨出现在 AccurateRip 数据库中
状态报告结尾
[teatrix.ru].t9799.torrent 
Торрент: Зарегистрирован [ 2015-10-23 17:26 ] · 94817FB496332B38DAAB99A1FCF3B48043ABF3AC

Скачать .torrent

Скачать

20 KB

Статус: проверено
Скачан: 2 раз
Размер: 1.54 GB
terms.php



Быстрый ответ

Имя:

      
Для отправки сообщений необходимо включить JavaScript
Показать сообщения:    

Текущее время: 08-Дек 14:57

Часовой пояс: UTC + 3


Вы можете начинать темы
Вы можете отвечать на сообщения
Вы не можете редактировать свои сообщения
Вы не можете удалять свои сообщения
Вы не можете голосовать в опросах
Вы не можете прикреплять файлы к сообщениям
Вы можете скачивать файлы