Неоднократные отсутствия / Повторяющие отсутствия / Absences repetees / Absences répétées / Repeated Absences (Ги Жиль / Guy Gilles) [1972, Франция, драма, DVDRip-AVC] + Sub Rus + Original Fre


Статистика раздачи [Обновить пиров]
Размер:  1.2 GB   |    Зарегистрирован:  1 год 1 месяц   |    Скачан:  2 раза

Полного источника не было: 1 месяц 19 дней

Личеров:  1  [  0 KB/s  ]   Подробная статистика пиров
 
   
 
 
 

[Цитировать]

Неоднократные отсутствия / Повторяющие отсутствия / Absences repetees / Absences répétées / Repeated Absences
Страна: Франция
Жанр: драма
Год выпуска: 1972
Продолжительность: 01:18:29
Перевод: Субтитры
Cубтитры: русские
Оригинальная аудиодорожка: французский
Режиссер: Ги Жиль / Guy Gilles
В ролях: Даниэль Делорм/Danièle Delorme, Натали Делон/Nathalie Delon, Патрик Пенн/Patrick Penn, Патрик Жуане/Patrick Jouané, Ив Робер/Yves Robert, Томас Андерсен/Thomas Andhersen, Корина Ле Пулен/Corinne Le Poulain, Жерар Шевалье/Gérard Chevalier, Мишель Бэйкер/Michèle Baker, Ришар Берри/Richard Berry, Пола Вальмон/Paula Valmond
Описание: Молодой человек Франсуа Ноле работает в банке. Часто прогуливает, а однажды вообще не приходит на работу. Он ложится в постель и отказывается вставать. Франсуа – героиновый наркоман, потерявший радость жизни. Ничто не может его вернуть из мрака и отчаяния – ни мать, ни друзья, ни праздники, ни любовь. Однажды он вдруг меняется – становится весёлым и спокойным. Но, как писал Эмиль Чоран, весёлым и спокойным вдруг становится лишь тот, кто уже наметил день своего самоубийства.
Ги Жиль – режиссёр скромный и тихий, не блещущий яркими изобретениями в области мизансцены, но уверенно ведущий историю от начала к концу. Быстрый монтаж, крупные планы, добротная операторская работа, Жанна Моро, поющая песню «Неоднократные прогулы» – всё это рождает фильм о неизбежности ухода, о разрушающем времени и любви, которую не прервёт даже смерть.
Доп. информация: Перевод – daft-digger, подготовка субтитров – alex-kin.
Файл взят с Карагарги, за что благодарим wlfthirteen.
Сэмпл: http://multi-up.com/1066379
Качество видео: DVDRip-AVC
Формат видео: MKV
Видео: V_MPEG4/ISO/AVC at 2000 kbps, 0.215 bit/pixel, 656x568 at 25 fps
Аудио: AC-3 at 192 kbps, 2 ch (Front: L R), 48,0 kHz
Формат субтитров: softsub (SRT)

MediaInfo

Формат : Matroska
Размер файла : 1,20 Гбайт
Продолжительность : 1 ч. 18 м.
Общий поток : 2194 Кбит/сек
Дата кодирования : UTC 2014-10-20 11:38:53
Программа кодирования : mkvmerge v7.2.0 ('On Every Street') 64bit built on Sep 13 2014 15:52:10
Библиотека кодирования : libebml v1.3.0 + libmatroska v1.4.1
Видео
Идентификатор : 1
Формат : AVC
Формат/Информация : Advanced Video Codec
Профиль формата : High@L4.1
Параметр CABAC формата : Да
Параметр ReFrames формата : 8 кадры
Идентификатор кодека : V_MPEG4/ISO/AVC
Продолжительность : 1 ч. 18 м.
Битрейт : 2000 Кбит/сек
Ширина : 656 пикс.
Высота : 568 пикс.
Соотношение сторон : 1,667
Режим частоты кадров : Переменный
Частота кадров : 25,000 кадр/сек
Цветовое пространство : YUV
Подвыборка цветности : 4:2:0
Битовая глубина : 8 бит
Тип развёртки : Прогрессивная
Бит/(Пиксели*Кадры) : 0.215
Размер потока : 1,07 Гбайт (89%)
Библиотека кодирования : x264 core 142 r2479
Настройки программы : cabac=1 / ref=9 / deblock=1:-3:-3 / analyse=0x3:0x133 / me=umh / subme=9 / psy=1 / psy_rd=1.00:0.20 / mixed_ref=1 / me_range=24 / chroma_me=1 / trellis=2 / 8x8dct=1 / cqm=0 / deadzone=21,11 / fast_pskip=0 / chroma_qp_offset=-3 / threads=12 / lookahead_threads=1 / sliced_threads=0 / nr=0 / decimate=1 / interlaced=0 / bluray_compat=0 / constrained_intra=0 / bframes=6 / b_pyramid=1 / b_adapt=2 / b_bias=0 / direct=3 / weightb=1 / open_gop=0 / weightp=2 / keyint=250 / keyint_min=25 / scenecut=40 / intra_refresh=0 / rc_lookahead=60 / rc=2pass / mbtree=1 / bitrate=2000 / ratetol=1.0 / qcomp=0.60 / qpmin=10 / qpmax=30 / qpstep=4 / cplxblur=20.0 / qblur=0.5 / vbv_maxrate=17500 / vbv_bufsize=17500 / nal_hrd=none / filler=0 / ip_ratio=1.40 / aq=1:1.00
Аудио
Идентификатор : 2
Формат : AC-3
Формат/Информация : Audio Coding 3
Расширение режима : CM (complete main)
Идентификатор кодека : A_AC3
Продолжительность : 1 ч. 18 м.
Вид битрейта : Постоянный
Битрейт : 192 Кбит/сек
Канал(ы) : 2 канала(ов)
Расположение каналов : Front: L R
Частота : 48,0 КГц
Битовая глубина : 16 бит
Метод сжатия : С потерями
Задержка видео : -5 мс.
Размер потока : 108 Мбайт (9%)
Язык : French
Текст
Идентификатор : 3
Формат : UTF-8
Идентификатор кодека : S_TEXT/UTF8
Идентификатор кодека/Информация : UTF-8 Plain Text
Заголовок : Français - sourds et malentendants
Язык : French
Меню
00:00:00.000 : :Chapitre 01
00:10:13.600 : :Chapitre 02
00:19:28.400 : :Chapitre 03
00:30:02.800 : :Chapitre 04
00:39:54.000 : :Chapitre 05
00:52:00.800 : :Chapitre 06
01:02:15.200 : :Chapitre 07
01:09:50.800 : :Chapitre 08

Фрагмент субтитров

1
00:00:35,522 --> 00:00:39,639
НЕОДНОКРАТНЫЕ ОТСУТСТВИЯ
2
00:00:39,656 --> 00:00:40,915
НЕОДНОКРАТНЫЕ ОТСУТСТВИЯ
фильм Ги Жиля
3
00:02:04,572 --> 00:02:11,631
Я считал, что жизнь была поэмой!
4
00:02:11,765 --> 00:02:13,850
Я считал, что жизнь была поэмой.
5
00:02:19,522 --> 00:02:20,824
Я - досье...
6
00:02:20,824 --> 00:02:24,008
где-то... в ящике стола
отдела по борьбе с наркотиками.
7
00:02:25,242 --> 00:02:26,561
Досье.
8
00:02:30,610 --> 00:02:33,765
2 ноября.
9
00:02:35,032 --> 00:02:36,912
Банк "Сосьете Женераль"
10
00:02:46,362 --> 00:02:48,592
Мне, пожалуйста, 10 по сотне...
11
00:02:48,762 --> 00:02:53,677
5 по пятьдесят, 10 по десять...
и 30 по одному франку...
12
00:03:18,522 --> 00:03:21,161
Месье, в третий и последний раз,
13
00:03:21,362 --> 00:03:23,557
я прошу вас подтвердить
14
00:03:23,762 --> 00:03:27,914
мой чек 63424 серии 56454.
15
00:03:28,602 --> 00:03:31,921
Я не могу провести здесь все утро!
У меня других дел полно!
16
00:04:56,039 --> 00:04:57,539
Спальня, как герметичный остров.
17
00:05:02,642 --> 00:05:04,837
Белый порошочек...
18
00:05:05,042 --> 00:05:06,680
мой "героин"...
19
00:05:07,602 --> 00:05:09,274
моя легкая смерть...
20
00:05:10,322 --> 00:05:11,391
я тебя ненавижу.

Скриншот c названием фильма

Скриншоты

[teatrix.ru].t9800.torrent 
Торрент: Зарегистрирован [ 2015-10-23 21:30 ] · CBBD41992F45E3F31ADBBADBABA0EE408CACD342

Скачать .torrent

Скачать

13 KB

Статус: проверено
Скачан: 2 раз
Размер: 1.2 GB
terms.php



Быстрый ответ

Имя:

      
Для отправки сообщений необходимо включить JavaScript
Показать сообщения:    

Текущее время: 04-Дек 15:17

Часовой пояс: UTC + 3


Вы можете начинать темы
Вы можете отвечать на сообщения
Вы не можете редактировать свои сообщения
Вы не можете удалять свои сообщения
Вы не можете голосовать в опросах
Вы не можете прикреплять файлы к сообщениям
Вы можете скачивать файлы