В поте лица своего (Дина Лукова, Юрий Маляцкий) [1980 г., драма, фильм-спектакль, TVRip]


 

[Цитировать]

В поте лица своего (2 серии) Год выпуска: 1980.
Жанр: драма, фильм-спектакль.
Продолжительность: 01:14:21 + 01:12:19 (02:26:40).
Режиссеры: Дина Лукова, Юрий Маляцкий, Александр Кривонос.
Действующие лица и исполнители:
Голота - Леонид Дьячков,
Первый секретарь - Роман Громадский,
Булатов - Вадим Медведев,
Колесов - Игорь Горбачев,
Воронков - Борис Соколов,
Головин - Юрий Демич,
Шорников - Петр Шелохонов,
Людников - Андрей Толубеев,
Дед - Анатолий Абрамов,
Железняк - Сергей Заморев,
Грибанов - Валерий Куксин,
Дитятин - Владимир Дюков,
Прохоров - Александр Марков,
Тестов - Всеволод Кузнецов,
Пудалов - Вадим Никитин,
Крамаренко - Юрий Мироненко,
Его отец - Владимир Ляхов,
Наставник - Александр Соколов,
Бесфамильная - Валентина Ковель,
Баба Марина - Мария Призван-Соколова,
Колокольников - Николай Трофимов,
Дородных - Иван Дмитриев.
Описание:
По одноименному роману Александра Авдеенко.
Старый партийный работник Голота отправляется в командировку в город своей юности - крупнейший металлургический центр, где он когда-то работал на паровозе.
В основу фильма-спектакля легли его воспоминания и все, что он увидел, услышал и понял в сравнении, в сопоставлении дня нынешнего и дня минувшего.

Дополнительная информация:
Страна: СССР .
Выпущено: © Ленинградское телевидение.
Автор: Александр Авдеенко.
Режиссеры спектакля: Дина Лукова, Юрий Маляцкий.
Режиссер телеверсии: Александр Кривонос.
Оператор-постановщик: Николай Лебедев.
Художники-постановщики: Константин Лютынский, Николай Субботин.
Музыкальное оформление: Т. Вейнберг.
Релиз

Качество: TVRip
Формат: AVI
Видео: 640x496 (1.29:1), 25 fps, XviD MPEG-4 ~1197 kbps avg, 0.15 bit/pixel
Аудио: 44.100 kHz, MPEG Layer 3, 2 ch, ~128.00 kbps avg

Отчет MI

1-я серия:
General
Complete name : V.pote.lica.cvoego.(2.serii).1980.XviD.TVRip.fenixclub\V.pote.lica.cvoego.1980_1-ya.seriya.avi
Format : AVI
Format/Info : Audio Video Interleave
File size : 710 MiB
Duration : 1h 14mn
Overall bit rate : 1 335 Kbps
Writing application : VirtualDubModRus 1.5.10.2 (build 2542/release)
Writing library : VirtualDub build 32842/release
Video
ID : 0
Format : MPEG-4 Visual
Format profile : Advanced Simple@L5
Format settings, BVOP : 2
Format settings, QPel : No
Format settings, GMC : No warppoints
Format settings, Matrix : Default (MPEG)
Codec ID : XVID
Codec ID/Hint : XviD
Duration : 1h 14mn
Bit rate : 1 197 Kbps
Width : 640 pixels
Height : 496 pixels
Display aspect ratio : 1.290
Frame rate : 25.000 fps
Color space : YUV
Chroma subsampling : 4:2:0
Bit depth : 8 bits
Scan type : Progressive
Compression mode : Lossy
Bits/(Pixel*Frame) : 0.151
Stream size : 637 MiB (90%)
Writing library : XviD 73
Audio
ID : 1
Format : MPEG Audio
Format version : Version 1
Format profile : Layer 3
Mode : Joint stereo
Mode extension : MS Stereo
Codec ID : 55
Codec ID/Hint : MP3
Duration : 1h 14mn
Bit rate mode : Constant
Bit rate : 128 Kbps
Channel(s) : 2 channels
Sampling rate : 44.1 KHz
Compression mode : Lossy
Stream size : 68.1 MiB (10%)
Alignment : Split accross interleaves
Interleave, duration : 40 ms (1.00 video frame)
Interleave, preload duratio : 500 ms
Writing library : LAME3.98.2
2-я серия:
General
Complete name : V.pote.lica.cvoego.(2.serii).1980.XviD.TVRip.fenixclub\V.pote.lica.cvoego.1980_2-ya.seriya.avi
Format : AVI
Format/Info : Audio Video Interleave
File size : 691 MiB
Duration : 1h 12mn
Overall bit rate : 1 335 Kbps
Writing application : VirtualDubModRus 1.5.10.2 (build 2542/release)
Writing library : VirtualDubMod build 2542/release
Video
ID : 0
Format : MPEG-4 Visual
Format profile : Advanced Simple@L5
Format settings, BVOP : 2
Format settings, QPel : No
Format settings, GMC : No warppoints
Format settings, Matrix : Default (MPEG)
Codec ID : XVID
Codec ID/Hint : XviD
Duration : 1h 12mn
Bit rate : 1 198 Kbps
Width : 640 pixels
Height : 496 pixels
Display aspect ratio : 1.290
Frame rate : 25.000 fps
Color space : YUV
Chroma subsampling : 4:2:0
Bit depth : 8 bits
Scan type : Progressive
Compression mode : Lossy
Bits/(Pixel*Frame) : 0.151
Stream size : 619 MiB (90%)
Writing library : XviD 73
Audio
ID : 1
Format : MPEG Audio
Format version : Version 1
Format profile : Layer 3
Codec ID : 55
Codec ID/Hint : MP3
Duration : 1h 12mn
Bit rate mode : Constant
Bit rate : 128 Kbps
Channel(s) : 2 channels
Sampling rate : 44.1 KHz
Compression mode : Lossy
Stream size : 66.2 MiB (10%)
Alignment : Split accross interleaves
Interleave, duration : 40 ms (1.00 video frame)
Interleave, preload duratio : 500 ms
Writing library : LAME3.99r
Encoding settings : -m s -V 4 -q 2 -lowpass 17 -b 128

Скриншоты


Альтернативный хост





Показать сообщения:    

Текущее время: 08-Дек 09:03

Часовой пояс: UTC + 3


Вы не можете начинать темы
Вы не можете отвечать на сообщения
Вы не можете редактировать свои сообщения
Вы не можете удалять свои сообщения
Вы не можете голосовать в опросах
Вы не можете прикреплять файлы к сообщениям
Вы не можете скачивать файлы