(Opera) (Джузеппе Николини) Giuseppe Nicolini - Il geloso sincerato (Fabrizio Dorsi; Tanabe Orie, Francesca Cassinari, Roberta Mameli, Sang Ouk Park, Mauro Bonfanti, Gianluca Pasolini), 2004 - live from Teatro Municipale di Piacenza / FLAC (tracks+.c


 

[Цитировать]

Giuseppe Nicolini - Il geloso sincerato (Fabrizio Dorsi; Tanabe Orie, Francesca Cassinari, Roberta Mameli, Sang Ouk Park, Mauro Bonfanti, Gianluca Pasolini)
Жанр: Opera
Страна-производитель диска: Италия
Год издания диска: 2006
Издатель (лейбл): Bongiovanni
Дата записи: 2004
Аудиокодек: FLAC
Тип рипа: tracks+.cue
Битрейт аудио: lossless
Продолжительность: 126:32
Источник: релизер (Guillermo)
Исполнители:
Berenice - Tanabe Orie,
Errighetta - Francesca Cassinari,
Livia - Roberta Mameli,
Matusio - Sang Ouk Park,
Cicellini - Mauro Bonfanti,
Lelio - Gianluca Pasolini,
Prospero - Valentino Salvini.
Fabrizio Dorsi, Conductor,
Orchestra Sinfonica Amilcare Zanella.
Recorded live at Teatro Municipale di Piacenza, May 14, 2004.

Лог создания рипаЛог создания рипа CD 1

Exact Audio Copy V1.0 beta 3 from 29. August 2011
EAC extraction logfile from 6. September 2015, 11:54
Artista desconocido / Título desconocido
Used drive : HL-DT-STDVDRAM GH24NSC0 Adapter: 3 ID: 0
Read mode : SecureUtilize accurate stream : YesDefeat audio cache : YesMake use of C2 pointers : No
Read offset correction : 6Overread into Lead-In and Lead-Out : NoFill up missing offset samples with silence : YesDelete leading and trailing silent blocks : NoNull samples used in CRC calculations : YesUsed interface : Native Win32 interface for Win NT & 2000Gap handling : Appended to previous track
Used output format : User Defined EncoderSelected bitrate : 768 kBit/sQuality : HighAdd ID3 tag : NoCommand line compressor : C:\Program Files (x86)\Exact Audio Copy\FLAC\FLAC.EXEAdditional command line options : -8 -V -T "ARTIST=%artist%" -T "TITLE=%title%" -T "ALBUM=%albumtitle%" -T "DATE=%year%" -T "TRACKNUMBER=%tracknr%" -T "GENRE=%genre%" -T "PERFORMER=%albuminterpret%" -T "COMPOSER=%composer%" %haslyrics%--tag-from-file=LYRICS="%lyricsfile%"%haslyrics% -T "ALBUMARTIST=%albumartist%" -T "DISCNUMBER=%cdnumber%" -T "TOTALDISCS=%totalcds%" -T "TOTALTRACKS=%numtracks%" -T "COMMENT=%comment%" %source% -o %dest%
TOC of the extracted CD
Track | Start | Length | Start sector | End sector --------------------------------------------------------- 1 | 0:00.00 | 5:00.63 | 0 | 22562 2 | 5:00.63 | 5:51.03 | 22563 | 48890 3 | 10:51.66 | 1:01.20 | 48891 | 53485 4 | 11:53.11 | 3:16.51 | 53486 | 68236 5 | 15:09.62 | 4:32.00 | 68237 | 88636 6 | 19:41.62 | 2:10.03 | 88637 | 98389 7 | 21:51.65 | 1:04.37 | 98390 | 103226 8 | 22:56.27 | 0:57.46 | 103227 | 107547 9 | 23:53.73 | 4:01.63 | 107548 | 125685 10 | 27:55.61 | 4:54.14 | 125686 | 147749 11 | 32:50.00 | 6:28.25 | 147750 | 176874 12 | 39:18.25 | 1:07.44 | 176875 | 181943 13 | 40:25.69 | 8:31.30 | 181944 | 220298 14 | 48:57.24 | 1:19.56 | 220299 | 226279 15 | 50:17.05 | 2:49.59 | 226280 | 239013 16 | 53:06.64 | 1:52.01 | 239014 | 247414 17 | 54:58.65 | 5:22.60 | 247415 | 271624 18 | 60:21.50 | 1:02.12 | 271625 | 276286 19 | 61:23.62 | 5:29.66 | 276287 | 301027
Track 1
Filename f:\Users\Guillermo\Desktop\EAC convertidos\01 Pista01.wav
Pre-gap length 0:00:02.00
Peak level 43.3 % Extraction speed 1.7 X Track quality 100.0 % Test CRC BAD36CA9 Copy CRC BAD36CA9 Copy OK
Track 2
Filename f:\Users\Guillermo\Desktop\EAC convertidos\02 Pista02.wav
Pre-gap length 0:00:02.00
Peak level 59.3 % Extraction speed 2.0 X Track quality 100.0 % Test CRC DB967050 Copy CRC DB967050 Copy OK
Track 3
Filename f:\Users\Guillermo\Desktop\EAC convertidos\03 Pista03.wav
Pre-gap length 0:00:02.00
Peak level 23.2 % Extraction speed 1.3 X Track quality 100.0 % Test CRC 34606393 Copy CRC 34606393 Copy OK
Track 4
Filename f:\Users\Guillermo\Desktop\EAC convertidos\04 Pista04.wav
Pre-gap length 0:00:02.00
Peak level 62.5 % Extraction speed 2.0 X Track quality 100.0 % Test CRC A6141FB3 Copy CRC A6141FB3 Copy OK
Track 5
Filename f:\Users\Guillermo\Desktop\EAC convertidos\05 Pista05.wav
Pre-gap length 0:00:02.00
Peak level 57.3 % Extraction speed 2.2 X Track quality 100.0 % Test CRC 5839E18E Copy CRC 5839E18E Copy OK
Track 6
Filename f:\Users\Guillermo\Desktop\EAC convertidos\06 Pista06.wav
Pre-gap length 0:00:02.00
Peak level 52.5 % Extraction speed 1.9 X Track quality 100.0 % Test CRC 125B7757 Copy CRC 125B7757 Copy OK
Track 7
Filename f:\Users\Guillermo\Desktop\EAC convertidos\07 Pista07.wav
Pre-gap length 0:00:02.00
Peak level 29.3 % Extraction speed 1.5 X Track quality 100.0 % Test CRC 18060B5D Copy CRC 18060B5D Copy OK
Track 8
Filename f:\Users\Guillermo\Desktop\EAC convertidos\08 Pista08.wav
Pre-gap length 0:00:02.00
Peak level 42.7 % Extraction speed 1.5 X Track quality 100.0 % Test CRC AAE7B502 Copy CRC AAE7B502 Copy OK
Track 9
Filename f:\Users\Guillermo\Desktop\EAC convertidos\09 Pista09.wav
Pre-gap length 0:00:02.00
Peak level 42.2 % Extraction speed 2.4 X Track quality 100.0 % Test CRC 0225FEB5 Copy CRC 0225FEB5 Copy OK
Track 10
Filename f:\Users\Guillermo\Desktop\EAC convertidos\10 Pista10.wav
Pre-gap length 0:00:02.00
Peak level 52.2 % Extraction speed 2.6 X Track quality 100.0 % Test CRC 0AAADFDE Copy CRC 0AAADFDE Copy OK
Track 11
Filename f:\Users\Guillermo\Desktop\EAC convertidos\11 Pista11.wav
Pre-gap length 0:00:02.00
Peak level 63.7 % Extraction speed 2.9 X Track quality 100.0 % Test CRC E7D87964 Copy CRC E7D87964 Copy OK
Track 12
Filename f:\Users\Guillermo\Desktop\EAC convertidos\12 Pista12.wav
Pre-gap length 0:00:02.00
Peak level 42.5 % Extraction speed 1.8 X Track quality 100.0 % Test CRC 64B9C387 Copy CRC 64B9C387 Copy OK
Track 13
Filename f:\Users\Guillermo\Desktop\EAC convertidos\13 Pista13.wav
Pre-gap length 0:00:02.00
Peak level 63.1 % Extraction speed 3.2 X Track quality 100.0 % Test CRC 6EFC2C40 Copy CRC 6EFC2C40 Copy OK
Track 14
Filename f:\Users\Guillermo\Desktop\EAC convertidos\14 Pista14.wav
Pre-gap length 0:00:02.00
Peak level 32.8 % Extraction speed 2.2 X Track quality 100.0 % Test CRC E5B6B54A Copy CRC E5B6B54A Copy OK
Track 15
Filename f:\Users\Guillermo\Desktop\EAC convertidos\15 Pista15.wav
Pre-gap length 0:00:02.00
Peak level 67.3 % Extraction speed 2.8 X Track quality 100.0 % Test CRC 25BC9148 Copy CRC 25BC9148 Copy OK
Track 16
Filename f:\Users\Guillermo\Desktop\EAC convertidos\16 Pista16.wav
Pre-gap length 0:00:02.00
Peak level 31.4 % Extraction speed 2.5 X Track quality 100.0 % Test CRC 9BED7ABA Copy CRC 9BED7ABA Copy OK
Track 17
Filename f:\Users\Guillermo\Desktop\EAC convertidos\17 Pista17.wav
Pre-gap length 0:00:02.00
Peak level 60.5 % Extraction speed 2.9 X Track quality 99.9 % Test CRC B9E6F11C Copy CRC B9E6F11C Copy OK
Track 18
Filename f:\Users\Guillermo\Desktop\EAC convertidos\18 Pista18.wav
Pre-gap length 0:00:02.00
Peak level 34.8 % Extraction speed 1.4 X Track quality 99.6 % Test CRC 985F1614 Copy CRC 985F1614 Copy OK
Track 19
Filename f:\Users\Guillermo\Desktop\EAC convertidos\19 Pista19.wav
Pre-gap length 0:00:02.00
Peak level 57.1 % Extraction speed 3.5 X Track quality 100.0 % Test CRC 0187A44A Copy CRC 0187A44A Copy OK
No errors occurred
End of status report
==== Log checksum 38CDBB330DF1A04BFAF764FAB8357136B234D68212D38052F3F793A3AAD71951 ====

Лог создания рипа CD 2

Exact Audio Copy V1.0 beta 3 from 29. August 2011
EAC extraction logfile from 6. September 2015, 13:28
Artista desconocido / Título desconocido
Used drive : HL-DT-STDVDRAM GH24NSC0 Adapter: 3 ID: 0
Read mode : SecureUtilize accurate stream : YesDefeat audio cache : YesMake use of C2 pointers : No
Read offset correction : 6Overread into Lead-In and Lead-Out : NoFill up missing offset samples with silence : YesDelete leading and trailing silent blocks : NoNull samples used in CRC calculations : YesUsed interface : Native Win32 interface for Win NT & 2000Gap handling : Appended to previous track
Used output format : User Defined EncoderSelected bitrate : 768 kBit/sQuality : HighAdd ID3 tag : NoCommand line compressor : C:\Program Files (x86)\Exact Audio Copy\FLAC\FLAC.EXEAdditional command line options : -8 -V -T "ARTIST=%artist%" -T "TITLE=%title%" -T "ALBUM=%albumtitle%" -T "DATE=%year%" -T "TRACKNUMBER=%tracknr%" -T "GENRE=%genre%" -T "PERFORMER=%albuminterpret%" -T "COMPOSER=%composer%" %haslyrics%--tag-from-file=LYRICS="%lyricsfile%"%haslyrics% -T "ALBUMARTIST=%albumartist%" -T "DISCNUMBER=%cdnumber%" -T "TOTALDISCS=%totalcds%" -T "TOTALTRACKS=%numtracks%" -T "COMMENT=%comment%" %source% -o %dest%
TOC of the extracted CD
Track | Start | Length | Start sector | End sector --------------------------------------------------------- 1 | 0:00.00 | 5:01.47 | 0 | 22621 2 | 5:01.47 | 5:02.37 | 22622 | 45308 3 | 10:04.09 | 5:31.18 | 45309 | 70151 4 | 15:35.27 | 1:41.01 | 70152 | 77727 5 | 17:16.28 | 3:18.53 | 77728 | 92630 6 | 20:35.06 | 0:45.58 | 92631 | 96063 7 | 21:20.64 | 3:50.32 | 96064 | 113345 8 | 25:11.21 | 1:43.48 | 113346 | 121118 9 | 26:54.69 | 3:43.74 | 121119 | 137917 10 | 30:38.68 | 1:05.48 | 137918 | 142840 11 | 31:44.41 | 3:40.54 | 142841 | 159394 12 | 35:25.20 | 1:06.20 | 159395 | 164364 13 | 36:31.40 | 3:09.24 | 164365 | 178563 14 | 39:40.64 | 3:15.28 | 178564 | 193216 15 | 42:56.17 | 2:53.71 | 193217 | 206262 16 | 45:50.13 | 5:13.28 | 206263 | 229765 17 | 51:03.41 | 3:18.14 | 229766 | 244629 18 | 54:21.55 | 1:14.00 | 244630 | 250179 19 | 55:35.55 | 2:11.38 | 250180 | 260042 20 | 57:47.18 | 3:23.31 | 260043 | 275298
Track 1
Filename f:\Users\Guillermo\Desktop\EAC convertidos\01 Pista01.wav
Pre-gap length 0:00:02.00
Peak level 59.3 % Extraction speed 1.7 X Track quality 100.0 % Test CRC 788741E8 Copy CRC 788741E8 Copy OK
Track 2
Filename f:\Users\Guillermo\Desktop\EAC convertidos\02 Pista02.wav
Pre-gap length 0:00:02.00
Peak level 62.3 % Extraction speed 1.9 X Track quality 100.0 % Test CRC C6517A1A Copy CRC C6517A1A Copy OK
Track 3
Filename f:\Users\Guillermo\Desktop\EAC convertidos\03 Pista03.wav
Pre-gap length 0:00:02.00
Peak level 100.0 % Extraction speed 2.2 X Track quality 100.0 % Test CRC 0FE72A2D Copy CRC 0FE72A2D Copy OK
Track 4
Filename f:\Users\Guillermo\Desktop\EAC convertidos\04 Pista04.wav
Pre-gap length 0:00:02.00
Peak level 25.0 % Extraction speed 1.3 X Track quality 99.7 % Test CRC BB375939 Copy CRC BB375939 Copy OK
Track 5
Filename f:\Users\Guillermo\Desktop\EAC convertidos\05 Pista05.wav
Pre-gap length 0:00:02.00
Peak level 60.6 % Extraction speed 2.1 X Track quality 100.0 % Test CRC F74C89FC Copy CRC F74C89FC Copy OK
Track 6
Filename f:\Users\Guillermo\Desktop\EAC convertidos\06 Pista06.wav
Pre-gap length 0:00:02.00
Peak level 18.5 % Extraction speed 1.2 X Track quality 100.0 % Test CRC CD51AB45 Copy CRC CD51AB45 Copy OK
Track 7
Filename f:\Users\Guillermo\Desktop\EAC convertidos\07 Pista07.wav
Pre-gap length 0:00:02.00
Peak level 76.9 % Extraction speed 2.3 X Track quality 100.0 % Test CRC AC85F181 Copy CRC AC85F181 Copy OK
Track 8
Filename f:\Users\Guillermo\Desktop\EAC convertidos\08 Pista08.wav
Pre-gap length 0:00:02.00
Peak level 28.7 % Extraction speed 1.9 X Track quality 100.0 % Test CRC 402BA300 Copy CRC 402BA300 Copy OK
Track 9
Filename f:\Users\Guillermo\Desktop\EAC convertidos\09 Pista09.wav
Pre-gap length 0:00:02.00
Peak level 64.3 % Extraction speed 2.0 X Track quality 99.9 % Test CRC CC898FDB Copy CRC CC898FDB Copy OK
Track 10
Filename f:\Users\Guillermo\Desktop\EAC convertidos\10 Pista10.wav
Pre-gap length 0:00:02.00
Peak level 19.2 % Extraction speed 1.1 X Track quality 99.6 % Test CRC CD8C4F0A Copy CRC CD8C4F0A Copy OK
Track 11
Filename f:\Users\Guillermo\Desktop\EAC convertidos\11 Pista11.wav
Pre-gap length 0:00:02.00
Peak level 51.7 % Extraction speed 2.6 X Track quality 100.0 % Test CRC 3263EE70 Copy CRC 3263EE70 Copy OK
Track 12
Filename f:\Users\Guillermo\Desktop\EAC convertidos\12 Pista12.wav
Pre-gap length 0:00:02.00
Peak level 47.5 % Extraction speed 1.2 X Track quality 99.6 % Test CRC 7EEFE65C Copy CRC 7EEFE65C Copy OK
Track 13
Filename f:\Users\Guillermo\Desktop\EAC convertidos\13 Pista13.wav
Pre-gap length 0:00:02.00
Peak level 28.6 % Extraction speed 2.6 X Track quality 100.0 % Test CRC ABE1F2DC Copy CRC ABE1F2DC Copy OK
Track 14
Filename f:\Users\Guillermo\Desktop\EAC convertidos\14 Pista14.wav
Pre-gap length 0:00:02.00
Peak level 47.4 % Extraction speed 2.7 X Track quality 100.0 % Test CRC 4459364F Copy CRC 4459364F Copy OK
Track 15
Filename f:\Users\Guillermo\Desktop\EAC convertidos\15 Pista15.wav
Pre-gap length 0:00:02.00
Peak level 46.7 % Extraction speed 2.7 X Track quality 100.0 % Test CRC 15F51F14 Copy CRC 15F51F14 Copy OK
Track 16
Filename f:\Users\Guillermo\Desktop\EAC convertidos\16 Pista16.wav
Pre-gap length 0:00:02.00
Peak level 92.5 % Extraction speed 3.1 X Track quality 100.0 % Test CRC 83465E1E Copy CRC 83465E1E Copy OK
Track 17
Filename f:\Users\Guillermo\Desktop\EAC convertidos\17 Pista17.wav
Pre-gap length 0:00:02.00
Peak level 47.4 % Extraction speed 2.4 X Track quality 99.8 % Test CRC FAF174C7 Copy CRC FAF174C7 Copy OK
Track 18
Filename f:\Users\Guillermo\Desktop\EAC convertidos\18 Pista18.wav
Pre-gap length 0:00:02.00
Peak level 29.9 % Extraction speed 2.2 X Track quality 100.0 % Test CRC 77D3528C Copy CRC 77D3528C Copy OK
Track 19
Filename f:\Users\Guillermo\Desktop\EAC convertidos\19 Pista19.wav
Pre-gap length 0:00:02.00
Peak level 65.0 % Extraction speed 2.7 X Track quality 100.0 % Test CRC 40EB29E3 Copy CRC 40EB29E3 Copy OK
Track 20
Filename f:\Users\Guillermo\Desktop\EAC convertidos\20 Pista20.wav
Pre-gap length 0:00:02.00
Peak level 76.5 % Extraction speed 3.1 X Track quality 100.0 % Test CRC 2FDDDD32 Copy CRC 2FDDDD32 Copy OK
No errors occurred
End of status report
==== Log checksum 544D3845991020B45F05DEE81EE892FC6E305A301083254FF03EFA5015BA1750 ====

Содержание индексной карты (.CUE)Содержание индексной карты (.CUE) CD 1

REM DISCID 070FAD13REM COMMENT "ExactAudioCopy v1.0b3"FILE "01 Pista01.wav" WAVE TRACK 01 AUDIO INDEX 01 00:00:00 TRACK 02 AUDIO INDEX 00 04:58:63FILE "02 Pista02.wav" WAVE INDEX 01 00:00:00 TRACK 03 AUDIO INDEX 00 05:49:03FILE "03 Pista03.wav" WAVE INDEX 01 00:00:00 TRACK 04 AUDIO INDEX 00 00:59:20FILE "04 Pista04.wav" WAVE INDEX 01 00:00:00 TRACK 05 AUDIO INDEX 00 03:14:51FILE "05 Pista05.wav" WAVE INDEX 01 00:00:00 TRACK 06 AUDIO INDEX 00 04:30:00FILE "06 Pista06.wav" WAVE INDEX 01 00:00:00 TRACK 07 AUDIO INDEX 00 02:08:03FILE "07 Pista07.wav" WAVE INDEX 01 00:00:00 TRACK 08 AUDIO INDEX 00 01:02:37FILE "08 Pista08.wav" WAVE INDEX 01 00:00:00 TRACK 09 AUDIO INDEX 00 00:55:46FILE "09 Pista09.wav" WAVE INDEX 01 00:00:00 TRACK 10 AUDIO INDEX 00 03:59:63FILE "10 Pista10.wav" WAVE INDEX 01 00:00:00 TRACK 11 AUDIO INDEX 00 04:52:14FILE "11 Pista11.wav" WAVE INDEX 01 00:00:00 TRACK 12 AUDIO INDEX 00 06:26:25FILE "12 Pista12.wav" WAVE INDEX 01 00:00:00 TRACK 13 AUDIO INDEX 00 01:05:44FILE "13 Pista13.wav" WAVE INDEX 01 00:00:00 TRACK 14 AUDIO INDEX 00 08:29:30FILE "14 Pista14.wav" WAVE INDEX 01 00:00:00 TRACK 15 AUDIO INDEX 00 01:17:56FILE "15 Pista15.wav" WAVE INDEX 01 00:00:00 TRACK 16 AUDIO INDEX 00 02:47:59FILE "16 Pista16.wav" WAVE INDEX 01 00:00:00 TRACK 17 AUDIO INDEX 00 01:50:01FILE "17 Pista17.wav" WAVE INDEX 01 00:00:00 TRACK 18 AUDIO INDEX 00 05:20:60FILE "18 Pista18.wav" WAVE INDEX 01 00:00:00 TRACK 19 AUDIO INDEX 00 01:00:12FILE "19 Pista19.wav" WAVE INDEX 01 00:00:00

Содержание индексной карты (.CUE) CD 2

REM DISCID 150E5614REM COMMENT "ExactAudioCopy v1.0b3"FILE "01 Pista01.wav" WAVE TRACK 01 AUDIO INDEX 01 00:00:00 TRACK 02 AUDIO INDEX 00 04:59:47FILE "02 Pista02.wav" WAVE INDEX 01 00:00:00 TRACK 03 AUDIO INDEX 00 05:00:37FILE "03 Pista03.wav" WAVE INDEX 01 00:00:00 TRACK 04 AUDIO INDEX 00 05:29:18FILE "04 Pista04.wav" WAVE INDEX 01 00:00:00 TRACK 05 AUDIO INDEX 00 01:39:01FILE "05 Pista05.wav" WAVE INDEX 01 00:00:00 TRACK 06 AUDIO INDEX 00 03:16:53FILE "06 Pista06.wav" WAVE INDEX 01 00:00:00 TRACK 07 AUDIO INDEX 00 00:43:58FILE "07 Pista07.wav" WAVE INDEX 01 00:00:00 TRACK 08 AUDIO INDEX 00 03:48:32FILE "08 Pista08.wav" WAVE INDEX 01 00:00:00 TRACK 09 AUDIO INDEX 00 01:41:48FILE "09 Pista09.wav" WAVE INDEX 01 00:00:00 TRACK 10 AUDIO INDEX 00 03:41:74FILE "10 Pista10.wav" WAVE INDEX 01 00:00:00 TRACK 11 AUDIO INDEX 00 01:03:48FILE "11 Pista11.wav" WAVE INDEX 01 00:00:00 TRACK 12 AUDIO INDEX 00 03:38:54FILE "12 Pista12.wav" WAVE INDEX 01 00:00:00 TRACK 13 AUDIO INDEX 00 01:04:20FILE "13 Pista13.wav" WAVE INDEX 01 00:00:00 TRACK 14 AUDIO INDEX 00 03:07:24FILE "14 Pista14.wav" WAVE INDEX 01 00:00:00 TRACK 15 AUDIO INDEX 00 03:13:28FILE "15 Pista15.wav" WAVE INDEX 01 00:00:00 TRACK 16 AUDIO INDEX 00 02:51:71FILE "16 Pista16.wav" WAVE INDEX 01 00:00:00 TRACK 17 AUDIO INDEX 00 05:11:28FILE "17 Pista17.wav" WAVE INDEX 01 00:00:00 TRACK 18 AUDIO INDEX 00 03:16:14FILE "18 Pista18.wav" WAVE INDEX 01 00:00:00 TRACK 19 AUDIO INDEX 00 01:12:00FILE "19 Pista19.wav" WAVE INDEX 01 00:00:00 TRACK 20 AUDIO INDEX 00 02:09:38FILE "20 Pista20.wav" WAVE INDEX 01 00:00:00

Треклист

Disc 1:
Act I:
1. Sinfonia
2. Introduzione e terzetto. All'uscir la vaga aurora
3. Recitativo. Ah! Che vi pare? Gli uomini si ammazzano
4. Aria. Quando vedo milordini
5. Duetto. Che affanno! Oh Dio! Che pena!
6. Recitativo. L'hai finita? A noi. Pensa che tu parli
7. Cavatina. Se mai più sarò geloso
8. Recitativo. Bisogna compatirlo
9. Aria. Son ferito; e contro Amore
10. Recitativo. Questa, secondo i segni
11. Aria. Non credete, mio padrone
12. Recitativo. E chi creduto avrebbe
13. Sestetto. Mio carino! Ah! Quanta grazia!
14. Recitativo. Al riparo, amica! Tutte le porte
15. Duetto. Entra... presto... io così voglio...
16. Recitativo. Or si è adempito a questo
17. Aria. Ah! Non partir! T'arresta...
18. Recitativo. Cognato in cortesia...
19. Aria. Deh! Riposar lasciatemi
Disc 2:
1. Finale 1. Mio signore...
2. Finale 1. Deh! Spira placida
3. Finale 1. Eccome Don Matusio
Act II:
4. Recitativo. Ma col vostro parlare, signorina
5. Aria. Sta a novanta la fortuna
6. Recitativo. Oh Dio! Nel volto il cangiamento istesso
7. Duetto. Ah non dir che senti amore
8. Recitativo. Io credo pur che amore
9. Duetto. Vado vengo: non temere
10. Recitativo. Ed il mio signor marito
11. Aria. Ah! Contro me la sorte
12. Recitativo. Tu che diavolo hai con tanti gridi
13. Recitativo. Ecco il giardino!
14. Aria. Troppo è ver! Già sono amante!
15. Recitativo. Da un pezzo si passea
16. Quintetto. Patruna... Star jelato?
17. Recitativo. E bravo Alì!
18. Recitativo con orchestra. Oh Dio!
19. Duettino. Io son la pecorella
20. Finale 2. Finiamola una volta



Показать сообщения:    

Текущее время: 03-Дек 09:49

Часовой пояс: UTC + 3


Вы не можете начинать темы
Вы не можете отвечать на сообщения
Вы не можете редактировать свои сообщения
Вы не можете удалять свои сообщения
Вы не можете голосовать в опросах
Вы не можете прикреплять файлы к сообщениям
Вы не можете скачивать файлы