Бронко Буллфрог / Bronco Bullfrog (Барни Платтс-Миллс / Barney Platts-Mills) [1969, Великобритания, драма, фильм о взрослении, криминал, DVDRip] (Dezz) + Sub Rus + Original Eng


Статистика раздачи [Обновить пиров]
Размер:  1.39 GB   |    Зарегистрирован:  1 год 1 месяц   |    Скачан:  0 раз

Полного источника не было: Никогда

Личеров:  3  [  0 KB/s  ]   Подробная статистика пиров
 
   
 
 
 

[Цитировать]

Бронко Буллфрог / Bronco Bullfrog
Страна: Великобритания
Жанр: драма, фильм о взрослении, криминал
Год выпуска: 1969
Продолжительность: 01:23:00
Перевод: Субтитры Dezz
Cубтитры: русские
Оригинальная аудиодорожка: английский
Режиссер: Барни Платтс-Миллс / Barney Platts-Mills
В ролях: Дель Уолкер, Энн Гудинг, Сэм Шеперд, Рой Хэйвуд, Фреда Шеперд, Дик Филпотт, Крис Шеперд, Стюарт Стоунс, Джеффри Уинкотт, Дж. Хьюз ст.
Описание: Дел Куант вместе с Роем (Roy Haywood), Крисом (Chris Shepherd) и другими своими приятелями проводят свободное время, пробираясь в кинотеатр через пожарный выход, устраивая свои собственные уличные войны, околачиваясь в местной грязной кафешке, играя в пинбол и в меру способностей пытаясь заигрывать с девчонками.
На наших глазах они совершают своё первое мелкое правонарушение, и эта история — один из наиболее ироничных эпизодов фильма: ребята вламываются в то самое кафе, где регулярно тусуются, чтобы забрать обратно гроши, которые потратили там ранее. Самое ценное, что можно украсть в этом заведении — это не совсем свежие пирожные, так что парням становится ясно: если хочешь заработать деньжат, нужно найти другие способы сделать это.
Но даже в такой унылой и безрадостной жизни можно найти своего героя, настоящий пример для подражания. Ребята знакомятся с Джо Сэвиллом, более известным как Bronco Bullfrog (его играет Сэм Шеперд (Sam Shepherd)). Незадолго до встречи с главными героями Джо совершил побег из Борстала, исправительного заведения для несовершеннолетних, и его воровские навыки — предмет острой зависти для компании юных лоботрясов.
Ребята чувствуют себя изрядно пристыженными, когда Джо высмеивает их недавнюю эскападу, трофеями которой стали несколько печенек. Раззадоренные рассказами Сэвилла о захватывающих авантюрах преступной жизни, двое из ребят присоединяются к его следующему делу, на которое навел Джо один из его старших знакомых — к ограблению поезда под покровом ночи.
Внимание зрителя неизменно привлекают мрачные улицы и здания Лондона шестидесятых; Ист-Энд показан мельком, но тем не менее, виды весьма и весьма впечатляют. Играя на контрасте, словно ставя крест на своей принадлежности к окружающей действительности, Джо «Bronco Bullfrog» Сэвилл красуется перед нами в рубашке и галстуке крышесносительного узора типа «огурец», вне всякого сомнения, ворованных.
У фильма открытая концовка, и лично я настоятельно рекомендую вам посмотреть Bronco Bullfrog целиком и проникнуться всеми деталями сюжета, дабы максимально пропустить его сквозь себя.
Мои постоянные читатели знают, что я большой поклонник гиперреалистичных кинофильмов, снятых в шестидесятые, и вообще фильмов криминальной тематики, а Bronco Bullfrog объединяет обе эти категории. Если вы любите захватывающие сюжеты, романтические сцены, космические корабли, взрывы и кинозвёзд — этот фильм точно не для вас. Но если, подобно мне, вы питаете слабость к кинематографу, максимально приближенному к суровой повседневной жизни, Bronco Bullfrog — ваш выбор.
(Рецензия полностью - http://modscene.ru/news/bronco.html )
Доп. информация: В контейнере присутствуют отключаемые английские и французские субтитры, русские субтитры включены в раздачу отдельным файлом.
Сэмпл: https://yadi.sk/i/suN1lAUxjxnDh
Качество видео: DVDRip
Формат видео: MKV
Видео: mkv, 2158 Кбит/сек, 720x568, 4:3, 25,000 кадров/сек, avc, 8 бит
Аудио: 192 Кбит/сек, 2 канала, AC-3, 48,0 КГц, 16 бит
Формат субтитров: softsub (SRT)
Доп. информация о субтитрах: Dezz

MediaInfo

Общее
Уникальный идентификатор : 215555189858062584642651654347156683267 (0xA22A6B6324F063298B93C6D88A64FA03)
Полное имя : E:\DOWNLOAD\Barney Platts-Mills - (1969) Bronco Bullfrog.mkv
Формат : Matroska
Версия формата : Version 4 / Version 2
Размер файла : 1,39 Гбайт
Продолжительность : 1 ч. 23 м.
Общий поток : 2398 Кбит/сек
Дата кодирования : UTC 2014-12-30 22:08:21
Программа кодирования : mkvmerge v7.4.0 ('Circles') 64bit built on Dec 12 2014 12:19:56
Библиотека кодирования : libebml v1.3.0 + libmatroska v1.4.1
DURATION : 01:20:56.150000000
NUMBER_OF_FRAMES : 860
NUMBER_OF_BYTES : 1040808
_STATISTICS_WRITING_APP : mkvmerge v7.4.0 ('Circles') 64bit built on Dec 12 2014 12:19:56
_STATISTICS_WRITING_DATE_UTC : 2014-12-30 22:08:21
_STATISTICS_TAGS : BPS DURATION NUMBER_OF_FRAMES NUMBER_OF_BYTES
Видео
Идентификатор : 1
Формат : AVC
Формат/Информация : Advanced Video Codec
Профиль формата : High@L3.1
Параметр CABAC формата : Да
Параметр ReFrames формата : 10 кадров
Идентификатор кодека : V_MPEG4/ISO/AVC
Продолжительность : 1 ч. 23 м.
Битрейт : 2158 Кбит/сек
Ширина : 720 пикселей
Высота : 568 пикселей
Соотношение сторон : 4:3
Режим частоты кадров : Постоянный
Частота кадров : 25,000 кадров/сек
Цветовое пространство : YUV
Субдискретизация насыщенности : 4:2:0
Битовая глубина : 8 бит
Тип развёртки : Прогрессивная
Бит/(Пиксели*Кадры) : 0.211
Размер потока : 1,25 Гбайт (90%)
Библиотека кодирования : x264 core 144 r2525 40bb568
Настройки программы : cabac=1 / ref=10 / deblock=1:-3:-3 / analyse=0x3:0x133 / me=umh / subme=11 / psy=1 / psy_rd=1.00:0.15 / mixed_ref=1 / me_range=32 / chroma_me=1 / trellis=2 / 8x8dct=1 / cqm=0 / deadzone=21,11 / fast_pskip=0 / chroma_qp_offset=-3 / threads=12 / lookahead_threads=2 / sliced_threads=0 / nr=0 / decimate=0 / interlaced=0 / bluray_compat=0 / constrained_intra=0 / bframes=8 / b_pyramid=2 / b_adapt=2 / b_bias=0 / direct=3 / weightb=1 / open_gop=0 / weightp=2 / keyint=250 / keyint_min=25 / scenecut=40 / intra_refresh=0 / rc_lookahead=60 / rc=crf / mbtree=0 / crf=20.0 / qcomp=0.60 / qpmin=0 / qpmax=69 / qpstep=4 / vbv_maxrate=17500 / vbv_bufsize=17500 / crf_max=0.0 / nal_hrd=none / filler=0 / ip_ratio=1.40 / pb_ratio=1.30 / aq=1:1.00
Язык : English
Default : Да
Forced : Нет
DURATION : 01:23:02.240000000
NUMBER_OF_FRAMES : 124556
NUMBER_OF_BYTES : 1370435255
_STATISTICS_WRITING_APP : mkvmerge v7.4.0 ('Circles') 64bit built on Dec 12 2014 12:19:56
_STATISTICS_WRITING_DATE_UTC : 2014-12-30 22:08:21
_STATISTICS_TAGS : BPS DURATION NUMBER_OF_FRAMES NUMBER_OF_BYTES
Коэффициенты матрицы : BT.709
Аудио
Идентификатор : 2
Формат : AC-3
Формат/Информация : Audio Coding 3
Расширение режима : CM (complete main)
Параметр Endianness формата : Big
Идентификатор кодека : A_AC3
Продолжительность : 1 ч. 23 м.
Вид битрейта : Постоянный
Битрейт : 192 Кбит/сек
Каналы : 2 канала
Расположение каналов : Front: L R
Частота : 48,0 КГц
Битовая глубина : 16 бит
Метод сжатия : С потерями
Задержка видео : 450 мс.
Размер потока : 114 Мбайт (8%)
Default : Да
Forced : Нет
Текст #1
Идентификатор : 3
Формат : VobSub
Режим смешивания : zlib
Идентификатор кодека : S_VOBSUB
Идентификатор кодека/Информация : The same subtitle format used on DVDs
Язык : English
Default : Да
Forced : Нет
Текст #2
Идентификатор : 4
Формат : VobSub
Режим смешивания : zlib
Идентификатор кодека : S_VOBSUB
Идентификатор кодека/Информация : The same subtitle format used on DVDs
Язык : French
Default : Нет
Forced : Нет

Скриншот c названием фильма

Образец субтитров

1
00:00:35,328 --> 00:00:36,687
Как эта фигня
открывается?
2
00:00:36,769 --> 00:00:38,767
-Там внизу.
-Где?
3
00:00:41,529 --> 00:00:44,008
-Сколько там?
-Девять пенсов.
4
00:00:44,089 --> 00:00:46,929
Тут пусто.
Нужна операция.
5
00:00:48,249 --> 00:00:50,808
-Возьмём кексы.
-О, класс.
6
00:00:55,570 --> 00:00:56,729
Всего четыре шиллинга.
7
00:00:56,810 --> 00:00:59,169
Тут кексы.
И по шиллингу каждому.
8
00:01:00,570 --> 00:01:02,570
Ладно, мотаем отсюда.
9
00:02:42,139 --> 00:02:46,018
Давайте скинемся, я впущу
вас через заднюю дверь.
10
00:02:46,099 --> 00:02:47,899
Всё, что есть.
11
00:02:48,860 --> 00:02:50,178
Слёзы.
12
00:02:51,460 --> 00:02:53,138
У тебя что?
Здесь не хватает.
13
00:02:53,220 --> 00:02:55,979
Это мне на проезд домой.
14
00:02:57,260 --> 00:02:58,499
Это всё?
15
00:02:58,580 --> 00:03:01,819
А что ты хочешь? Он стоит
пару шиллингов, копейки.
16
00:03:01,900 --> 00:03:03,219
Я погнал.
17
00:03:04,300 --> 00:03:06,100
Не тормози там, Дэн.
18
00:03:07,420 --> 00:03:09,460
Не забудь нас впустить.
19
00:03:11,381 --> 00:03:13,900
Можно билетик?
20
00:03:16,662 --> 00:03:17,860
Пасиб.
21
00:03:18,821 --> 00:03:20,381
Пожалуйста,
на полкрону, леди.
22
00:03:20,502 --> 00:03:22,461
-Сколько лет?
-17.
23
00:03:35,703 --> 00:03:37,702
О, слава Богу, это ты, Генри.
24
00:03:37,783 --> 00:03:40,182
Джанет, дорогая.
25
00:03:40,503 --> 00:03:44,022
Слава Богу. Слава Богу.
Я так рада тебя видеть.
26
00:03:44,104 --> 00:03:45,623
О, Генри, я так волновалась.
27
00:03:45,704 --> 00:03:48,223
Не волнуйся,
теперь всё будет хорошо.
28
00:03:51,504 --> 00:03:55,624
Что ты делаешь?
Дорогой, не глупи.
29
00:03:56,985 --> 00:03:59,144
Перестань сейчас же!
Остановись!
30
00:04:02,945 --> 00:04:03,944
У меня кое-что есть.
[teatrix.ru].t9806.torrent 
Торрент: Зарегистрирован [ 2015-10-24 14:10 ] · 5AEBCB4489A7202EFF500454DF3E5BB47943CEA1

Скачать .torrent

Скачать

15 KB

Статус: проверено
Скачан: 0 раз
Размер: 1.39 GB
terms.php



Быстрый ответ

Имя:

      
Для отправки сообщений необходимо включить JavaScript
Показать сообщения:    

Текущее время: 10-Дек 21:34

Часовой пояс: UTC + 3


Вы можете начинать темы
Вы можете отвечать на сообщения
Вы не можете редактировать свои сообщения
Вы не можете удалять свои сообщения
Вы не можете голосовать в опросах
Вы не можете прикреплять файлы к сообщениям
Вы можете скачивать файлы